  0
SECTION
  2
HEADER
  9
$ACADVER
  1
AC1015
  9
$ACADMAINTVER
 70
    20
  9
$DWGCODEPAGE
  3
ANSI_1252
  9
$INSBASE
 10
0.0
 20
0.0
 30
0.0
  9
$EXTMIN
 10
33.29882152446798
 20
12.21574900131633
 30
0.0
  9
$EXTMAX
 10
367.1556968423264
 20
287.3038793759075
 30
0.0
  9
$LIMMIN
 10
0.0
 20
0.0
  9
$LIMMAX
 10
12.0
 20
9.0
  9
$ORTHOMODE
 70
     0
  9
$REGENMODE
 70
     1
  9
$FILLMODE
 70
     1
  9
$QTEXTMODE
 70
     0
  9
$MIRRTEXT
 70
     0
  9
$LTSCALE
 40
1.0
  9
$ATTMODE
 70
     1
  9
$TEXTSIZE
 40
0.2
  9
$TRACEWID
 40
0.05
  9
$TEXTSTYLE
  7
Standard
  9
$CLAYER
  8
0
  9
$CELTYPE
  6
ByLayer
  9
$CECOLOR
 62
   256
  9
$CELTSCALE
 40
1.0
  9
$DISPSILH
 70
     0
  9
$DIMSCALE
 40
1.0
  9
$DIMASZ
 40
0.18
  9
$DIMEXO
 40
0.0625
  9
$DIMDLI
 40
0.38
  9
$DIMRND
 40
0.0
  9
$DIMDLE
 40
0.0
  9
$DIMEXE
 40
0.18
  9
$DIMTP
 40
0.0
  9
$DIMTM
 40
0.0
  9
$DIMTXT
 40
0.18
  9
$DIMCEN
 40
0.09
  9
$DIMTSZ
 40
0.0
  9
$DIMTOL
 70
     0
  9
$DIMLIM
 70
     0
  9
$DIMTIH
 70
     1
  9
$DIMTOH
 70
     1
  9
$DIMSE1
 70
     0
  9
$DIMSE2
 70
     0
  9
$DIMTAD
 70
     0
  9
$DIMZIN
 70
     0
  9
$DIMBLK
  1

  9
$DIMASO
 70
     1
  9
$DIMSHO
 70
     1
  9
$DIMPOST
  1

  9
$DIMAPOST
  1

  9
$DIMALT
 70
     0
  9
$DIMALTD
 70
     2
  9
$DIMALTF
 40
25.4
  9
$DIMLFAC
 40
1.0
  9
$DIMTOFL
 70
     0
  9
$DIMTVP
 40
0.0
  9
$DIMTIX
 70
     0
  9
$DIMSOXD
 70
     0
  9
$DIMSAH
 70
     0
  9
$DIMBLK1
  1

  9
$DIMBLK2
  1

  9
$DIMSTYLE
  2
Standard
  9
$DIMCLRD
 70
     0
  9
$DIMCLRE
 70
     0
  9
$DIMCLRT
 70
     0
  9
$DIMTFAC
 40
1.0
  9
$DIMGAP
 40
0.09
  9
$DIMJUST
 70
     0
  9
$DIMSD1
 70
     0
  9
$DIMSD2
 70
     0
  9
$DIMTOLJ
 70
     1
  9
$DIMTZIN
 70
     0
  9
$DIMALTZ
 70
     0
  9
$DIMALTTZ
 70
     0
  9
$DIMUPT
 70
     0
  9
$DIMDEC
 70
     4
  9
$DIMTDEC
 70
     4
  9
$DIMALTU
 70
     2
  9
$DIMALTTD
 70
     2
  9
$DIMTXSTY
  7
Standard
  9
$DIMAUNIT
 70
     0
  9
$DIMADEC
 70
     0
  9
$DIMALTRND
 40
0.0
  9
$DIMAZIN
 70
     0
  9
$DIMDSEP
 70
    46
  9
$DIMATFIT
 70
     3
  9
$DIMFRAC
 70
     0
  9
$DIMLDRBLK
  1

  9
$DIMLUNIT
 70
     2
  9
$DIMLWD
 70
    -2
  9
$DIMLWE
 70
    -2
  9
$DIMTMOVE
 70
     0
  9
$LUNITS
 70
     2
  9
$LUPREC
 70
     4
  9
$SKETCHINC
 40
0.1
  9
$FILLETRAD
 40
0.0
  9
$AUNITS
 70
     0
  9
$AUPREC
 70
     0
  9
$MENU
  1
.
  9
$ELEVATION
 40
0.0
  9
$PELEVATION
 40
0.0
  9
$THICKNESS
 40
0.0
  9
$LIMCHECK
 70
     0
  9
$CHAMFERA
 40
0.0
  9
$CHAMFERB
 40
0.0
  9
$CHAMFERC
 40
0.0
  9
$CHAMFERD
 40
0.0
  9
$SKPOLY
 70
     0
  9
$TDCREATE
 40
2458472.389864201
  9
$TDUCREATE
 40
2458472.098197535
  9
$TDUPDATE
 40
2458472.390527408
  9
$TDUUPDATE
 40
2458472.098860741
  9
$TDINDWG
 40
0.0006679051
  9
$TDUSRTIMER
 40
0.0006678356
  9
$USRTIMER
 70
     1
  9
$ANGBASE
 50
0.0
  9
$ANGDIR
 70
     0
  9
$PDMODE
 70
     0
  9
$PDSIZE
 40
0.0
  9
$PLINEWID
 40
0.0
  9
$SPLFRAME
 70
     0
  9
$SPLINETYPE
 70
     6
  9
$SPLINESEGS
 70
     8
  9
$HANDSEED
  5
610
  9
$SURFTAB1
 70
     6
  9
$SURFTAB2
 70
     6
  9
$SURFTYPE
 70
     6
  9
$SURFU
 70
     6
  9
$SURFV
 70
     6
  9
$UCSBASE
  2

  9
$UCSNAME
  2

  9
$UCSORG
 10
0.0
 20
0.0
 30
0.0
  9
$UCSXDIR
 10
1.0
 20
0.0
 30
0.0
  9
$UCSYDIR
 10
0.0
 20
1.0
 30
0.0
  9
$UCSORTHOREF
  2

  9
$UCSORTHOVIEW
 70
     0
  9
$UCSORGTOP
 10
0.0
 20
0.0
 30
0.0
  9
$UCSORGBOTTOM
 10
0.0
 20
0.0
 30
0.0
  9
$UCSORGLEFT
 10
0.0
 20
0.0
 30
0.0
  9
$UCSORGRIGHT
 10
0.0
 20
0.0
 30
0.0
  9
$UCSORGFRONT
 10
0.0
 20
0.0
 30
0.0
  9
$UCSORGBACK
 10
0.0
 20
0.0
 30
0.0
  9
$PUCSBASE
  2

  9
$PUCSNAME
  2

  9
$PUCSORG
 10
0.0
 20
0.0
 30
0.0
  9
$PUCSXDIR
 10
1.0
 20
0.0
 30
0.0
  9
$PUCSYDIR
 10
0.0
 20
1.0
 30
0.0
  9
$PUCSORTHOREF
  2

  9
$PUCSORTHOVIEW
 70
     0
  9
$PUCSORGTOP
 10
0.0
 20
0.0
 30
0.0
  9
$PUCSORGBOTTOM
 10
0.0
 20
0.0
 30
0.0
  9
$PUCSORGLEFT
 10
0.0
 20
0.0
 30
0.0
  9
$PUCSORGRIGHT
 10
0.0
 20
0.0
 30
0.0
  9
$PUCSORGFRONT
 10
0.0
 20
0.0
 30
0.0
  9
$PUCSORGBACK
 10
0.0
 20
0.0
 30
0.0
  9
$USERI1
 70
     0
  9
$USERI2
 70
     0
  9
$USERI3
 70
     0
  9
$USERI4
 70
     0
  9
$USERI5
 70
     0
  9
$USERR1
 40
0.0
  9
$USERR2
 40
0.0
  9
$USERR3
 40
0.0
  9
$USERR4
 40
0.0
  9
$USERR5
 40
0.0
  9
$WORLDVIEW
 70
     1
  9
$SHADEDGE
 70
     3
  9
$SHADEDIF
 70
    70
  9
$TILEMODE
 70
     1
  9
$MAXACTVP
 70
    64
  9
$PINSBASE
 10
0.0
 20
0.0
 30
0.0
  9
$PLIMCHECK
 70
     0
  9
$PEXTMIN
 10
0.0
 20
0.0
 30
0.0
  9
$PEXTMAX
 10
0.0
 20
0.0
 30
0.0
  9
$PLIMMIN
 10
0.0
 20
0.0
  9
$PLIMMAX
 10
12.0
 20
9.0
  9
$UNITMODE
 70
     0
  9
$VISRETAIN
 70
     1
  9
$PLINEGEN
 70
     0
  9
$PSLTSCALE
 70
     1
  9
$TREEDEPTH
 70
  3020
  9
$CMLSTYLE
  2
Standard
  9
$CMLJUST
 70
     0
  9
$CMLSCALE
 40
1.0
  9
$PROXYGRAPHICS
 70
     1
  9
$MEASUREMENT
 70
     0
  9
$CELWEIGHT
370
    -1
  9
$ENDCAPS
280
     0
  9
$JOINSTYLE
280
     0
  9
$LWDISPLAY
290
     0
  9
$INSUNITS
 70
     1
  9
$HYPERLINKBASE
  1

  9
$STYLESHEET
  1

  9
$XEDIT
290
     1
  9
$CEPSNTYPE
380
     0
  9
$PSTYLEMODE
290
     1
  9
$FINGERPRINTGUID
  2
{644DE1C6-A7D3-4032-8F9E-44550D189733}
  9
$VERSIONGUID
  2
{E148B3DE-523B-4548-AE42-256561F2872F}
  9
$EXTNAMES
290
     1
  9
$PSVPSCALE
 40
0.0
  9
$OLESTARTUP
290
     0
  0
ENDSEC
  0
SECTION
  2
CLASSES
  0
CLASS
  1
ACDBDICTIONARYWDFLT
  2
AcDbDictionaryWithDefault
  3
ObjectDBX Classes
 90
        0
280
     0
281
     0
  0
CLASS
  1
ACDBPLACEHOLDER
  2
AcDbPlaceHolder
  3
ObjectDBX Classes
 90
        0
280
     0
281
     0
  0
CLASS
  1
LAYOUT
  2
AcDbLayout
  3
ObjectDBX Classes
 90
        0
280
     0
281
     0
  0
CLASS
  1
DICTIONARYVAR
  2
AcDbDictionaryVar
  3
ObjectDBX Classes
 90
        0
280
     0
281
     0
  0
CLASS
  1
TABLESTYLE
  2
AcDbTableStyle
  3
ObjectDBX Classes
 90
     4095
280
     0
281
     0
  0
CLASS
  1
MATERIAL
  2
AcDbMaterial
  3
ObjectDBX Classes
 90
     1153
280
     0
281
     0
  0
CLASS
  1
VISUALSTYLE
  2
AcDbVisualStyle
  3
ObjectDBX Classes
 90
     4095
280
     0
281
     0
  0
CLASS
  1
DIMASSOC
  2
AcDbDimAssoc
  3
"AcDbDimAssoc|Product Desc:     AcDim ARX App For Dimension|Company:          Autodesk, Inc.|WEB Address:      www.autodesk.com"
 90
        0
280
     0
281
     0
  0
CLASS
  1
SORTENTSTABLE
  2
AcDbSortentsTable
  3
ObjectDBX Classes
 90
        0
280
     0
281
     0
  0
ENDSEC
  0
SECTION
  2
TABLES
  0
TABLE
  2
VPORT
  5
8
330
0
100
AcDbSymbolTable
 70
     1
  0
VPORT
  5
94
330
8
100
AcDbSymbolTableRecord
100
AcDbViewportTableRecord
  2
*Active
 70
     0
 10
0.0
 20
0.0
 11
1.0
 21
1.0
 12
173.1796356383574
 22
127.8031427989538
 13
0.0
 23
0.0
 14
0.5
 24
0.5
 15
0.5
 25
0.5
 16
0.0
 26
0.0
 36
1.0
 17
0.0
 27
0.0
 37
0.0
 40
288.4800938928969
 41
2.189852700490998
 42
50.0
 43
0.0
 44
0.0
 50
0.0
 51
0.0
 71
     0
 72
  1000
 73
     1
 74
     3
 75
     0
 76
     0
 77
     0
 78
     0
281
     0
 65
     1
110
0.0
120
0.0
130
0.0
111
1.0
121
0.0
131
0.0
112
0.0
122
1.0
132
0.0
 79
     0
146
0.0
  0
ENDTAB
  0
TABLE
  2
LTYPE
  5
5
330
0
100
AcDbSymbolTable
 70
     1
  0
LTYPE
  5
14
330
5
100
AcDbSymbolTableRecord
100
AcDbLinetypeTableRecord
  2
ByBlock
 70
     0
  3

 72
    65
 73
     0
 40
0.0
  0
LTYPE
  5
15
330
5
100
AcDbSymbolTableRecord
100
AcDbLinetypeTableRecord
  2
ByLayer
 70
     0
  3

 72
    65
 73
     0
 40
0.0
  0
LTYPE
  5
16
330
5
100
AcDbSymbolTableRecord
100
AcDbLinetypeTableRecord
  2
Continuous
 70
     0
  3
Solid line
 72
    65
 73
     0
 40
0.0
  0
ENDTAB
  0
TABLE
  2
LAYER
  5
2
102
{ACAD_XDICTIONARY
360
122
102
}
330
0
100
AcDbSymbolTable
 70
     2
  0
LAYER
  5
10
330
2
100
AcDbSymbolTableRecord
100
AcDbLayerTableRecord
  2
0
 70
     0
 62
     7
  6
Continuous
370
    -3
390
F
  0
LAYER
  5
11D
330
2
100
AcDbSymbolTableRecord
100
AcDbLayerTableRecord
  2
Defpoints
 70
     0
 62
     7
  6
Continuous
290
     0
370
    -3
390
F
  0
ENDTAB
  0
TABLE
  2
STYLE
  5
3
330
0
100
AcDbSymbolTable
 70
     2
  0
STYLE
  5
11
330
3
100
AcDbSymbolTableRecord
100
AcDbTextStyleTableRecord
  2
Standard
 70
     0
 40
0.0
 41
1.0
 50
0.0
 71
     0
 42
0.2
  3
txt
  4

  0
STYLE
  5
11E
330
3
100
AcDbSymbolTableRecord
100
AcDbTextStyleTableRecord
  2
Binh
 70
     0
 40
0.0
 41
1.0
 50
0.0
 71
     0
 42
25.0
  3

  4

1001
ACAD
1000
VNI-Helve-Condense
1071
        2
  0
ENDTAB
  0
TABLE
  2
VIEW
  5
6
330
0
100
AcDbSymbolTable
 70
     0
  0
ENDTAB
  0
TABLE
  2
UCS
  5
7
330
0
100
AcDbSymbolTable
 70
     0
  0
ENDTAB
  0
TABLE
  2
APPID
  5
9
330
0
100
AcDbSymbolTable
 70
     2
  0
APPID
  5
12
330
9
100
AcDbSymbolTableRecord
100
AcDbRegAppTableRecord
  2
ACAD
 70
     0
  0
APPID
  5
121
330
9
100
AcDbSymbolTableRecord
100
AcDbRegAppTableRecord
  2
ACAD_PSEXT
 70
     0
  0
ENDTAB
  0
TABLE
  2
DIMSTYLE
  5
A
330
0
100
AcDbSymbolTable
 70
     3
100
AcDbDimStyleTable
 71
     0
  0
DIMSTYLE
105
27
330
A
100
AcDbSymbolTableRecord
100
AcDbDimStyleTableRecord
  2
Standard
 70
     0
340
11
  0
DIMSTYLE
105
11F
330
A
100
AcDbSymbolTableRecord
100
AcDbDimStyleTableRecord
  2
SS
 70
     0
 40
1.5
 41
3.0
 42
2.0
 43
1.0
 44
2.0
 73
     0
 74
     0
 77
     1
140
3.0
147
0.5
176
     1
177
     1
178
     7
340
11
  0
DIMSTYLE
105
120
102
{ACAD_REACTORS
330
2ED
330
2F0
330
33A
330
33D
330
340
330
341
330
342
330
343
330
512
330
515
330
55F
330
562
330
565
330
566
330
567
330
568
102
}
330
A
100
AcDbSymbolTableRecord
100
AcDbDimStyleTableRecord
  2
TRIEU
 70
     0
 40
0.5
 41
30.0
 42
0.0
 43
0.0
 44
20.0
 73
     0
 77
     3
 78
     8
140
30.0
141
0.0
146
0.0000052631578947
147
10.0
172
     1
174
     1
176
     8
177
     8
178
     3
271
     0
272
     0
275
     1
279
     2
284
     8
340
11E
342
B9
  0
ENDTAB
  0
TABLE
  2
BLOCK_RECORD
  5
1
330
0
100
AcDbSymbolTable
 70
    19
  0
BLOCK_RECORD
  5
1F
330
1
100
AcDbSymbolTableRecord
100
AcDbBlockTableRecord
  2
*Model_Space
340
22
  0
BLOCK_RECORD
  5
58
330
1
100
AcDbSymbolTableRecord
100
AcDbBlockTableRecord
  2
*Paper_Space
340
59
  0
BLOCK_RECORD
  5
5D
330
1
100
AcDbSymbolTableRecord
100
AcDbBlockTableRecord
  2
*Paper_Space0
340
5E
  0
BLOCK_RECORD
  5
B9
330
1
100
AcDbSymbolTableRecord
100
AcDbBlockTableRecord
  2
_Oblique
340
0
102
{BLKREFS
331
C2
331
C3
331
CE
331
CF
331
F2
331
F3
331
FE
331
FF
331
10A
331
10B
331
116
331
117
331
DA
331
DB
331
E6
331
E7
331
5A9
331
5AA
331
5B5
331
5B6
331
5CC
331
5CD
331
5D5
331
5D6
331
5DE
331
5DF
331
5E7
331
5E8
331
5F0
331
5F1
331
5F9
331
5FA
102
}
  0
BLOCK_RECORD
  5
BD
330
1
100
AcDbSymbolTableRecord
100
AcDbBlockTableRecord
  2
*D2
340
0
  0
BLOCK_RECORD
  5
C9
330
1
100
AcDbSymbolTableRecord
100
AcDbBlockTableRecord
  2
*D3
340
0
  0
BLOCK_RECORD
  5
D5
330
1
100
AcDbSymbolTableRecord
100
AcDbBlockTableRecord
  2
*D4
340
0
  0
BLOCK_RECORD
  5
E1
330
1
100
AcDbSymbolTableRecord
100
AcDbBlockTableRecord
  2
*D5
340
0
  0
BLOCK_RECORD
  5
ED
330
1
100
AcDbSymbolTableRecord
100
AcDbBlockTableRecord
  2
*D6
340
0
  0
BLOCK_RECORD
  5
F9
330
1
100
AcDbSymbolTableRecord
100
AcDbBlockTableRecord
  2
*D7
340
0
  0
BLOCK_RECORD
  5
105
330
1
100
AcDbSymbolTableRecord
100
AcDbBlockTableRecord
  2
*D8
340
0
  0
BLOCK_RECORD
  5
111
330
1
100
AcDbSymbolTableRecord
100
AcDbBlockTableRecord
  2
*D9
340
0
  0
BLOCK_RECORD
  5
569
330
1
100
AcDbSymbolTableRecord
100
AcDbBlockTableRecord
  2
*D11
340
0
  0
BLOCK_RECORD
  5
575
330
1
100
AcDbSymbolTableRecord
100
AcDbBlockTableRecord
  2
*D12
340
0
  0
BLOCK_RECORD
  5
581
330
1
100
AcDbSymbolTableRecord
100
AcDbBlockTableRecord
  2
*D13
340
0
  0
BLOCK_RECORD
  5
58D
330
1
100
AcDbSymbolTableRecord
100
AcDbBlockTableRecord
  2
*D14
340
0
  0
BLOCK_RECORD
  5
599
330
1
100
AcDbSymbolTableRecord
100
AcDbBlockTableRecord
  2
*D15
340
0
  0
BLOCK_RECORD
  5
5A5
330
1
100
AcDbSymbolTableRecord
100
AcDbBlockTableRecord
  2
*D16
340
0
  0
BLOCK_RECORD
  5
5B1
330
1
100
AcDbSymbolTableRecord
100
AcDbBlockTableRecord
  2
*D17
340
0
  0
BLOCK_RECORD
  5
5BD
330
1
100
AcDbSymbolTableRecord
100
AcDbBlockTableRecord
  2
*D18
340
0
  0
ENDTAB
  0
ENDSEC
  0
SECTION
  2
BLOCKS
  0
BLOCK
  5
20
330
1F
100
AcDbEntity
  8
0
100
AcDbBlockBegin
  2
*Model_Space
 70
     0
 10
0.0
 20
0.0
 30
0.0
  3
*Model_Space
  1

  0
ENDBLK
  5
21
330
1F
100
AcDbEntity
  8
0
100
AcDbBlockEnd
  0
BLOCK
  5
5A
330
58
100
AcDbEntity
 67
     1
  8
0
100
AcDbBlockBegin
  2
*Paper_Space
 70
     0
 10
0.0
 20
0.0
 30
0.0
  3
*Paper_Space
  1

  0
ENDBLK
  5
5B
330
58
100
AcDbEntity
 67
     1
  8
0
100
AcDbBlockEnd
  0
BLOCK
  5
5F
330
5D
100
AcDbEntity
 67
     1
  8
0
100
AcDbBlockBegin
  2
*Paper_Space0
 70
     0
 10
0.0
 20
0.0
 30
0.0
  3
*Paper_Space0
  1

  0
ENDBLK
  5
60
330
5D
100
AcDbEntity
 67
     1
  8
0
100
AcDbBlockEnd
  0
BLOCK
  5
BA
330
B9
100
AcDbEntity
  8
0
100
AcDbBlockBegin
  2
_Oblique
 70
     0
 10
0.0
 20
0.0
 30
0.0
  3
_Oblique
  1

  0
LINE
  5
BB
330
B9
100
AcDbEntity
  8
0
  6
ByBlock
 62
     0
370
    -2
100
AcDbLine
 10
-0.5
 20
-0.5
 30
0.0
 11
0.5
 21
0.5
 31
0.0
  0
ENDBLK
  5
BC
330
B9
100
AcDbEntity
  8
0
100
AcDbBlockEnd
  0
BLOCK
  5
BE
330
BD
100
AcDbEntity
  8
0
370
    40
100
AcDbBlockBegin
  2
*D2
 70
     1
 10
0.0
 20
0.0
 30
0.0
  3
*D2
  1

  0
LINE
  5
BF
330
BD
100
AcDbEntity
  8
0
 62
     8
370
    -2
100
AcDbLine
 10
-285.7795337872048
 20
-783.5775217942873
 30
0.0
 11
-285.7795337872048
 21
-761.6733234823696
 31
0.0
  0
LINE
  5
C0
330
BD
100
AcDbEntity
  8
0
 62
     8
370
    -2
100
AcDbLine
 10
-167.2795337889292
 20
-783.5775217942873
 30
0.0
 11
-167.2795337889292
 21
-761.6733234823696
 31
0.0
  0
LINE
  5
C1
330
BD
100
AcDbEntity
  8
0
 62
     8
370
    -2
100
AcDbLine
 10
-285.7795337872048
 20
-771.6733234823696
 30
0.0
 11
-167.2795337889292
 21
-771.6733234823696
 31
0.0
  0
INSERT
  5
C2
330
BD
100
AcDbEntity
  8
0
 62
     8
370
    -2
100
AcDbBlockReference
  2
_Oblique
 10
-285.7795337872048
 20
-771.6733234823696
 30
0.0
 41
15.0
 42
15.0
 43
15.0
 50
180.0
  0
INSERT
  5
C3
330
BD
100
AcDbEntity
  8
0
 62
     8
370
    -2
100
AcDbBlockReference
  2
_Oblique
 10
-167.2795337889292
 20
-771.6733234823696
 30
0.0
 41
15.0
 42
15.0
 43
15.0
  0
MTEXT
  5
C4
330
BD
100
AcDbEntity
  8
0
 62
     3
370
    40
100
AcDbMText
 10
-226.529533788067
 20
-760.9230734823695
 30
0.0
 40
15.0
 41
0.0
 71
     5
 72
     1
  1
\A1;{\H0.7667x;\C256;119}
  7
Binh
 73
     1
 44
1.0
1001
ACAD
1000
MTEXTBEGIN
1070
    73
1070
     1
1070
    44
1040
1.0
1070
    74
1070
     0
1000
MTEXTEND
  0
POINT
  5
C5
330
BD
100
AcDbEntity
  8
Defpoints
 62
     0
370
    40
100
AcDbPoint
 10
-285.7795337872048
 20
-783.5775217942873
 30
0.0
  0
POINT
  5
C6
330
BD
100
AcDbEntity
  8
Defpoints
 62
     0
370
    40
100
AcDbPoint
 10
-167.2795337889292
 20
-783.5775217942873
 30
0.0
  0
POINT
  5
C7
330
BD
100
AcDbEntity
  8
Defpoints
 62
     0
370
    40
100
AcDbPoint
 10
-167.2795337889292
 20
-771.6733234823696
 30
0.0
  0
ENDBLK
  5
C8
330
BD
100
AcDbEntity
  8
0
370
    40
100
AcDbBlockEnd
  0
BLOCK
  5
CA
330
C9
100
AcDbEntity
  8
0
370
    40
100
AcDbBlockBegin
  2
*D3
 70
     1
 10
0.0
 20
0.0
 30
0.0
  3
*D3
  1

  0
LINE
  5
CB
330
C9
100
AcDbEntity
  8
0
 62
     8
370
    -2
100
AcDbLine
 10
-285.7795337872048
 20
-837.5775217942873
 30
0.0
 11
-308.9641184626017
 21
-837.5775217942873
 31
0.0
  0
LINE
  5
CC
330
C9
100
AcDbEntity
  8
0
 62
     8
370
    -2
100
AcDbLine
 10
-284.7795337872049
 20
-782.5775217942873
 30
0.0
 11
-308.9641184626017
 21
-782.5775217942873
 31
0.0
  0
LINE
  5
CD
330
C9
100
AcDbEntity
  8
0
 62
     8
370
    -2
100
AcDbLine
 10
-298.9641184626017
 20
-837.5775217942873
 30
0.0
 11
-298.9641184626017
 21
-782.5775217942873
 31
0.0
  0
INSERT
  5
CE
330
C9
100
AcDbEntity
  8
0
 62
     8
370
    -2
100
AcDbBlockReference
  2
_Oblique
 10
-298.9641184626017
 20
-837.5775217942873
 30
0.0
 41
15.0
 42
15.0
 43
15.0
 50
270.0
  0
INSERT
  5
CF
330
C9
100
AcDbEntity
  8
0
 62
     8
370
    -2
100
AcDbBlockReference
  2
_Oblique
 10
-298.9641184626017
 20
-782.5775217942873
 30
0.0
 41
15.0
 42
15.0
 43
15.0
 50
90.0
  0
MTEXT
  5
D0
330
C9
100
AcDbEntity
  8
0
 62
     3
370
    40
100
AcDbMText
 10
-309.7143684626015
 20
-810.0775217942874
 30
0.0
 40
15.0
 41
0.0
 71
     5
 72
     1
  1
\A1;{\H0.7667x;\C256;55}
  7
Binh
 11
0.0000000000000001
 21
1.0
 31
0.0
 73
     1
 44
1.0
1001
ACAD
1000
MTEXTBEGIN
1070
    73
1070
     1
1070
    44
1040
1.0
1070
    74
1070
     0
1000
MTEXTEND
  0
POINT
  5
D1
330
C9
100
AcDbEntity
  8
Defpoints
 62
     0
370
    40
100
AcDbPoint
 10
-285.7795337872048
 20
-837.5775217942873
 30
0.0
  0
POINT
  5
D2
330
C9
100
AcDbEntity
  8
Defpoints
 62
     0
370
    40
100
AcDbPoint
 10
-284.7795337872049
 20
-782.5775217942873
 30
0.0
  0
POINT
  5
D3
330
C9
100
AcDbEntity
  8
Defpoints
 62
     0
370
    40
100
AcDbPoint
 10
-298.9641184626017
 20
-782.5775217942873
 30
0.0
  0
ENDBLK
  5
D4
330
C9
100
AcDbEntity
  8
0
370
    40
100
AcDbBlockEnd
  0
BLOCK
  5
D6
330
D5
100
AcDbEntity
  8
0
370
    40
100
AcDbBlockBegin
  2
*D4
 70
     1
 10
0.0
 20
0.0
 30
0.0
  3
*D4
  1

  0
LINE
  5
D7
330
D5
100
AcDbEntity
  8
0
 62
     8
370
    -2
100
AcDbLine
 10
-141.8909548940082
 20
-827.8640850873125
 30
0.0
 11
-141.8909548940082
 21
-761.6733234823697
 31
0.0
  0
LINE
  5
D8
330
D5
100
AcDbEntity
  8
0
 62
     8
370
    -2
100
AcDbLine
 10
-17.89095489400824
 20
-827.8640850873125
 30
0.0
 11
-17.89095489400824
 21
-761.6733234823697
 31
0.0
  0
LINE
  5
D9
330
D5
100
AcDbEntity
  8
0
 62
     8
370
    -2
100
AcDbLine
 10
-141.8909548940082
 20
-771.6733234823696
 30
0.0
 11
-17.89095489400824
 21
-771.6733234823696
 31
0.0
  0
INSERT
  5
DA
330
D5
100
AcDbEntity
  8
0
 62
     8
370
    -2
100
AcDbBlockReference
  2
_Oblique
 10
-141.8909548940082
 20
-771.6733234823696
 30
0.0
 41
15.0
 42
15.0
 43
15.0
 50
180.0
  0
INSERT
  5
DB
330
D5
100
AcDbEntity
  8
0
 62
     8
370
    -2
100
AcDbBlockReference
  2
_Oblique
 10
-17.89095489400824
 20
-771.6733234823696
 30
0.0
 41
15.0
 42
15.0
 43
15.0
  0
MTEXT
  5
DC
330
D5
100
AcDbEntity
  8
0
 62
     3
370
    40
100
AcDbMText
 10
-79.89095489400824
 20
-760.9230734823697
 30
0.0
 40
15.0
 41
0.0
 71
     5
 72
     1
  1
\A1;{\H0.7667x;\C256;124}
  7
Binh
 73
     1
 44
1.0
1001
ACAD
1000
MTEXTBEGIN
1070
    73
1070
     1
1070
    44
1040
1.0
1070
    74
1070
     0
1000
MTEXTEND
  0
POINT
  5
DD
330
D5
100
AcDbEntity
  8
Defpoints
 62
     0
370
    40
100
AcDbPoint
 10
-141.8909548940082
 20
-827.8640850873125
 30
0.0
  0
POINT
  5
DE
330
D5
100
AcDbEntity
  8
Defpoints
 62
     0
370
    40
100
AcDbPoint
 10
-17.89095489400824
 20
-827.8640850873125
 30
0.0
  0
POINT
  5
DF
330
D5
100
AcDbEntity
  8
Defpoints
 62
     0
370
    40
100
AcDbPoint
 10
-17.89095489400824
 20
-771.6733234823696
 30
0.0
  0
ENDBLK
  5
E0
330
D5
100
AcDbEntity
  8
0
370
    40
100
AcDbBlockEnd
  0
BLOCK
  5
E2
330
E1
100
AcDbEntity
  8
0
370
    40
100
AcDbBlockBegin
  2
*D5
 70
     1
 10
0.0
 20
0.0
 30
0.0
  3
*D5
  1

  0
LINE
  5
E3
330
E1
100
AcDbEntity
  8
0
 62
     8
370
    -2
100
AcDbLine
 10
-51.89095489400803
 20
-782.5775217942876
 30
0.0
 11
18.39225685525703
 21
-782.5775217942876
 31
0.0
  0
LINE
  5
E4
330
E1
100
AcDbEntity
  8
0
 62
     8
370
    -2
100
AcDbLine
 10
-51.89095489400803
 20
-837.5775217942875
 30
0.0
 11
18.39225685525702
 21
-837.5775217942875
 31
0.0
  0
LINE
  5
E5
330
E1
100
AcDbEntity
  8
0
 62
     8
370
    -2
100
AcDbLine
 10
8.392256855257031
 20
-782.5775217942876
 30
0.0
 11
8.39225685525702
 21
-837.5775217942875
 31
0.0
  0
INSERT
  5
E6
330
E1
100
AcDbEntity
  8
0
 62
     8
370
    -2
100
AcDbBlockReference
  2
_Oblique
 10
8.392256855257031
 20
-782.5775217942876
 30
0.0
 41
15.0
 42
15.0
 43
15.0
 50
90.0
  0
INSERT
  5
E7
330
E1
100
AcDbEntity
  8
0
 62
     8
370
    -2
100
AcDbBlockReference
  2
_Oblique
 10
8.39225685525702
 20
-837.5775217942875
 30
0.0
 41
15.0
 42
15.0
 43
15.0
 50
270.0
  0
MTEXT
  5
E8
330
E1
100
AcDbEntity
  8
0
 62
     3
370
    40
100
AcDbMText
 10
-2.357993144742881
 20
-810.0775217942876
 30
0.0
 40
15.0
 41
0.0
 71
     5
 72
     1
  1
\A1;{\H0.7667x;\C256;55}
  7
Binh
 11
0.0000000000000001
 21
1.0
 31
0.0
 73
     1
 44
1.0
1001
ACAD
1000
MTEXTBEGIN
1070
    73
1070
     1
1070
    44
1040
1.0
1070
    74
1070
     0
1000
MTEXTEND
  0
POINT
  5
E9
330
E1
100
AcDbEntity
  8
Defpoints
 62
     0
370
    40
100
AcDbPoint
 10
-51.89095489400803
 20
-782.5775217942876
 30
0.0
  0
POINT
  5
EA
330
E1
100
AcDbEntity
  8
Defpoints
 62
     0
370
    40
100
AcDbPoint
 10
-51.89095489400803
 20
-837.5775217942875
 30
0.0
  0
POINT
  5
EB
330
E1
100
AcDbEntity
  8
Defpoints
 62
     0
370
    40
100
AcDbPoint
 10
8.39225685525702
 20
-837.5775217942875
 30
0.0
  0
ENDBLK
  5
EC
330
E1
100
AcDbEntity
  8
0
370
    40
100
AcDbBlockEnd
  0
BLOCK
  5
EE
330
ED
100
AcDbEntity
  8
0
370
    40
100
AcDbBlockBegin
  2
*D6
 70
     1
 10
0.0
 20
0.0
 30
0.0
  3
*D6
  1

  0
LINE
  5
EF
330
ED
100
AcDbEntity
  8
0
 62
     8
370
    -2
100
AcDbLine
 10
-167.2795337889292
 20
-630.3178050026753
 30
0.0
 11
-131.8909548940082
 21
-630.3178050026753
 31
0.0
  0
LINE
  5
F0
330
ED
100
AcDbEntity
  8
0
 62
     8
370
    -2
100
AcDbLine
 10
-167.2795337889292
 20
-730.8178050012128
 30
0.0
 11
-131.8909548940082
 21
-730.8178050012128
 31
0.0
  0
LINE
  5
F1
330
ED
100
AcDbEntity
  8
0
 62
     8
370
    -2
100
AcDbLine
 10
-141.8909548940082
 20
-630.3178050026753
 30
0.0
 11
-141.8909548940082
 21
-730.8178050012128
 31
0.0
  0
INSERT
  5
F2
330
ED
100
AcDbEntity
  8
0
 62
     8
370
    -2
100
AcDbBlockReference
  2
_Oblique
 10
-141.8909548940082
 20
-630.3178050026753
 30
0.0
 41
15.0
 42
15.0
 43
15.0
 50
90.0
  0
INSERT
  5
F3
330
ED
100
AcDbEntity
  8
0
 62
     8
370
    -2
100
AcDbBlockReference
  2
_Oblique
 10
-141.8909548940082
 20
-730.8178050012128
 30
0.0
 41
15.0
 42
15.0
 43
15.0
 50
270.0
  0
MTEXT
  5
F4
330
ED
100
AcDbEntity
  8
0
 62
     3
370
    40
100
AcDbMText
 10
-152.6412048940081
 20
-680.567805001944
 30
0.0
 40
15.0
 41
0.0
 71
     5
 72
     1
  1
\A1;{\H0.7667x;\C256;101}
  7
Binh
 11
0.0000000000000001
 21
1.0
 31
0.0
 73
     1
 44
1.0
1001
ACAD
1000
MTEXTBEGIN
1070
    73
1070
     1
1070
    44
1040
1.0
1070
    74
1070
     0
1000
MTEXTEND
  0
POINT
  5
F5
330
ED
100
AcDbEntity
  8
Defpoints
 62
     0
370
    40
100
AcDbPoint
 10
-167.2795337889292
 20
-630.3178050026753
 30
0.0
  0
POINT
  5
F6
330
ED
100
AcDbEntity
  8
Defpoints
 62
     0
370
    40
100
AcDbPoint
 10
-167.2795337889292
 20
-730.8178050012128
 30
0.0
  0
POINT
  5
F7
330
ED
100
AcDbEntity
  8
Defpoints
 62
     0
370
    40
100
AcDbPoint
 10
-141.8909548940082
 20
-730.8178050012128
 30
0.0
  0
ENDBLK
  5
F8
330
ED
100
AcDbEntity
  8
0
370
    40
100
AcDbBlockEnd
  0
BLOCK
  5
FA
330
F9
100
AcDbEntity
  8
0
370
    40
100
AcDbBlockBegin
  2
*D7
 70
     1
 10
0.0
 20
0.0
 30
0.0
  3
*D7
  1

  0
LINE
  5
FB
330
F9
100
AcDbEntity
  8
0
 62
     8
370
    -2
100
AcDbLine
 10
-176.0295337888019
 20
-617.8602361955038
 30
0.0
 11
-103.9203113832117
 21
-617.8602361955038
 31
0.0
  0
LINE
  5
FC
330
F9
100
AcDbEntity
  8
0
 62
     8
370
    -2
100
AcDbLine
 10
-176.0295337888019
 20
-743.2753738083552
 30
0.0
 11
-103.9203113832118
 21
-743.2753738083552
 31
0.0
  0
LINE
  5
FD
330
F9
100
AcDbEntity
  8
0
 62
     8
370
    -2
100
AcDbLine
 10
-113.9203113832117
 20
-617.8602361955038
 30
0.0
 11
-113.9203113832118
 21
-743.2753738083552
 31
0.0
  0
INSERT
  5
FE
330
F9
100
AcDbEntity
  8
0
 62
     8
370
    -2
100
AcDbBlockReference
  2
_Oblique
 10
-113.9203113832117
 20
-617.8602361955038
 30
0.0
 41
15.0
 42
15.0
 43
15.0
 50
90.0
  0
INSERT
  5
FF
330
F9
100
AcDbEntity
  8
0
 62
     8
370
    -2
100
AcDbBlockReference
  2
_Oblique
 10
-113.9203113832118
 20
-743.2753738083552
 30
0.0
 41
15.0
 42
15.0
 43
15.0
 50
270.0
  0
MTEXT
  5
100
330
F9
100
AcDbEntity
  8
0
 62
     3
370
    40
100
AcDbMText
 10
-124.6705613832117
 20
-680.5678050019295
 30
0.0
 40
15.0
 41
0.0
 71
     5
 72
     1
  1
\A1;{\H0.7667x;\C256;125}
  7
Binh
 11
0.0000000000000001
 21
1.0
 31
0.0
 73
     1
 44
1.0
1001
ACAD
1000
MTEXTBEGIN
1070
    73
1070
     1
1070
    44
1040
1.0
1070
    74
1070
     0
1000
MTEXTEND
  0
POINT
  5
101
330
F9
100
AcDbEntity
  8
Defpoints
 62
     0
370
    40
100
AcDbPoint
 10
-176.0295337888019
 20
-617.8602361955038
 30
0.0
  0
POINT
  5
102
330
F9
100
AcDbEntity
  8
Defpoints
 62
     0
370
    40
100
AcDbPoint
 10
-176.0295337888019
 20
-743.2753738083552
 30
0.0
  0
POINT
  5
103
330
F9
100
AcDbEntity
  8
Defpoints
 62
     0
370
    40
100
AcDbPoint
 10
-113.9203113832118
 20
-743.2753738083552
 30
0.0
  0
ENDBLK
  5
104
330
F9
100
AcDbEntity
  8
0
370
    40
100
AcDbBlockEnd
  0
BLOCK
  5
106
330
105
100
AcDbEntity
  8
0
370
    40
100
AcDbBlockBegin
  2
*D8
 70
     1
 10
0.0
 20
0.0
 30
0.0
  3
*D8
  1

  0
LINE
  5
107
330
105
100
AcDbEntity
  8
0
 62
     8
370
    -2
100
AcDbLine
 10
-278.0295337873176
 20
-617.8602361955038
 30
0.0
 11
-278.0295337873176
 21
-597.448635847283
 31
0.0
  0
LINE
  5
108
330
105
100
AcDbEntity
  8
0
 62
     8
370
    -2
100
AcDbLine
 10
-176.0295337888019
 20
-617.9187224340323
 30
0.0
 11
-176.0295337888019
 21
-597.448635847283
 31
0.0
  0
LINE
  5
109
330
105
100
AcDbEntity
  8
0
 62
     8
370
    -2
100
AcDbLine
 10
-278.0295337873176
 20
-607.4486358472831
 30
0.0
 11
-176.0295337888019
 21
-607.4486358472831
 31
0.0
  0
INSERT
  5
10A
330
105
100
AcDbEntity
  8
0
 62
     8
370
    -2
100
AcDbBlockReference
  2
_Oblique
 10
-278.0295337873176
 20
-607.4486358472831
 30
0.0
 41
15.0
 42
15.0
 43
15.0
 50
180.0
  0
INSERT
  5
10B
330
105
100
AcDbEntity
  8
0
 62
     8
370
    -2
100
AcDbBlockReference
  2
_Oblique
 10
-176.0295337888019
 20
-607.4486358472831
 30
0.0
 41
15.0
 42
15.0
 43
15.0
  0
MTEXT
  5
10C
330
105
100
AcDbEntity
  8
0
 62
     3
370
    40
100
AcDbMText
 10
-227.0295337880598
 20
-596.698385847283
 30
0.0
 40
15.0
 41
0.0
 71
     5
 72
     1
  1
\A1;{\H0.7667x;\C256;102}
  7
Binh
 73
     1
 44
1.0
1001
ACAD
1000
MTEXTBEGIN
1070
    73
1070
     1
1070
    44
1040
1.0
1070
    74
1070
     0
1000
MTEXTEND
  0
POINT
  5
10D
330
105
100
AcDbEntity
  8
Defpoints
 62
     0
370
    40
100
AcDbPoint
 10
-278.0295337873176
 20
-617.8602361955038
 30
0.0
  0
POINT
  5
10E
330
105
100
AcDbEntity
  8
Defpoints
 62
     0
370
    40
100
AcDbPoint
 10
-176.0295337888019
 20
-617.9187224340323
 30
0.0
  0
POINT
  5
10F
330
105
100
AcDbEntity
  8
Defpoints
 62
     0
370
    40
100
AcDbPoint
 10
-176.0295337888019
 20
-607.4486358472831
 30
0.0
  0
ENDBLK
  5
110
330
105
100
AcDbEntity
  8
0
370
    40
100
AcDbBlockEnd
  0
BLOCK
  5
112
330
111
100
AcDbEntity
  8
0
370
    40
100
AcDbBlockBegin
  2
*D9
 70
     1
 10
0.0
 20
0.0
 30
0.0
  3
*D9
  1

  0
LINE
  5
113
330
111
100
AcDbEntity
  8
0
 62
     8
370
    -2
100
AcDbLine
 10
-285.7795337872048
 20
-630.3178050026753
 30
0.0
 11
-285.7795337872048
 21
-576.4898914196963
 31
0.0
  0
LINE
  5
114
330
111
100
AcDbEntity
  8
0
 62
     8
370
    -2
100
AcDbLine
 10
-167.2795337889292
 20
-630.3178050026753
 30
0.0
 11
-167.2795337889292
 21
-576.4898914196963
 31
0.0
  0
LINE
  5
115
330
111
100
AcDbEntity
  8
0
 62
     8
370
    -2
100
AcDbLine
 10
-285.7795337872048
 20
-586.4898914196963
 30
0.0
 11
-167.2795337889292
 21
-586.4898914196963
 31
0.0
  0
INSERT
  5
116
330
111
100
AcDbEntity
  8
0
 62
     8
370
    -2
100
AcDbBlockReference
  2
_Oblique
 10
-285.7795337872048
 20
-586.4898914196963
 30
0.0
 41
15.0
 42
15.0
 43
15.0
 50
180.0
  0
INSERT
  5
117
330
111
100
AcDbEntity
  8
0
 62
     8
370
    -2
100
AcDbBlockReference
  2
_Oblique
 10
-167.2795337889292
 20
-586.4898914196963
 30
0.0
 41
15.0
 42
15.0
 43
15.0
  0
MTEXT
  5
118
330
111
100
AcDbEntity
  8
0
 62
     3
370
    40
100
AcDbMText
 10
-226.5295337880671
 20
-575.7396414196963
 30
0.0
 40
15.0
 41
0.0
 71
     5
 72
     1
  1
\A1;{\H0.7667x;\C256;119}
  7
Binh
 73
     1
 44
1.0
1001
ACAD
1000
MTEXTBEGIN
1070
    73
1070
     1
1070
    44
1040
1.0
1070
    74
1070
     0
1000
MTEXTEND
  0
POINT
  5
119
330
111
100
AcDbEntity
  8
Defpoints
 62
     0
370
    40
100
AcDbPoint
 10
-285.7795337872048
 20
-630.3178050026753
 30
0.0
  0
POINT
  5
11A
330
111
100
AcDbEntity
  8
Defpoints
 62
     0
370
    40
100
AcDbPoint
 10
-167.2795337889292
 20
-630.3178050026753
 30
0.0
  0
POINT
  5
11B
330
111
100
AcDbEntity
  8
Defpoints
 62
     0
370
    40
100
AcDbPoint
 10
-167.2795337889292
 20
-586.4898914196963
 30
0.0
  0
ENDBLK
  5
11C
330
111
100
AcDbEntity
  8
0
370
    40
100
AcDbBlockEnd
  0
BLOCK
  5
573
330
569
100
AcDbEntity
  8
0
100
AcDbBlockBegin
  2
*D11
 70
     1
 10
0.0
 20
0.0
 30
0.0
  3
*D11
  1

  0
LINE
  5
5C9
330
569
100
AcDbEntity
  8
0
 62
     8
370
    -2
100
AcDbLine
 10
181.4839061981404
 20
226.9754657929285
 30
0.0
 11
216.8724850930614
 21
226.9754657929285
 31
0.0
  0
LINE
  5
5CA
330
569
100
AcDbEntity
  8
0
 62
     8
370
    -2
100
AcDbLine
 10
181.4839061981404
 20
126.475465794391
 30
0.0
 11
216.8724850930614
 21
126.475465794391
 31
0.0
  0
LINE
  5
5CB
330
569
100
AcDbEntity
  8
0
 62
     8
370
    -2
100
AcDbLine
 10
206.8724850930614
 20
226.9754657929285
 30
0.0
 11
206.8724850930614
 21
126.475465794391
 31
0.0
  0
INSERT
  5
5CC
330
569
100
AcDbEntity
  8
0
 62
     8
370
    -2
100
AcDbBlockReference
  2
_Oblique
 10
206.8724850930614
 20
226.9754657929285
 30
0.0
 41
15.0
 42
15.0
 43
15.0
 50
90.0
  0
INSERT
  5
5CD
330
569
100
AcDbEntity
  8
0
 62
     8
370
    -2
100
AcDbBlockReference
  2
_Oblique
 10
206.8724850930614
 20
126.475465794391
 30
0.0
 41
15.0
 42
15.0
 43
15.0
 50
270.0
  0
MTEXT
  5
5CE
330
569
100
AcDbEntity
  8
0
 62
     3
370
    40
100
AcDbMText
 10
196.1222350930614
 20
176.7254657936598
 30
0.0
 40
15.0
 41
0.0
 71
     5
 72
     1
  1
\A1;{\H0.7667x;\C256;101}
  7
Binh
 11
0.0000000000000001
 21
1.0
 31
0.0
 73
     1
 44
1.0
1001
ACAD
1000
MTEXTBEGIN
1070
    73
1070
     1
1070
    44
1040
1.0
1070
    74
1070
     0
1000
MTEXTEND
  0
POINT
  5
5CF
330
569
100
AcDbEntity
  8
Defpoints
 62
     0
100
AcDbPoint
 10
181.4839061981404
 20
226.9754657929285
 30
0.0
  0
POINT
  5
5D0
330
569
100
AcDbEntity
  8
Defpoints
 62
     0
100
AcDbPoint
 10
181.4839061981404
 20
126.475465794391
 30
0.0
  0
POINT
  5
5D1
330
569
100
AcDbEntity
  8
Defpoints
 62
     0
100
AcDbPoint
 10
206.8724850930614
 20
126.475465794391
 30
0.0
  0
ENDBLK
  5
574
330
569
100
AcDbEntity
  8
0
100
AcDbBlockEnd
  0
BLOCK
  5
57F
330
575
100
AcDbEntity
  8
0
100
AcDbBlockBegin
  2
*D12
 70
     1
 10
0.0
 20
0.0
 30
0.0
  3
*D12
  1

  0
LINE
  5
5D2
330
575
100
AcDbEntity
  8
0
 62
     8
370
    -2
100
AcDbLine
 10
172.7339061982677
 20
239.4330346001
 30
0.0
 11
244.8431286038579
 21
239.4330346001
 31
0.0
  0
LINE
  5
5D3
330
575
100
AcDbEntity
  8
0
 62
     8
370
    -2
100
AcDbLine
 10
172.7339061982677
 20
114.0178969872486
 30
0.0
 11
244.8431286038579
 21
114.0178969872486
 31
0.0
  0
LINE
  5
5D4
330
575
100
AcDbEntity
  8
0
 62
     8
370
    -2
100
AcDbLine
 10
234.8431286038579
 20
239.4330346001
 30
0.0
 11
234.8431286038579
 21
114.0178969872486
 31
0.0
  0
INSERT
  5
5D5
330
575
100
AcDbEntity
  8
0
 62
     8
370
    -2
100
AcDbBlockReference
  2
_Oblique
 10
234.8431286038579
 20
239.4330346001
 30
0.0
 41
15.0
 42
15.0
 43
15.0
 50
90.0
  0
INSERT
  5
5D6
330
575
100
AcDbEntity
  8
0
 62
     8
370
    -2
100
AcDbBlockReference
  2
_Oblique
 10
234.8431286038579
 20
114.0178969872486
 30
0.0
 41
15.0
 42
15.0
 43
15.0
 50
270.0
  0
MTEXT
  5
5D7
330
575
100
AcDbEntity
  8
0
 62
     3
370
    40
100
AcDbMText
 10
224.0928786038579
 20
176.7254657936743
 30
0.0
 40
15.0
 41
0.0
 71
     5
 72
     1
  1
\A1;{\H0.7667x;\C256;125}
  7
Binh
 11
0.0000000000000001
 21
1.0
 31
0.0
 73
     1
 44
1.0
1001
ACAD
1000
MTEXTBEGIN
1070
    73
1070
     1
1070
    44
1040
1.0
1070
    74
1070
     0
1000
MTEXTEND
  0
POINT
  5
5D8
330
575
100
AcDbEntity
  8
Defpoints
 62
     0
100
AcDbPoint
 10
172.7339061982677
 20
239.4330346001
 30
0.0
  0
POINT
  5
5D9
330
575
100
AcDbEntity
  8
Defpoints
 62
     0
100
AcDbPoint
 10
172.7339061982677
 20
114.0178969872486
 30
0.0
  0
POINT
  5
5DA
330
575
100
AcDbEntity
  8
Defpoints
 62
     0
100
AcDbPoint
 10
234.8431286038579
 20
114.0178969872486
 30
0.0
  0
ENDBLK
  5
580
330
575
100
AcDbEntity
  8
0
100
AcDbBlockEnd
  0
BLOCK
  5
58B
330
581
100
AcDbEntity
  8
0
100
AcDbBlockBegin
  2
*D13
 70
     1
 10
0.0
 20
0.0
 30
0.0
  3
*D13
  1

  0
LINE
  5
5DB
330
581
100
AcDbEntity
  8
0
 62
     8
370
    -2
100
AcDbLine
 10
70.73390619975204
 20
239.4330346001
 30
0.0
 11
70.73390619975204
 21
259.8446349483207
 31
0.0
  0
LINE
  5
5DC
330
581
100
AcDbEntity
  8
0
 62
     8
370
    -2
100
AcDbLine
 10
172.7339061982677
 20
239.3745483615715
 30
0.0
 11
172.7339061982677
 21
259.8446349483207
 31
0.0
  0
LINE
  5
5DD
330
581
100
AcDbEntity
  8
0
 62
     8
370
    -2
100
AcDbLine
 10
70.73390619975204
 20
249.8446349483208
 30
0.0
 11
172.7339061982677
 21
249.8446349483208
 31
0.0
  0
INSERT
  5
5DE
330
581
100
AcDbEntity
  8
0
 62
     8
370
    -2
100
AcDbBlockReference
  2
_Oblique
 10
70.73390619975204
 20
249.8446349483208
 30
0.0
 41
15.0
 42
15.0
 43
15.0
 50
180.0
  0
INSERT
  5
5DF
330
581
100
AcDbEntity
  8
0
 62
     8
370
    -2
100
AcDbBlockReference
  2
_Oblique
 10
172.7339061982677
 20
249.8446349483208
 30
0.0
 41
15.0
 42
15.0
 43
15.0
  0
MTEXT
  5
5E0
330
581
100
AcDbEntity
  8
0
 62
     3
370
    40
100
AcDbMText
 10
121.7339061990099
 20
260.5948849483208
 30
0.0
 40
15.0
 41
0.0
 71
     5
 72
     1
  1
\A1;{\H0.7667x;\C256;102}
  7
Binh
 73
     1
 44
1.0
1001
ACAD
1000
MTEXTBEGIN
1070
    73
1070
     1
1070
    44
1040
1.0
1070
    74
1070
     0
1000
MTEXTEND
  0
POINT
  5
5E1
330
581
100
AcDbEntity
  8
Defpoints
 62
     0
100
AcDbPoint
 10
70.73390619975204
 20
239.4330346001
 30
0.0
  0
POINT
  5
5E2
330
581
100
AcDbEntity
  8
Defpoints
 62
     0
100
AcDbPoint
 10
172.7339061982677
 20
239.3745483615715
 30
0.0
  0
POINT
  5
5E3
330
581
100
AcDbEntity
  8
Defpoints
 62
     0
100
AcDbPoint
 10
172.7339061982677
 20
249.8446349483208
 30
0.0
  0
ENDBLK
  5
58C
330
581
100
AcDbEntity
  8
0
100
AcDbBlockEnd
  0
BLOCK
  5
597
330
58D
100
AcDbEntity
  8
0
100
AcDbBlockBegin
  2
*D14
 70
     1
 10
0.0
 20
0.0
 30
0.0
  3
*D14
  1

  0
LINE
  5
5E4
330
58D
100
AcDbEntity
  8
0
 62
     8
370
    -2
100
AcDbLine
 10
62.98390619986482
 20
226.9754657929285
 30
0.0
 11
62.98390619986482
 21
280.8033793759074
 31
0.0
  0
LINE
  5
5E5
330
58D
100
AcDbEntity
  8
0
 62
     8
370
    -2
100
AcDbLine
 10
181.4839061981404
 20
226.9754657929285
 30
0.0
 11
181.4839061981404
 21
280.8033793759074
 31
0.0
  0
LINE
  5
5E6
330
58D
100
AcDbEntity
  8
0
 62
     8
370
    -2
100
AcDbLine
 10
62.98390619986482
 20
270.8033793759074
 30
0.0
 11
181.4839061981404
 21
270.8033793759074
 31
0.0
  0
INSERT
  5
5E7
330
58D
100
AcDbEntity
  8
0
 62
     8
370
    -2
100
AcDbBlockReference
  2
_Oblique
 10
62.98390619986482
 20
270.8033793759074
 30
0.0
 41
15.0
 42
15.0
 43
15.0
 50
180.0
  0
INSERT
  5
5E8
330
58D
100
AcDbEntity
  8
0
 62
     8
370
    -2
100
AcDbBlockReference
  2
_Oblique
 10
181.4839061981404
 20
270.8033793759074
 30
0.0
 41
15.0
 42
15.0
 43
15.0
  0
MTEXT
  5
5E9
330
58D
100
AcDbEntity
  8
0
 62
     3
370
    40
100
AcDbMText
 10
122.2339061990026
 20
281.5536293759074
 30
0.0
 40
15.0
 41
0.0
 71
     5
 72
     1
  1
\A1;{\H0.7667x;\C256;119}
  7
Binh
 73
     1
 44
1.0
1001
ACAD
1000
MTEXTBEGIN
1070
    73
1070
     1
1070
    44
1040
1.0
1070
    74
1070
     0
1000
MTEXTEND
  0
POINT
  5
5EA
330
58D
100
AcDbEntity
  8
Defpoints
 62
     0
100
AcDbPoint
 10
62.98390619986482
 20
226.9754657929285
 30
0.0
  0
POINT
  5
5EB
330
58D
100
AcDbEntity
  8
Defpoints
 62
     0
100
AcDbPoint
 10
181.4839061981404
 20
226.9754657929285
 30
0.0
  0
POINT
  5
5EC
330
58D
100
AcDbEntity
  8
Defpoints
 62
     0
100
AcDbPoint
 10
181.4839061981404
 20
270.8033793759074
 30
0.0
  0
ENDBLK
  5
598
330
58D
100
AcDbEntity
  8
0
100
AcDbBlockEnd
  0
BLOCK
  5
5A3
330
599
100
AcDbEntity
  8
0
100
AcDbBlockBegin
  2
*D15
 70
     1
 10
0.0
 20
0.0
 30
0.0
  3
*D15
  1

  0
LINE
  5
5ED
330
599
100
AcDbEntity
  8
0
 62
     8
370
    -2
100
AcDbLine
 10
62.98390619986483
 20
73.71574900131655
 30
0.0
 11
62.98390619986483
 21
95.6199473132343
 31
0.0
  0
LINE
  5
5EE
330
599
100
AcDbEntity
  8
0
 62
     8
370
    -2
100
AcDbLine
 10
181.4839061981404
 20
73.71574900131655
 30
0.0
 11
181.4839061981404
 21
95.6199473132343
 31
0.0
  0
LINE
  5
5EF
330
599
100
AcDbEntity
  8
0
 62
     8
370
    -2
100
AcDbLine
 10
62.98390619986483
 20
85.6199473132343
 30
0.0
 11
181.4839061981404
 21
85.6199473132343
 31
0.0
  0
INSERT
  5
5F0
330
599
100
AcDbEntity
  8
0
 62
     8
370
    -2
100
AcDbBlockReference
  2
_Oblique
 10
62.98390619986483
 20
85.6199473132343
 30
0.0
 41
15.0
 42
15.0
 43
15.0
 50
180.0
  0
INSERT
  5
5F1
330
599
100
AcDbEntity
  8
0
 62
     8
370
    -2
100
AcDbBlockReference
  2
_Oblique
 10
181.4839061981404
 20
85.6199473132343
 30
0.0
 41
15.0
 42
15.0
 43
15.0
  0
MTEXT
  5
5F2
330
599
100
AcDbEntity
  8
0
 62
     3
370
    40
100
AcDbMText
 10
122.2339061990026
 20
96.37019731323432
 30
0.0
 40
15.0
 41
0.0
 71
     5
 72
     1
  1
\A1;{\H0.7667x;\C256;119}
  7
Binh
 73
     1
 44
1.0
1001
ACAD
1000
MTEXTBEGIN
1070
    73
1070
     1
1070
    44
1040
1.0
1070
    74
1070
     0
1000
MTEXTEND
  0
POINT
  5
5F3
330
599
100
AcDbEntity
  8
Defpoints
 62
     0
100
AcDbPoint
 10
62.98390619986483
 20
73.71574900131655
 30
0.0
  0
POINT
  5
5F4
330
599
100
AcDbEntity
  8
Defpoints
 62
     0
100
AcDbPoint
 10
181.4839061981404
 20
73.71574900131655
 30
0.0
  0
POINT
  5
5F5
330
599
100
AcDbEntity
  8
Defpoints
 62
     0
100
AcDbPoint
 10
181.4839061981404
 20
85.6199473132343
 30
0.0
  0
ENDBLK
  5
5A4
330
599
100
AcDbEntity
  8
0
100
AcDbBlockEnd
  0
BLOCK
  5
5AF
330
5A5
100
AcDbEntity
  8
0
100
AcDbBlockBegin
  2
*D16
 70
     1
 10
0.0
 20
0.0
 30
0.0
  3
*D16
  1

  0
LINE
  5
5A6
330
5A5
100
AcDbEntity
  8
0
 62
     8
370
    -2
100
AcDbLine
 10
62.98390619986481
 20
19.71574900131647
 30
0.0
 11
39.79932152446798
 21
19.71574900131648
 31
0.0
  0
LINE
  5
5A7
330
5A5
100
AcDbEntity
  8
0
 62
     8
370
    -2
100
AcDbLine
 10
63.98390619986482
 20
74.71574900131648
 30
0.0
 11
39.799321524468
 21
74.71574900131648
 31
0.0
  0
LINE
  5
5A8
330
5A5
100
AcDbEntity
  8
0
 62
     8
370
    -2
100
AcDbLine
 10
49.79932152446798
 20
19.71574900131648
 30
0.0
 11
49.79932152446799
 21
74.71574900131648
 31
0.0
  0
INSERT
  5
5A9
330
5A5
100
AcDbEntity
  8
0
 62
     8
370
    -2
100
AcDbBlockReference
  2
_Oblique
 10
49.79932152446798
 20
19.71574900131648
 30
0.0
 41
15.0
 42
15.0
 43
15.0
 50
270.0
  0
INSERT
  5
5AA
330
5A5
100
AcDbEntity
  8
0
 62
     8
370
    -2
100
AcDbBlockReference
  2
_Oblique
 10
49.79932152446799
 20
74.71574900131648
 30
0.0
 41
15.0
 42
15.0
 43
15.0
 50
90.0
  0
MTEXT
  5
5AB
330
5A5
100
AcDbEntity
  8
0
 62
     3
370
    40
100
AcDbMText
 10
39.04907152446798
 20
47.21574900131649
 30
0.0
 40
15.0
 41
0.0
 71
     5
 72
     1
  1
\A1;{\H0.7667x;\C256;55}
  7
Binh
 11
0.0000000000000001
 21
1.0
 31
0.0
 73
     1
 44
1.0
1001
ACAD
1000
MTEXTBEGIN
1070
    73
1070
     1
1070
    44
1040
1.0
1070
    74
1070
     0
1000
MTEXTEND
  0
POINT
  5
5AC
330
5A5
100
AcDbEntity
  8
Defpoints
 62
     0
100
AcDbPoint
 10
62.98390619986481
 20
19.71574900131647
 30
0.0
  0
POINT
  5
5AD
330
5A5
100
AcDbEntity
  8
Defpoints
 62
     0
100
AcDbPoint
 10
63.98390619986482
 20
74.71574900131648
 30
0.0
  0
POINT
  5
5AE
330
5A5
100
AcDbEntity
  8
Defpoints
 62
     0
100
AcDbPoint
 10
49.79932152446799
 20
74.71574900131648
 30
0.0
  0
ENDBLK
  5
5B0
330
5A5
100
AcDbEntity
  8
0
100
AcDbBlockEnd
  0
BLOCK
  5
5BB
330
5B1
100
AcDbEntity
  8
0
100
AcDbBlockBegin
  2
*D17
 70
     1
 10
0.0
 20
0.0
 30
0.0
  3
*D17
  1

  0
LINE
  5
5B2
330
5B1
100
AcDbEntity
  8
0
 62
     8
370
    -2
100
AcDbLine
 10
206.8724850930614
 20
29.42918570829127
 30
0.0
 11
206.8724850930614
 21
95.61994731323412
 31
0.0
  0
LINE
  5
5B3
330
5B1
100
AcDbEntity
  8
0
 62
     8
370
    -2
100
AcDbLine
 10
330.8724850930614
 20
29.42918570829127
 30
0.0
 11
330.8724850930614
 21
95.61994731323412
 31
0.0
  0
LINE
  5
5B4
330
5B1
100
AcDbEntity
  8
0
 62
     8
370
    -2
100
AcDbLine
 10
206.8724850930614
 20
85.61994731323412
 30
0.0
 11
330.8724850930614
 21
85.61994731323412
 31
0.0
  0
INSERT
  5
5B5
330
5B1
100
AcDbEntity
  8
0
 62
     8
370
    -2
100
AcDbBlockReference
  2
_Oblique
 10
206.8724850930614
 20
85.61994731323412
 30
0.0
 41
15.0
 42
15.0
 43
15.0
 50
180.0
  0
INSERT
  5
5B6
330
5B1
100
AcDbEntity
  8
0
 62
     8
370
    -2
100
AcDbBlockReference
  2
_Oblique
 10
330.8724850930614
 20
85.61994731323412
 30
0.0
 41
15.0
 42
15.0
 43
15.0
  0
MTEXT
  5
5B7
330
5B1
100
AcDbEntity
  8
0
 62
     3
370
    40
100
AcDbMText
 10
268.8724850930614
 20
96.37019731323412
 30
0.0
 40
15.0
 41
0.0
 71
     5
 72
     1
  1
\A1;{\H0.7667x;\C256;124}
  7
Binh
 73
     1
 44
1.0
1001
ACAD
1000
MTEXTBEGIN
1070
    73
1070
     1
1070
    44
1040
1.0
1070
    74
1070
     0
1000
MTEXTEND
  0
POINT
  5
5B8
330
5B1
100
AcDbEntity
  8
Defpoints
 62
     0
100
AcDbPoint
 10
206.8724850930614
 20
29.42918570829127
 30
0.0
  0
POINT
  5
5B9
330
5B1
100
AcDbEntity
  8
Defpoints
 62
     0
100
AcDbPoint
 10
330.8724850930614
 20
29.42918570829127
 30
0.0
  0
POINT
  5
5BA
330
5B1
100
AcDbEntity
  8
Defpoints
 62
     0
100
AcDbPoint
 10
330.8724850930614
 20
85.61994731323412
 30
0.0
  0
ENDBLK
  5
5BC
330
5B1
100
AcDbEntity
  8
0
100
AcDbBlockEnd
  0
BLOCK
  5
5C7
330
5BD
100
AcDbEntity
  8
0
100
AcDbBlockBegin
  2
*D18
 70
     1
 10
0.0
 20
0.0
 30
0.0
  3
*D18
  1

  0
LINE
  5
5F6
330
5BD
100
AcDbEntity
  8
0
 62
     8
370
    -2
100
AcDbLine
 10
296.8724850930616
 20
74.71574900131624
 30
0.0
 11
367.1556968423264
 21
74.71574900131622
 31
0.0
  0
LINE
  5
5F7
330
5BD
100
AcDbEntity
  8
0
 62
     8
370
    -2
100
AcDbLine
 10
296.8724850930616
 20
19.71574900131635
 30
0.0
 11
367.1556968423264
 21
19.71574900131633
 31
0.0
  0
LINE
  5
5F8
330
5BD
100
AcDbEntity
  8
0
 62
     8
370
    -2
100
AcDbLine
 10
357.1556968423264
 20
74.71574900131622
 30
0.0
 11
357.1556968423264
 21
19.71574900131633
 31
0.0
  0
INSERT
  5
5F9
330
5BD
100
AcDbEntity
  8
0
 62
     8
370
    -2
100
AcDbBlockReference
  2
_Oblique
 10
357.1556968423264
 20
74.71574900131622
 30
0.0
 41
15.0
 42
15.0
 43
15.0
 50
90.0
  0
INSERT
  5
5FA
330
5BD
100
AcDbEntity
  8
0
 62
     8
370
    -2
100
AcDbBlockReference
  2
_Oblique
 10
357.1556968423264
 20
19.71574900131633
 30
0.0
 41
15.0
 42
15.0
 43
15.0
 50
270.0
  0
MTEXT
  5
5FB
330
5BD
100
AcDbEntity
  8
0
 62
     3
370
    40
100
AcDbMText
 10
346.4054468423265
 20
47.21574900131634
 30
0.0
 40
15.0
 41
0.0
 71
     5
 72
     1
  1
\A1;{\H0.7667x;\C256;55}
  7
Binh
 11
0.0000000000000001
 21
1.0
 31
0.0
 73
     1
 44
1.0
1001
ACAD
1000
MTEXTBEGIN
1070
    73
1070
     1
1070
    44
1040
1.0
1070
    74
1070
     0
1000
MTEXTEND
  0
POINT
  5
5FC
330
5BD
100
AcDbEntity
  8
Defpoints
 62
     0
100
AcDbPoint
 10
296.8724850930616
 20
74.71574900131624
 30
0.0
  0
POINT
  5
5FD
330
5BD
100
AcDbEntity
  8
Defpoints
 62
     0
100
AcDbPoint
 10
296.8724850930616
 20
19.71574900131635
 30
0.0
  0
POINT
  5
5FE
330
5BD
100
AcDbEntity
  8
Defpoints
 62
     0
100
AcDbPoint
 10
357.1556968423264
 20
19.71574900131633
 30
0.0
  0
ENDBLK
  5
5C8
330
5BD
100
AcDbEntity
  8
0
100
AcDbBlockEnd
  0
ENDSEC
  0
SECTION
  2
ENTITIES
  0
LWPOLYLINE
  5
34A
330
1F
100
AcDbEntity
  8
0
100
AcDbPolyline
 90
        2
 70
     0
 43
0.0
 10
62.98390619986482
 20
126.4754657929285
 10
62.98390619986482
 20
226.9754657929285
  0
LWPOLYLINE
  5
34B
330
1F
100
AcDbEntity
  8
0
100
AcDbPolyline
 90
        2
 70
     0
 43
0.0
 10
181.4839061998648
 20
226.9754657929285
 10
181.4839061998648
 20
126.4754657929285
  0
LWPOLYLINE
  5
34C
330
1F
100
AcDbEntity
  8
0
100
AcDbPolyline
 90
        2
 70
     0
 43
0.0
 10
62.98390619986482
 20
136.7254657929285
 10
62.98390619986482
 20
216.7254657929285
  0
LWPOLYLINE
  5
34D
330
1F
100
AcDbEntity
  8
0
100
AcDbPolyline
 90
        2
 70
     0
 43
0.0
 10
69.43965745374363
 20
216.7254657929285
 10
174.4396574537436
 20
216.7254657929285
  0
LWPOLYLINE
  5
34E
330
1F
100
AcDbEntity
  8
0
100
AcDbPolyline
 90
        2
 70
     0
 43
0.0
 10
181.4839061998648
 20
216.7254657929285
 10
181.4839061998648
 20
136.7254657929285
  0
LWPOLYLINE
  5
34F
330
1F
100
AcDbEntity
  8
0
100
AcDbPolyline
 90
        2
 70
     0
 43
0.0
 10
174.4396574537436
 20
136.7254657929285
 10
171.4396574537436
 20
136.7254657929285
  0
LWPOLYLINE
  5
350
330
1F
100
AcDbEntity
  8
0
100
AcDbPolyline
 90
        2
 70
     0
 43
0.0
 10
168.4396574537436
 20
136.7254657929285
 10
165.4396574537436
 20
136.7254657929285
  0
LWPOLYLINE
  5
351
330
1F
100
AcDbEntity
  8
0
100
AcDbPolyline
 90
        2
 70
     0
 43
0.0
 10
162.4396574537436
 20
136.7254657929285
 10
159.4396574537436
 20
136.7254657929285
  0
LWPOLYLINE
  5
352
330
1F
100
AcDbEntity
  8
0
100
AcDbPolyline
 90
        2
 70
     0
 43
0.0
 10
156.4396574537436
 20
136.7254657929285
 10
153.4396574537436
 20
136.7254657929285
  0
LWPOLYLINE
  5
353
330
1F
100
AcDbEntity
  8
0
100
AcDbPolyline
 90
        2
 70
     0
 43
0.0
 10
150.4396574537436
 20
136.7254657929285
 10
147.4396574537436
 20
136.7254657929285
  0
LWPOLYLINE
  5
354
330
1F
100
AcDbEntity
  8
0
100
AcDbPolyline
 90
        2
 70
     0
 43
0.0
 10
144.4396574537436
 20
136.7254657929285
 10
141.4396574537436
 20
136.7254657929285
  0
LWPOLYLINE
  5
355
330
1F
100
AcDbEntity
  8
0
100
AcDbPolyline
 90
        2
 70
     0
 43
0.0
 10
138.4396574537436
 20
136.7254657929285
 10
135.4396574537436
 20
136.7254657929285
  0
LWPOLYLINE
  5
356
330
1F
100
AcDbEntity
  8
0
100
AcDbPolyline
 90
        2
 70
     0
 43
0.0
 10
132.4396574537436
 20
136.7254657929285
 10
129.4396574537436
 20
136.7254657929285
  0
LWPOLYLINE
  5
357
330
1F
100
AcDbEntity
  8
0
100
AcDbPolyline
 90
        2
 70
     0
 43
0.0
 10
126.4396574537436
 20
136.7254657929285
 10
123.4396574537436
 20
136.7254657929285
  0
LWPOLYLINE
  5
358
330
1F
100
AcDbEntity
  8
0
100
AcDbPolyline
 90
        2
 70
     0
 43
0.0
 10
120.4396574537436
 20
136.7254657929285
 10
117.4396574537436
 20
136.7254657929285
  0
LWPOLYLINE
  5
359
330
1F
100
AcDbEntity
  8
0
100
AcDbPolyline
 90
        2
 70
     0
 43
0.0
 10
114.4396574537436
 20
136.7254657929285
 10
111.4396574537436
 20
136.7254657929285
  0
LWPOLYLINE
  5
35A
330
1F
100
AcDbEntity
  8
0
100
AcDbPolyline
 90
        2
 70
     0
 43
0.0
 10
108.4396574537436
 20
136.7254657929285
 10
105.4396574537436
 20
136.7254657929285
  0
LWPOLYLINE
  5
35B
330
1F
100
AcDbEntity
  8
0
100
AcDbPolyline
 90
        2
 70
     0
 43
0.0
 10
102.4396574537436
 20
136.7254657929285
 10
99.43965745374363
 20
136.7254657929285
  0
LWPOLYLINE
  5
35C
330
1F
100
AcDbEntity
  8
0
100
AcDbPolyline
 90
        2
 70
     0
 43
0.0
 10
96.43965745374364
 20
136.7254657929285
 10
93.43965745374363
 20
136.7254657929285
  0
LWPOLYLINE
  5
35D
330
1F
100
AcDbEntity
  8
0
100
AcDbPolyline
 90
        2
 70
     0
 43
0.0
 10
90.43965745374363
 20
136.7254657929285
 10
87.43965745374364
 20
136.7254657929285
  0
LWPOLYLINE
  5
35E
330
1F
100
AcDbEntity
  8
0
100
AcDbPolyline
 90
        2
 70
     0
 43
0.0
 10
84.43965745374363
 20
136.7254657929285
 10
81.43965745374364
 20
136.7254657929285
  0
LWPOLYLINE
  5
35F
330
1F
100
AcDbEntity
  8
0
100
AcDbPolyline
 90
        2
 70
     0
 43
0.0
 10
78.43965745374363
 20
136.7254657929285
 10
75.43965745374364
 20
136.7254657929285
  0
LWPOLYLINE
  5
360
330
1F
100
AcDbEntity
  8
0
100
AcDbPolyline
 90
        2
 70
     0
 43
0.0
 10
72.43965745374364
 20
136.7254657929285
 10
69.43965745374363
 20
136.7254657929285
  0
LWPOLYLINE
  5
361
330
1F
100
AcDbEntity
  8
0
100
AcDbPolyline
 90
        4
 70
     1
 43
0.0
 10
62.98390619986482
 20
126.4754657929285
 10
62.98390619986482
 20
226.9754657929285
 10
181.4839061998648
 20
226.9754657929285
 10
181.4839061998648
 20
126.4754657929285
  0
LWPOLYLINE
  5
362
330
1F
100
AcDbEntity
  8
0
100
AcDbPolyline
 90
        4
 70
     1
 43
0.0
 10
62.98390619986482
 20
147.2254657929285
 10
62.98390619986482
 20
206.2254657929285
 10
181.4839061998648
 20
206.2254657929285
 10
181.4839061998648
 20
147.2254657929285
  0
LWPOLYLINE
  5
363
330
1F
100
AcDbEntity
  8
0
100
AcDbPolyline
 90
        4
 70
     1
 43
0.0
 10
69.43965745374363
 20
136.7254657929285
 10
69.43965745374363
 20
139.7254657929285
 10
72.43965745374364
 20
139.7254657929285
 10
72.43965745374364
 20
136.7254657929285
  0
LWPOLYLINE
  5
364
330
1F
100
AcDbEntity
  8
0
100
AcDbPolyline
 90
        4
 70
     0
 43
0.0
 10
72.43965745374364
 20
136.7254657929285
 10
72.43965745374364
 20
139.7254657929285
 10
75.43965745374364
 20
139.7254657929285
 10
75.43965745374364
 20
136.7254657929285
  0
LWPOLYLINE
  5
365
330
1F
100
AcDbEntity
  8
0
100
AcDbPolyline
 90
        4
 70
     1
 43
0.0
 10
75.43965745374364
 20
136.7254657929285
 10
75.43965745374364
 20
139.7254657929285
 10
78.43965745374363
 20
139.7254657929285
 10
78.43965745374363
 20
136.7254657929285
  0
LWPOLYLINE
  5
366
330
1F
100
AcDbEntity
  8
0
100
AcDbPolyline
 90
        4
 70
     0
 43
0.0
 10
78.43965745374363
 20
136.7254657929285
 10
78.43965745374363
 20
139.7254657929285
 10
81.43965745374364
 20
139.7254657929285
 10
81.43965745374364
 20
136.7254657929285
  0
LWPOLYLINE
  5
367
330
1F
100
AcDbEntity
  8
0
100
AcDbPolyline
 90
        4
 70
     1
 43
0.0
 10
81.43965745374364
 20
136.7254657929285
 10
81.43965745374364
 20
139.7254657929285
 10
84.43965745374363
 20
139.7254657929285
 10
84.43965745374363
 20
136.7254657929285
  0
LWPOLYLINE
  5
368
330
1F
100
AcDbEntity
  8
0
100
AcDbPolyline
 90
        4
 70
     0
 43
0.0
 10
84.43965745374363
 20
136.7254657929285
 10
84.43965745374363
 20
139.7254657929285
 10
87.43965745374364
 20
139.7254657929285
 10
87.43965745374364
 20
136.7254657929285
  0
LWPOLYLINE
  5
369
330
1F
100
AcDbEntity
  8
0
100
AcDbPolyline
 90
        4
 70
     1
 43
0.0
 10
87.43965745374364
 20
136.7254657929285
 10
87.43965745374364
 20
139.7254657929285
 10
90.43965745374363
 20
139.7254657929285
 10
90.43965745374363
 20
136.7254657929285
  0
LWPOLYLINE
  5
36A
330
1F
100
AcDbEntity
  8
0
100
AcDbPolyline
 90
        4
 70
     0
 43
0.0
 10
90.43965745374363
 20
136.7254657929285
 10
90.43965745374363
 20
139.7254657929285
 10
93.43965745374363
 20
139.7254657929285
 10
93.43965745374363
 20
136.7254657929285
  0
LWPOLYLINE
  5
36B
330
1F
100
AcDbEntity
  8
0
100
AcDbPolyline
 90
        4
 70
     1
 43
0.0
 10
93.43965745374363
 20
136.7254657929285
 10
93.43965745374363
 20
139.7254657929285
 10
96.43965745374364
 20
139.7254657929285
 10
96.43965745374364
 20
136.7254657929285
  0
LWPOLYLINE
  5
36C
330
1F
100
AcDbEntity
  8
0
100
AcDbPolyline
 90
        4
 70
     0
 43
0.0
 10
96.43965745374364
 20
136.7254657929285
 10
96.43965745374364
 20
139.7254657929285
 10
99.43965745374363
 20
139.7254657929285
 10
99.43965745374363
 20
136.7254657929285
  0
LWPOLYLINE
  5
36D
330
1F
100
AcDbEntity
  8
0
100
AcDbPolyline
 90
        4
 70
     1
 43
0.0
 10
99.43965745374363
 20
136.7254657929285
 10
99.43965745374363
 20
139.7254657929285
 10
102.4396574537436
 20
139.7254657929285
 10
102.4396574537436
 20
136.7254657929285
  0
LWPOLYLINE
  5
36E
330
1F
100
AcDbEntity
  8
0
100
AcDbPolyline
 90
        4
 70
     0
 43
0.0
 10
102.4396574537436
 20
136.7254657929285
 10
102.4396574537436
 20
139.7254657929285
 10
105.4396574537436
 20
139.7254657929285
 10
105.4396574537436
 20
136.7254657929285
  0
LWPOLYLINE
  5
36F
330
1F
100
AcDbEntity
  8
0
100
AcDbPolyline
 90
        4
 70
     1
 43
0.0
 10
105.4396574537436
 20
136.7254657929285
 10
105.4396574537436
 20
139.7254657929285
 10
108.4396574537436
 20
139.7254657929285
 10
108.4396574537436
 20
136.7254657929285
  0
LWPOLYLINE
  5
370
330
1F
100
AcDbEntity
  8
0
100
AcDbPolyline
 90
        4
 70
     0
 43
0.0
 10
108.4396574537436
 20
136.7254657929285
 10
108.4396574537436
 20
139.7254657929285
 10
111.4396574537436
 20
139.7254657929285
 10
111.4396574537436
 20
136.7254657929285
  0
LWPOLYLINE
  5
371
330
1F
100
AcDbEntity
  8
0
100
AcDbPolyline
 90
        4
 70
     1
 43
0.0
 10
111.4396574537436
 20
136.7254657929285
 10
111.4396574537436
 20
139.7254657929285
 10
114.4396574537436
 20
139.7254657929285
 10
114.4396574537436
 20
136.7254657929285
  0
LWPOLYLINE
  5
372
330
1F
100
AcDbEntity
  8
0
100
AcDbPolyline
 90
        4
 70
     0
 43
0.0
 10
114.4396574537436
 20
136.7254657929285
 10
114.4396574537436
 20
139.7254657929285
 10
117.4396574537436
 20
139.7254657929285
 10
117.4396574537436
 20
136.7254657929285
  0
LWPOLYLINE
  5
373
330
1F
100
AcDbEntity
  8
0
100
AcDbPolyline
 90
        4
 70
     1
 43
0.0
 10
117.4396574537436
 20
136.7254657929285
 10
117.4396574537436
 20
139.7254657929285
 10
120.4396574537436
 20
139.7254657929285
 10
120.4396574537436
 20
136.7254657929285
  0
LWPOLYLINE
  5
374
330
1F
100
AcDbEntity
  8
0
100
AcDbPolyline
 90
        4
 70
     0
 43
0.0
 10
120.4396574537436
 20
136.7254657929285
 10
120.4396574537436
 20
139.7254657929285
 10
123.4396574537436
 20
139.7254657929285
 10
123.4396574537436
 20
136.7254657929285
  0
LWPOLYLINE
  5
375
330
1F
100
AcDbEntity
  8
0
100
AcDbPolyline
 90
        4
 70
     1
 43
0.0
 10
123.4396574537436
 20
136.7254657929285
 10
123.4396574537436
 20
139.7254657929285
 10
126.4396574537436
 20
139.7254657929285
 10
126.4396574537436
 20
136.7254657929285
  0
LWPOLYLINE
  5
376
330
1F
100
AcDbEntity
  8
0
100
AcDbPolyline
 90
        4
 70
     0
 43
0.0
 10
126.4396574537436
 20
136.7254657929285
 10
126.4396574537436
 20
139.7254657929285
 10
129.4396574537436
 20
139.7254657929285
 10
129.4396574537436
 20
136.7254657929285
  0
LWPOLYLINE
  5
377
330
1F
100
AcDbEntity
  8
0
100
AcDbPolyline
 90
        4
 70
     1
 43
0.0
 10
129.4396574537436
 20
136.7254657929285
 10
129.4396574537436
 20
139.7254657929285
 10
132.4396574537436
 20
139.7254657929285
 10
132.4396574537436
 20
136.7254657929285
  0
LWPOLYLINE
  5
378
330
1F
100
AcDbEntity
  8
0
100
AcDbPolyline
 90
        4
 70
     0
 43
0.0
 10
132.4396574537436
 20
136.7254657929285
 10
132.4396574537436
 20
139.7254657929285
 10
135.4396574537436
 20
139.7254657929285
 10
135.4396574537436
 20
136.7254657929285
  0
LWPOLYLINE
  5
379
330
1F
100
AcDbEntity
  8
0
100
AcDbPolyline
 90
        4
 70
     1
 43
0.0
 10
135.4396574537436
 20
136.7254657929285
 10
135.4396574537436
 20
139.7254657929285
 10
138.4396574537436
 20
139.7254657929285
 10
138.4396574537436
 20
136.7254657929285
  0
LWPOLYLINE
  5
37A
330
1F
100
AcDbEntity
  8
0
100
AcDbPolyline
 90
        4
 70
     0
 43
0.0
 10
138.4396574537436
 20
136.7254657929285
 10
138.4396574537436
 20
139.7254657929285
 10
141.4396574537436
 20
139.7254657929285
 10
141.4396574537436
 20
136.7254657929285
  0
LWPOLYLINE
  5
37B
330
1F
100
AcDbEntity
  8
0
100
AcDbPolyline
 90
        4
 70
     1
 43
0.0
 10
141.4396574537436
 20
136.7254657929285
 10
141.4396574537436
 20
139.7254657929285
 10
144.4396574537436
 20
139.7254657929285
 10
144.4396574537436
 20
136.7254657929285
  0
LWPOLYLINE
  5
37C
330
1F
100
AcDbEntity
  8
0
100
AcDbPolyline
 90
        4
 70
     0
 43
0.0
 10
144.4396574537436
 20
136.7254657929285
 10
144.4396574537436
 20
139.7254657929285
 10
147.4396574537436
 20
139.7254657929285
 10
147.4396574537436
 20
136.7254657929285
  0
LWPOLYLINE
  5
37D
330
1F
100
AcDbEntity
  8
0
100
AcDbPolyline
 90
        4
 70
     1
 43
0.0
 10
147.4396574537436
 20
136.7254657929285
 10
147.4396574537436
 20
139.7254657929285
 10
150.4396574537436
 20
139.7254657929285
 10
150.4396574537436
 20
136.7254657929285
  0
LWPOLYLINE
  5
37E
330
1F
100
AcDbEntity
  8
0
100
AcDbPolyline
 90
        4
 70
     0
 43
0.0
 10
150.4396574537436
 20
136.7254657929285
 10
150.4396574537436
 20
139.7254657929285
 10
153.4396574537436
 20
139.7254657929285
 10
153.4396574537436
 20
136.7254657929285
  0
LWPOLYLINE
  5
37F
330
1F
100
AcDbEntity
  8
0
100
AcDbPolyline
 90
        4
 70
     1
 43
0.0
 10
153.4396574537436
 20
136.7254657929285
 10
153.4396574537436
 20
139.7254657929285
 10
156.4396574537436
 20
139.7254657929285
 10
156.4396574537436
 20
136.7254657929285
  0
LWPOLYLINE
  5
380
330
1F
100
AcDbEntity
  8
0
100
AcDbPolyline
 90
        4
 70
     0
 43
0.0
 10
156.4396574537436
 20
136.7254657929285
 10
156.4396574537436
 20
139.7254657929285
 10
159.4396574537436
 20
139.7254657929285
 10
159.4396574537436
 20
136.7254657929285
  0
LWPOLYLINE
  5
381
330
1F
100
AcDbEntity
  8
0
100
AcDbPolyline
 90
        4
 70
     1
 43
0.0
 10
159.4396574537436
 20
136.7254657929285
 10
159.4396574537436
 20
139.7254657929285
 10
162.4396574537436
 20
139.7254657929285
 10
162.4396574537436
 20
136.7254657929285
  0
LWPOLYLINE
  5
382
330
1F
100
AcDbEntity
  8
0
100
AcDbPolyline
 90
        4
 70
     0
 43
0.0
 10
162.4396574537436
 20
136.7254657929285
 10
162.4396574537436
 20
139.7254657929285
 10
165.4396574537436
 20
139.7254657929285
 10
165.4396574537436
 20
136.7254657929285
  0
LWPOLYLINE
  5
383
330
1F
100
AcDbEntity
  8
0
100
AcDbPolyline
 90
        4
 70
     1
 43
0.0
 10
165.4396574537436
 20
136.7254657929285
 10
165.4396574537436
 20
139.7254657929285
 10
168.4396574537436
 20
139.7254657929285
 10
168.4396574537436
 20
136.7254657929285
  0
LWPOLYLINE
  5
384
330
1F
100
AcDbEntity
  8
0
100
AcDbPolyline
 90
        4
 70
     0
 43
0.0
 10
168.4396574537436
 20
136.7254657929285
 10
168.4396574537436
 20
139.7254657929285
 10
171.4396574537436
 20
139.7254657929285
 10
171.4396574537436
 20
136.7254657929285
  0
LWPOLYLINE
  5
385
330
1F
100
AcDbEntity
  8
0
100
AcDbPolyline
 90
        4
 70
     1
 43
0.0
 10
171.4396574537436
 20
136.7254657929285
 10
171.4396574537436
 20
139.7254657929285
 10
174.4396574537436
 20
139.7254657929285
 10
174.4396574537436
 20
136.7254657929285
  0
LINE
  5
386
330
1F
100
AcDbEntity
  8
0
100
AcDbLine
 10
71.27765966231892
 20
139.7254657929285
 30
0.0
 11
62.98390619986482
 21
139.7254657929285
 31
0.0
  0
LINE
  5
387
330
1F
100
AcDbEntity
  8
0
100
AcDbLine
 10
174.4396574537436
 20
139.7254657929285
 30
0.0
 11
181.4839061998648
 21
139.7254657929285
 31
0.0
  0
LWPOLYLINE
  5
388
330
1F
100
AcDbEntity
  8
0
100
AcDbPolyline
 90
        2
 70
     0
 43
0.0
 10
174.4396574537436
 20
216.7254657929286
 10
171.4396574537436
 20
216.7254657929285
  0
LWPOLYLINE
  5
389
330
1F
100
AcDbEntity
  8
0
100
AcDbPolyline
 90
        2
 70
     0
 43
0.0
 10
168.4396574537436
 20
216.7254657929285
 10
165.4396574537436
 20
216.7254657929285
  0
LWPOLYLINE
  5
38A
330
1F
100
AcDbEntity
  8
0
100
AcDbPolyline
 90
        2
 70
     0
 43
0.0
 10
162.4396574537436
 20
216.7254657929285
 10
159.4396574537436
 20
216.7254657929285
  0
LWPOLYLINE
  5
38B
330
1F
100
AcDbEntity
  8
0
100
AcDbPolyline
 90
        2
 70
     0
 43
0.0
 10
156.4396574537436
 20
216.7254657929285
 10
153.4396574537436
 20
216.7254657929285
  0
LWPOLYLINE
  5
38C
330
1F
100
AcDbEntity
  8
0
100
AcDbPolyline
 90
        2
 70
     0
 43
0.0
 10
150.4396574537436
 20
216.7254657929285
 10
147.4396574537436
 20
216.7254657929285
  0
LWPOLYLINE
  5
38D
330
1F
100
AcDbEntity
  8
0
100
AcDbPolyline
 90
        2
 70
     0
 43
0.0
 10
144.4396574537436
 20
216.7254657929285
 10
141.4396574537436
 20
216.7254657929285
  0
LWPOLYLINE
  5
38E
330
1F
100
AcDbEntity
  8
0
100
AcDbPolyline
 90
        2
 70
     0
 43
0.0
 10
138.4396574537436
 20
216.7254657929285
 10
135.4396574537436
 20
216.7254657929285
  0
LWPOLYLINE
  5
38F
330
1F
100
AcDbEntity
  8
0
100
AcDbPolyline
 90
        2
 70
     0
 43
0.0
 10
132.4396574537436
 20
216.7254657929285
 10
129.4396574537436
 20
216.7254657929285
  0
LWPOLYLINE
  5
390
330
1F
100
AcDbEntity
  8
0
100
AcDbPolyline
 90
        2
 70
     0
 43
0.0
 10
126.4396574537436
 20
216.7254657929285
 10
123.4396574537436
 20
216.7254657929285
  0
LWPOLYLINE
  5
391
330
1F
100
AcDbEntity
  8
0
100
AcDbPolyline
 90
        2
 70
     0
 43
0.0
 10
120.4396574537436
 20
216.7254657929285
 10
117.4396574537436
 20
216.7254657929285
  0
LWPOLYLINE
  5
392
330
1F
100
AcDbEntity
  8
0
100
AcDbPolyline
 90
        2
 70
     0
 43
0.0
 10
114.4396574537436
 20
216.7254657929285
 10
111.4396574537436
 20
216.7254657929285
  0
LWPOLYLINE
  5
393
330
1F
100
AcDbEntity
  8
0
100
AcDbPolyline
 90
        2
 70
     0
 43
0.0
 10
108.4396574537436
 20
216.7254657929285
 10
105.4396574537436
 20
216.7254657929285
  0
LWPOLYLINE
  5
394
330
1F
100
AcDbEntity
  8
0
100
AcDbPolyline
 90
        2
 70
     0
 43
0.0
 10
102.4396574537436
 20
216.7254657929285
 10
99.43965745374363
 20
216.7254657929285
  0
LWPOLYLINE
  5
395
330
1F
100
AcDbEntity
  8
0
100
AcDbPolyline
 90
        2
 70
     0
 43
0.0
 10
96.43965745374364
 20
216.7254657929285
 10
93.43965745374363
 20
216.7254657929285
  0
LWPOLYLINE
  5
396
330
1F
100
AcDbEntity
  8
0
100
AcDbPolyline
 90
        2
 70
     0
 43
0.0
 10
90.43965745374363
 20
216.7254657929285
 10
87.43965745374364
 20
216.7254657929285
  0
LWPOLYLINE
  5
397
330
1F
100
AcDbEntity
  8
0
100
AcDbPolyline
 90
        2
 70
     0
 43
0.0
 10
84.43965745374363
 20
216.7254657929285
 10
81.43965745374364
 20
216.7254657929285
  0
LWPOLYLINE
  5
398
330
1F
100
AcDbEntity
  8
0
100
AcDbPolyline
 90
        2
 70
     0
 43
0.0
 10
78.43965745374363
 20
216.7254657929285
 10
75.43965745374364
 20
216.7254657929285
  0
LWPOLYLINE
  5
399
330
1F
100
AcDbEntity
  8
0
100
AcDbPolyline
 90
        2
 70
     0
 43
0.0
 10
72.43965745374364
 20
216.7254657929285
 10
69.43965745374363
 20
216.7254657929285
  0
LWPOLYLINE
  5
39A
330
1F
100
AcDbEntity
  8
0
100
AcDbPolyline
 90
        4
 70
     1
 43
0.0
 10
69.43965745374363
 20
216.7254657929285
 10
69.43965745374363
 20
213.7254657929285
 10
72.43965745374364
 20
213.7254657929285
 10
72.43965745374364
 20
216.7254657929285
  0
LWPOLYLINE
  5
39B
330
1F
100
AcDbEntity
  8
0
100
AcDbPolyline
 90
        4
 70
     0
 43
0.0
 10
72.43965745374364
 20
216.7254657929285
 10
72.43965745374364
 20
213.7254657929285
 10
75.43965745374364
 20
213.7254657929285
 10
75.43965745374364
 20
216.7254657929285
  0
LWPOLYLINE
  5
39C
330
1F
100
AcDbEntity
  8
0
100
AcDbPolyline
 90
        4
 70
     1
 43
0.0
 10
75.43965745374364
 20
216.7254657929285
 10
75.43965745374364
 20
213.7254657929285
 10
78.43965745374363
 20
213.7254657929285
 10
78.43965745374363
 20
216.7254657929285
  0
LWPOLYLINE
  5
39D
330
1F
100
AcDbEntity
  8
0
100
AcDbPolyline
 90
        4
 70
     0
 43
0.0
 10
78.43965745374363
 20
216.7254657929285
 10
78.43965745374363
 20
213.7254657929285
 10
81.43965745374364
 20
213.7254657929285
 10
81.43965745374364
 20
216.7254657929285
  0
LWPOLYLINE
  5
39E
330
1F
100
AcDbEntity
  8
0
100
AcDbPolyline
 90
        4
 70
     1
 43
0.0
 10
81.43965745374364
 20
216.7254657929285
 10
81.43965745374364
 20
213.7254657929285
 10
84.43965745374363
 20
213.7254657929285
 10
84.43965745374363
 20
216.7254657929285
  0
LWPOLYLINE
  5
39F
330
1F
100
AcDbEntity
  8
0
100
AcDbPolyline
 90
        4
 70
     0
 43
0.0
 10
84.43965745374363
 20
216.7254657929285
 10
84.43965745374363
 20
213.7254657929285
 10
87.43965745374364
 20
213.7254657929285
 10
87.43965745374364
 20
216.7254657929285
  0
LWPOLYLINE
  5
3A0
330
1F
100
AcDbEntity
  8
0
100
AcDbPolyline
 90
        4
 70
     1
 43
0.0
 10
87.43965745374364
 20
216.7254657929285
 10
87.43965745374364
 20
213.7254657929285
 10
90.43965745374363
 20
213.7254657929285
 10
90.43965745374363
 20
216.7254657929285
  0
LWPOLYLINE
  5
3A1
330
1F
100
AcDbEntity
  8
0
100
AcDbPolyline
 90
        4
 70
     0
 43
0.0
 10
90.43965745374363
 20
216.7254657929285
 10
90.43965745374363
 20
213.7254657929285
 10
93.43965745374363
 20
213.7254657929285
 10
93.43965745374363
 20
216.7254657929285
  0
LWPOLYLINE
  5
3A2
330
1F
100
AcDbEntity
  8
0
100
AcDbPolyline
 90
        4
 70
     1
 43
0.0
 10
93.43965745374363
 20
216.7254657929285
 10
93.43965745374363
 20
213.7254657929285
 10
96.43965745374364
 20
213.7254657929285
 10
96.43965745374364
 20
216.7254657929285
  0
LWPOLYLINE
  5
3A3
330
1F
100
AcDbEntity
  8
0
100
AcDbPolyline
 90
        4
 70
     0
 43
0.0
 10
96.43965745374364
 20
216.7254657929285
 10
96.43965745374364
 20
213.7254657929285
 10
99.43965745374363
 20
213.7254657929285
 10
99.43965745374363
 20
216.7254657929285
  0
LWPOLYLINE
  5
3A4
330
1F
100
AcDbEntity
  8
0
100
AcDbPolyline
 90
        4
 70
     1
 43
0.0
 10
99.43965745374363
 20
216.7254657929285
 10
99.43965745374363
 20
213.7254657929285
 10
102.4396574537436
 20
213.7254657929285
 10
102.4396574537436
 20
216.7254657929285
  0
LWPOLYLINE
  5
3A5
330
1F
100
AcDbEntity
  8
0
100
AcDbPolyline
 90
        4
 70
     0
 43
0.0
 10
102.4396574537436
 20
216.7254657929285
 10
102.4396574537436
 20
213.7254657929285
 10
105.4396574537436
 20
213.7254657929285
 10
105.4396574537436
 20
216.7254657929285
  0
LWPOLYLINE
  5
3A6
330
1F
100
AcDbEntity
  8
0
100
AcDbPolyline
 90
        4
 70
     1
 43
0.0
 10
105.4396574537436
 20
216.7254657929285
 10
105.4396574537436
 20
213.7254657929285
 10
108.4396574537436
 20
213.7254657929285
 10
108.4396574537436
 20
216.7254657929285
  0
LWPOLYLINE
  5
3A7
330
1F
100
AcDbEntity
  8
0
100
AcDbPolyline
 90
        4
 70
     0
 43
0.0
 10
108.4396574537436
 20
216.7254657929285
 10
108.4396574537436
 20
213.7254657929285
 10
111.4396574537436
 20
213.7254657929285
 10
111.4396574537436
 20
216.7254657929285
  0
LWPOLYLINE
  5
3A8
330
1F
100
AcDbEntity
  8
0
100
AcDbPolyline
 90
        4
 70
     1
 43
0.0
 10
111.4396574537436
 20
216.7254657929285
 10
111.4396574537436
 20
213.7254657929285
 10
114.4396574537436
 20
213.7254657929285
 10
114.4396574537436
 20
216.7254657929285
  0
LWPOLYLINE
  5
3A9
330
1F
100
AcDbEntity
  8
0
100
AcDbPolyline
 90
        4
 70
     0
 43
0.0
 10
114.4396574537436
 20
216.7254657929285
 10
114.4396574537436
 20
213.7254657929285
 10
117.4396574537436
 20
213.7254657929285
 10
117.4396574537436
 20
216.7254657929285
  0
LWPOLYLINE
  5
3AA
330
1F
100
AcDbEntity
  8
0
100
AcDbPolyline
 90
        4
 70
     1
 43
0.0
 10
117.4396574537436
 20
216.7254657929285
 10
117.4396574537436
 20
213.7254657929285
 10
120.4396574537436
 20
213.7254657929285
 10
120.4396574537436
 20
216.7254657929285
  0
LWPOLYLINE
  5
3AB
330
1F
100
AcDbEntity
  8
0
100
AcDbPolyline
 90
        4
 70
     0
 43
0.0
 10
120.4396574537436
 20
216.7254657929285
 10
120.4396574537436
 20
213.7254657929285
 10
123.4396574537436
 20
213.7254657929285
 10
123.4396574537436
 20
216.7254657929285
  0
LWPOLYLINE
  5
3AC
330
1F
100
AcDbEntity
  8
0
100
AcDbPolyline
 90
        4
 70
     1
 43
0.0
 10
123.4396574537436
 20
216.7254657929285
 10
123.4396574537436
 20
213.7254657929285
 10
126.4396574537436
 20
213.7254657929285
 10
126.4396574537436
 20
216.7254657929285
  0
LWPOLYLINE
  5
3AD
330
1F
100
AcDbEntity
  8
0
100
AcDbPolyline
 90
        4
 70
     0
 43
0.0
 10
126.4396574537436
 20
216.7254657929285
 10
126.4396574537436
 20
213.7254657929285
 10
129.4396574537436
 20
213.7254657929285
 10
129.4396574537436
 20
216.7254657929285
  0
LWPOLYLINE
  5
3AE
330
1F
100
AcDbEntity
  8
0
100
AcDbPolyline
 90
        4
 70
     1
 43
0.0
 10
129.4396574537436
 20
216.7254657929285
 10
129.4396574537436
 20
213.7254657929285
 10
132.4396574537436
 20
213.7254657929285
 10
132.4396574537436
 20
216.7254657929285
  0
LWPOLYLINE
  5
3AF
330
1F
100
AcDbEntity
  8
0
100
AcDbPolyline
 90
        4
 70
     0
 43
0.0
 10
132.4396574537436
 20
216.7254657929285
 10
132.4396574537436
 20
213.7254657929285
 10
135.4396574537436
 20
213.7254657929285
 10
135.4396574537436
 20
216.7254657929285
  0
LWPOLYLINE
  5
3B0
330
1F
100
AcDbEntity
  8
0
100
AcDbPolyline
 90
        4
 70
     1
 43
0.0
 10
135.4396574537436
 20
216.7254657929285
 10
135.4396574537436
 20
213.7254657929285
 10
138.4396574537436
 20
213.7254657929285
 10
138.4396574537436
 20
216.7254657929285
  0
LWPOLYLINE
  5
3B1
330
1F
100
AcDbEntity
  8
0
100
AcDbPolyline
 90
        4
 70
     0
 43
0.0
 10
138.4396574537436
 20
216.7254657929285
 10
138.4396574537436
 20
213.7254657929285
 10
141.4396574537436
 20
213.7254657929285
 10
141.4396574537436
 20
216.7254657929285
  0
LWPOLYLINE
  5
3B2
330
1F
100
AcDbEntity
  8
0
100
AcDbPolyline
 90
        4
 70
     1
 43
0.0
 10
141.4396574537436
 20
216.7254657929285
 10
141.4396574537436
 20
213.7254657929285
 10
144.4396574537436
 20
213.7254657929285
 10
144.4396574537436
 20
216.7254657929285
  0
LWPOLYLINE
  5
3B3
330
1F
100
AcDbEntity
  8
0
100
AcDbPolyline
 90
        4
 70
     0
 43
0.0
 10
144.4396574537436
 20
216.7254657929285
 10
144.4396574537436
 20
213.7254657929285
 10
147.4396574537436
 20
213.7254657929287
 10
147.4396574537436
 20
216.7254657929286
  0
LWPOLYLINE
  5
3B4
330
1F
100
AcDbEntity
  8
0
100
AcDbPolyline
 90
        4
 70
     1
 43
0.0
 10
147.4396574537436
 20
216.7254657929286
 10
147.4396574537436
 20
213.7254657929287
 10
150.4396574537436
 20
213.7254657929287
 10
150.4396574537436
 20
216.7254657929286
  0
LWPOLYLINE
  5
3B5
330
1F
100
AcDbEntity
  8
0
100
AcDbPolyline
 90
        4
 70
     0
 43
0.0
 10
150.4396574537436
 20
216.7254657929286
 10
150.4396574537436
 20
213.7254657929287
 10
153.4396574537436
 20
213.7254657929287
 10
153.4396574537436
 20
216.7254657929286
  0
LWPOLYLINE
  5
3B6
330
1F
100
AcDbEntity
  8
0
100
AcDbPolyline
 90
        4
 70
     1
 43
0.0
 10
153.4396574537436
 20
216.7254657929286
 10
153.4396574537436
 20
213.7254657929287
 10
156.4396574537436
 20
213.7254657929287
 10
156.4396574537436
 20
216.7254657929286
  0
LWPOLYLINE
  5
3B7
330
1F
100
AcDbEntity
  8
0
100
AcDbPolyline
 90
        4
 70
     0
 43
0.0
 10
156.4396574537436
 20
216.7254657929286
 10
156.4396574537436
 20
213.7254657929287
 10
159.4396574537436
 20
213.7254657929287
 10
159.4396574537436
 20
216.7254657929286
  0
LWPOLYLINE
  5
3B8
330
1F
100
AcDbEntity
  8
0
100
AcDbPolyline
 90
        4
 70
     1
 43
0.0
 10
159.4396574537436
 20
216.7254657929286
 10
159.4396574537436
 20
213.7254657929287
 10
162.4396574537436
 20
213.7254657929287
 10
162.4396574537436
 20
216.7254657929286
  0
LWPOLYLINE
  5
3B9
330
1F
100
AcDbEntity
  8
0
100
AcDbPolyline
 90
        4
 70
     0
 43
0.0
 10
162.4396574537436
 20
216.7254657929286
 10
162.4396574537436
 20
213.7254657929287
 10
165.4396574537436
 20
213.7254657929287
 10
165.4396574537436
 20
216.7254657929286
  0
LWPOLYLINE
  5
3BA
330
1F
100
AcDbEntity
  8
0
100
AcDbPolyline
 90
        4
 70
     1
 43
0.0
 10
165.4396574537436
 20
216.7254657929286
 10
165.4396574537436
 20
213.7254657929287
 10
168.4396574537436
 20
213.7254657929287
 10
168.4396574537436
 20
216.7254657929286
  0
LWPOLYLINE
  5
3BB
330
1F
100
AcDbEntity
  8
0
100
AcDbPolyline
 90
        4
 70
     0
 43
0.0
 10
168.4396574537436
 20
216.7254657929286
 10
168.4396574537436
 20
213.7254657929287
 10
171.4396574537436
 20
213.7254657929287
 10
171.4396574537436
 20
216.7254657929286
  0
LWPOLYLINE
  5
3BC
330
1F
100
AcDbEntity
  8
0
100
AcDbPolyline
 90
        4
 70
     1
 43
0.0
 10
171.4396574537436
 20
216.7254657929286
 10
171.4396574537436
 20
213.7254657929287
 10
174.4396574537436
 20
213.7254657929287
 10
174.4396574537436
 20
216.7254657929286
  0
LINE
  5
3BD
330
1F
100
AcDbEntity
  8
0
100
AcDbLine
 10
69.43965745374363
 20
213.7254657929285
 30
0.0
 11
62.98390619986482
 21
213.7254657929285
 31
0.0
  0
LINE
  5
3BE
330
1F
100
AcDbEntity
  8
0
100
AcDbLine
 10
174.4396574537436
 20
213.7254657929287
 30
0.0
 11
181.4839061998648
 21
213.7254657929287
 31
0.0
  0
MTEXT
  5
3BF
330
1F
100
AcDbEntity
  8
0
100
AcDbMText
 10
65.68567068346808
 20
189.3739945312912
 30
0.0
 40
8.0
 41
117.0266261906474
 71
     1
 72
     5
  1
{\fTimes New Roman|b0|i0|c0|p18;PNTECH CONTROLS}
 73
     1
 44
1.0
1001
ACAD
1000
MTEXTBEGIN
1070
    73
1070
     1
1070
    44
1040
1.0
1070
    74
1070
     0
1000
MTEXTEND
  0
MTEXT
  5
3C0
330
1F
100
AcDbEntity
  8
0
100
AcDbMText
 10
134.7444575954108
 20
159.851825607038
 30
0.0
 40
5.0
 41
44.79584331544697
 71
     1
 72
     5
  1
{\fTimes New Roman|b0|i0|c0|p18;EXP-8UI8BI}
 73
     1
 44
1.0
1001
ACAD
1000
MTEXTBEGIN
1070
    73
1070
     1
1070
    44
1040
1.0
1070
    74
1070
     0
1000
MTEXTEND
  0
LWPOLYLINE
  5
3C1
330
1F
100
AcDbEntity
  8
0
 62
     4
100
AcDbPolyline
 90
        3
 70
     0
 43
0.0
 10
172.7339061998647
 20
114.0763832241211
 10
106.4339061998646
 20
114.0763832241211
 10
106.4339061998646
 20
126.4754657929284
  0
LWPOLYLINE
  5
3C2
330
1F
100
AcDbEntity
  8
0
 62
     4
100
AcDbPolyline
 90
        2
 70
     0
 43
0.0
 10
101.3339061998646
 20
125.7736309305432
 10
70.73390619986482
 20
125.7736309305432
  0
LWPOLYLINE
  5
3C3
330
1F
100
AcDbEntity
  8
0
 62
     4
100
AcDbPolyline
 90
        3
 70
     0
 43
0.0
 10
172.7339061998647
 20
125.7736309305431
 10
106.4339061998646
 20
125.7736309305431
 10
106.4339061998646
 20
126.4754657929284
  0
LWPOLYLINE
  5
3C4
330
1F
100
AcDbEntity
  8
0
 62
     4
100
AcDbPolyline
 90
        2
 70
     0
 43
0.0
 10
91.1339061998648
 20
121.5041355176991
 10
70.73390619986482
 20
121.5041355176991
  0
LWPOLYLINE
  5
3C5
330
1F
100
AcDbEntity
  8
0
 62
     4
100
AcDbPolyline
 90
        4
 70
     0
 43
0.0
 10
172.7339061998647
 20
121.5041355176991
 10
106.4339061998646
 20
121.5041355176991
 10
106.4339061998646
 20
114.017896985589
 10
172.7339061998647
 20
114.017896985589
  0
LWPOLYLINE
  5
3C6
330
1F
100
AcDbEntity
  8
0
 62
     4
100
AcDbPolyline
 90
        4
 70
     1
 43
0.0
 10
106.4339061998646
 20
121.5041355176991
 10
106.4339061998646
 20
114.017896985589
 10
111.5339061998646
 20
114.017896985589
 10
111.5339061998646
 20
121.5041355176991
  0
CIRCLE
  5
3C7
330
1F
100
AcDbEntity
  8
0
 62
     4
100
AcDbCircle
 10
108.9839061998646
 20
117.7902593709101
 30
0.0
 40
1.871559633027523
  0
LWPOLYLINE
  5
3C8
330
1F
100
AcDbEntity
  8
0
 62
     4
100
AcDbPolyline
 90
        4
 70
     1
 43
0.0
 10
110.018438871211
 20
116.3609855086361
 10
110.5036899332232
 20
116.893967551645
 10
107.9493735285181
 20
119.2195332331841
 10
107.4641224665061
 20
118.6865511901751
  0
LWPOLYLINE
  5
3C9
330
1F
100
AcDbEntity
  8
0
 62
     4
100
AcDbPolyline
 90
        4
 70
     1
 43
0.0
 10
111.5339061998646
 20
121.5041355176991
 10
111.5339061998646
 20
114.017896985589
 10
116.6339061998646
 20
114.017896985589
 10
116.6339061998646
 20
121.5041355176991
  0
CIRCLE
  5
3CA
330
1F
100
AcDbEntity
  8
0
 62
     4
100
AcDbCircle
 10
114.0839061998646
 20
117.7902593709101
 30
0.0
 40
1.871559633027523
  0
LWPOLYLINE
  5
3CB
330
1F
100
AcDbEntity
  8
0
 62
     4
100
AcDbPolyline
 90
        4
 70
     1
 43
0.0
 10
115.1184388712111
 20
116.3609855086361
 10
115.6036899332232
 20
116.893967551645
 10
113.0493735285181
 20
119.2195332331841
 10
112.5641224665061
 20
118.6865511901751
  0
LWPOLYLINE
  5
3CC
330
1F
100
AcDbEntity
  8
0
 62
     4
100
AcDbPolyline
 90
        4
 70
     1
 43
0.0
 10
116.6339061998646
 20
121.5041355176991
 10
116.6339061998646
 20
114.017896985589
 10
121.7339061998646
 20
114.017896985589
 10
121.7339061998647
 20
121.5041355176991
  0
CIRCLE
  5
3CD
330
1F
100
AcDbEntity
  8
0
 62
     4
100
AcDbCircle
 10
119.1839061998646
 20
117.7902593709101
 30
0.0
 40
1.871559633027523
  0
LWPOLYLINE
  5
3CE
330
1F
100
AcDbEntity
  8
0
 62
     4
100
AcDbPolyline
 90
        4
 70
     1
 43
0.0
 10
120.2184388712111
 20
116.3609855086361
 10
120.7036899332231
 20
116.893967551645
 10
118.149373528518
 20
119.2195332331841
 10
117.6641224665061
 20
118.6865511901751
  0
LWPOLYLINE
  5
3CF
330
1F
100
AcDbEntity
  8
0
 62
     4
100
AcDbPolyline
 90
        4
 70
     1
 43
0.0
 10
121.7339061998647
 20
121.5041355176991
 10
121.7339061998646
 20
114.017896985589
 10
126.8339061998646
 20
114.017896985589
 10
126.8339061998646
 20
121.5041355176991
  0
CIRCLE
  5
3D0
330
1F
100
AcDbEntity
  8
0
 62
     4
100
AcDbCircle
 10
124.2839061998645
 20
117.7902593709101
 30
0.0
 40
1.871559633027523
  0
LWPOLYLINE
  5
3D1
330
1F
100
AcDbEntity
  8
0
 62
     4
100
AcDbPolyline
 90
        4
 70
     1
 43
0.0
 10
125.3184388712111
 20
116.3609855086361
 10
125.8036899332231
 20
116.893967551645
 10
123.2493735285181
 20
119.2195332331841
 10
122.7641224665061
 20
118.6865511901751
  0
LWPOLYLINE
  5
3D2
330
1F
100
AcDbEntity
  8
0
 62
     4
100
AcDbPolyline
 90
        4
 70
     1
 43
0.0
 10
126.8339061998646
 20
121.5041355176991
 10
126.8339061998646
 20
114.017896985589
 10
131.9339061998646
 20
114.017896985589
 10
131.9339061998646
 20
121.5041355176991
  0
CIRCLE
  5
3D3
330
1F
100
AcDbEntity
  8
0
 62
     4
100
AcDbCircle
 10
129.3839061998646
 20
117.7902593709101
 30
0.0
 40
1.871559633027523
  0
LWPOLYLINE
  5
3D4
330
1F
100
AcDbEntity
  8
0
 62
     4
100
AcDbPolyline
 90
        4
 70
     1
 43
0.0
 10
130.4184388712111
 20
116.3609855086361
 10
130.9036899332232
 20
116.893967551645
 10
128.349373528518
 20
119.2195332331841
 10
127.8641224665062
 20
118.6865511901751
  0
LWPOLYLINE
  5
3D5
330
1F
100
AcDbEntity
  8
0
 62
     4
100
AcDbPolyline
 90
        4
 70
     1
 43
0.0
 10
131.9339061998646
 20
121.5041355176991
 10
131.9339061998646
 20
114.017896985589
 10
137.0339061998645
 20
114.017896985589
 10
137.0339061998645
 20
121.5041355176991
  0
CIRCLE
  5
3D6
330
1F
100
AcDbEntity
  8
0
 62
     4
100
AcDbCircle
 10
134.4839061998647
 20
117.7902593709101
 30
0.0
 40
1.871559633027523
  0
LWPOLYLINE
  5
3D7
330
1F
100
AcDbEntity
  8
0
 62
     4
100
AcDbPolyline
 90
        4
 70
     1
 43
0.0
 10
135.518438871211
 20
116.3609855086361
 10
136.0036899332232
 20
116.893967551645
 10
133.4493735285181
 20
119.2195332331841
 10
132.964122466506
 20
118.6865511901751
  0
LWPOLYLINE
  5
3D8
330
1F
100
AcDbEntity
  8
0
 62
     4
100
AcDbPolyline
 90
        4
 70
     1
 43
0.0
 10
137.0339061998645
 20
121.5041355176991
 10
137.0339061998645
 20
114.017896985589
 10
142.1339061998647
 20
114.017896985589
 10
142.1339061998647
 20
121.5041355176991
  0
CIRCLE
  5
3D9
330
1F
100
AcDbEntity
  8
0
 62
     4
100
AcDbCircle
 10
139.5839061998646
 20
117.7902593709101
 30
0.0
 40
1.871559633027523
  0
LWPOLYLINE
  5
3DA
330
1F
100
AcDbEntity
  8
0
 62
     4
100
AcDbPolyline
 90
        4
 70
     1
 43
0.0
 10
140.6184388712112
 20
116.3609855086361
 10
141.1036899332232
 20
116.893967551645
 10
138.5493735285182
 20
119.2195332331841
 10
138.0641224665061
 20
118.6865511901751
  0
LWPOLYLINE
  5
3DB
330
1F
100
AcDbEntity
  8
0
 62
     4
100
AcDbPolyline
 90
        4
 70
     1
 43
0.0
 10
142.1339061998647
 20
121.5041355176991
 10
142.1339061998647
 20
114.017896985589
 10
147.2339061998647
 20
114.017896985589
 10
147.2339061998647
 20
121.5041355176991
  0
CIRCLE
  5
3DC
330
1F
100
AcDbEntity
  8
0
 62
     4
100
AcDbCircle
 10
144.6839061998646
 20
117.7902593709101
 30
0.0
 40
1.871559633027523
  0
LWPOLYLINE
  5
3DD
330
1F
100
AcDbEntity
  8
0
 62
     4
100
AcDbPolyline
 90
        4
 70
     1
 43
0.0
 10
145.7184388712111
 20
116.3609855086361
 10
146.2036899332232
 20
116.893967551645
 10
143.6493735285182
 20
119.2195332331841
 10
143.164122466506
 20
118.6865511901751
  0
LWPOLYLINE
  5
3DE
330
1F
100
AcDbEntity
  8
0
 62
     4
100
AcDbPolyline
 90
        4
 70
     1
 43
0.0
 10
147.2339061998647
 20
121.5041355176991
 10
147.2339061998647
 20
114.017896985589
 10
152.3339061998646
 20
114.017896985589
 10
152.3339061998646
 20
121.5041355176991
  0
CIRCLE
  5
3DF
330
1F
100
AcDbEntity
  8
0
 62
     4
100
AcDbCircle
 10
149.7839061998645
 20
117.7902593709101
 30
0.0
 40
1.871559633027523
  0
LWPOLYLINE
  5
3E0
330
1F
100
AcDbEntity
  8
0
 62
     4
100
AcDbPolyline
 90
        4
 70
     1
 43
0.0
 10
150.8184388712111
 20
116.3609855086361
 10
151.3036899332231
 20
116.893967551645
 10
148.7493735285181
 20
119.2195332331841
 10
148.2641224665061
 20
118.6865511901751
  0
LWPOLYLINE
  5
3E1
330
1F
100
AcDbEntity
  8
0
 62
     4
100
AcDbPolyline
 90
        4
 70
     1
 43
0.0
 10
152.3339061998646
 20
121.5041355176991
 10
152.3339061998646
 20
114.017896985589
 10
157.4339061998646
 20
114.017896985589
 10
157.4339061998646
 20
121.5041355176991
  0
CIRCLE
  5
3E2
330
1F
100
AcDbEntity
  8
0
 62
     4
100
AcDbCircle
 10
154.8839061998646
 20
117.7902593709101
 30
0.0
 40
1.871559633027523
  0
LWPOLYLINE
  5
3E3
330
1F
100
AcDbEntity
  8
0
 62
     4
100
AcDbPolyline
 90
        4
 70
     1
 43
0.0
 10
155.9184388712111
 20
116.3609855086361
 10
156.4036899332232
 20
116.893967551645
 10
153.8493735285181
 20
119.2195332331841
 10
153.3641224665061
 20
118.6865511901751
  0
LWPOLYLINE
  5
3E4
330
1F
100
AcDbEntity
  8
0
 62
     4
100
AcDbPolyline
 90
        4
 70
     1
 43
0.0
 10
157.4339061998646
 20
121.5041355176991
 10
157.4339061998646
 20
114.017896985589
 10
162.5339061998645
 20
114.017896985589
 10
162.5339061998645
 20
121.5041355176991
  0
CIRCLE
  5
3E5
330
1F
100
AcDbEntity
  8
0
 62
     4
100
AcDbCircle
 10
159.9839061998647
 20
117.7902593709101
 30
0.0
 40
1.871559633027523
  0
LWPOLYLINE
  5
3E6
330
1F
100
AcDbEntity
  8
0
 62
     4
100
AcDbPolyline
 90
        4
 70
     1
 43
0.0
 10
161.018438871211
 20
116.3609855086361
 10
161.5036899332232
 20
116.893967551645
 10
158.9493735285181
 20
119.2195332331841
 10
158.464122466506
 20
118.6865511901751
  0
LWPOLYLINE
  5
3E7
330
1F
100
AcDbEntity
  8
0
 62
     4
100
AcDbPolyline
 90
        4
 70
     1
 43
0.0
 10
162.5339061998645
 20
121.5041355176991
 10
162.5339061998645
 20
114.017896985589
 10
167.6339061998646
 20
114.017896985589
 10
167.6339061998646
 20
121.5041355176991
  0
CIRCLE
  5
3E8
330
1F
100
AcDbEntity
  8
0
 62
     4
100
AcDbCircle
 10
165.0839061998646
 20
117.7902593709101
 30
0.0
 40
1.871559633027523
  0
LWPOLYLINE
  5
3E9
330
1F
100
AcDbEntity
  8
0
 62
     4
100
AcDbPolyline
 90
        4
 70
     1
 43
0.0
 10
166.1184388712112
 20
116.3609855086361
 10
166.6036899332232
 20
116.893967551645
 10
164.0493735285182
 20
119.2195332331841
 10
163.5641224665061
 20
118.6865511901751
  0
LWPOLYLINE
  5
3EA
330
1F
100
AcDbEntity
  8
0
 62
     4
100
AcDbPolyline
 90
        4
 70
     1
 43
0.0
 10
167.6339061998646
 20
121.5041355176991
 10
167.6339061998646
 20
114.017896985589
 10
172.7339061998647
 20
114.017896985589
 10
172.7339061998647
 20
121.5041355176991
  0
CIRCLE
  5
3EB
330
1F
100
AcDbEntity
  8
0
 62
     4
100
AcDbCircle
 10
170.1839061998646
 20
117.7902593709101
 30
0.0
 40
1.871559633027523
  0
LWPOLYLINE
  5
3EC
330
1F
100
AcDbEntity
  8
0
 62
     4
100
AcDbPolyline
 90
        4
 70
     1
 43
0.0
 10
171.2184388712111
 20
116.3609855086361
 10
171.7036899332232
 20
116.893967551645
 10
169.1493735285182
 20
119.2195332331841
 10
168.664122466506
 20
118.6865511901751
  0
LWPOLYLINE
  5
3ED
330
1F
100
AcDbEntity
  8
0
 62
     4
100
AcDbPolyline
 90
        4
 70
     1
 43
0.0
 10
70.73390619986482
 20
121.5041355176992
 10
70.73390619986482
 20
114.017896985589
 10
75.83390619986473
 20
114.017896985589
 10
75.83390619986473
 20
121.5041355176992
  0
CIRCLE
  5
3EE
330
1F
100
AcDbEntity
  8
0
 62
     4
100
AcDbCircle
 10
73.28390619986477
 20
117.7902593709101
 30
0.0
 40
1.871559633027523
  0
LWPOLYLINE
  5
3EF
330
1F
100
AcDbEntity
  8
0
 62
     4
100
AcDbPolyline
 90
        4
 70
     1
 43
0.0
 10
74.31843887121125
 20
116.3609855086362
 10
74.80368993322328
 20
116.893967551645
 10
72.24937352851829
 20
119.2195332331841
 10
71.76412246650627
 20
118.6865511901752
  0
LWPOLYLINE
  5
3F0
330
1F
100
AcDbEntity
  8
0
 62
     4
100
AcDbPolyline
 90
        4
 70
     1
 43
0.0
 10
75.83390619986473
 20
121.5041355176992
 10
75.83390619986473
 20
114.017896985589
 10
80.93390619986463
 20
114.017896985589
 10
80.93390619986463
 20
121.5041355176992
  0
CIRCLE
  5
3F1
330
1F
100
AcDbEntity
  8
0
 62
     4
100
AcDbCircle
 10
78.3839061998648
 20
117.7902593709101
 30
0.0
 40
1.871559633027523
  0
LWPOLYLINE
  5
3F2
330
1F
100
AcDbEntity
  8
0
 62
     4
100
AcDbPolyline
 90
        4
 70
     1
 43
0.0
 10
79.41843887121128
 20
116.3609855086362
 10
79.90368993322331
 20
116.893967551645
 10
77.3493735285182
 20
119.2195332331841
 10
76.86412246650617
 20
118.6865511901752
  0
LWPOLYLINE
  5
3F3
330
1F
100
AcDbEntity
  8
0
 62
     4
100
AcDbPolyline
 90
        4
 70
     1
 43
0.0
 10
80.93390619986463
 20
121.5041355176992
 10
80.93390619986463
 20
114.017896985589
 10
86.03390619986477
 20
114.017896985589
 10
86.03390619986477
 20
121.5041355176991
  0
CIRCLE
  5
3F4
330
1F
100
AcDbEntity
  8
0
 62
     4
100
AcDbCircle
 10
83.48390619986481
 20
117.7902593709101
 30
0.0
 40
1.871559633027523
  0
LWPOLYLINE
  5
3F5
330
1F
100
AcDbEntity
  8
0
 62
     4
100
AcDbPolyline
 90
        4
 70
     1
 43
0.0
 10
84.5184388712113
 20
116.3609855086362
 10
85.00368993322332
 20
116.893967551645
 10
82.44937352851833
 20
119.2195332331841
 10
81.9641224665062
 20
118.6865511901752
  0
LWPOLYLINE
  5
3F6
330
1F
100
AcDbEntity
  8
0
 62
     4
100
AcDbPolyline
 90
        4
 70
     1
 43
0.0
 10
86.03390619986477
 20
121.5041355176991
 10
86.03390619986477
 20
114.017896985589
 10
91.1339061998648
 20
114.017896985589
 10
91.1339061998648
 20
121.5041355176991
  0
CIRCLE
  5
3F7
330
1F
100
AcDbEntity
  8
0
 62
     4
100
AcDbCircle
 10
88.58390619986472
 20
117.7902593709101
 30
0.0
 40
1.871559633027523
  0
LWPOLYLINE
  5
3F8
330
1F
100
AcDbEntity
  8
0
 62
     4
100
AcDbPolyline
 90
        4
 70
     1
 43
0.0
 10
89.61843887121121
 20
116.3609855086362
 10
90.10368993322336
 20
116.893967551645
 10
87.54937352851836
 20
119.2195332331841
 10
87.06412246650611
 20
118.6865511901751
  0
LWPOLYLINE
  5
3F9
330
1F
100
AcDbEntity
  8
0
 62
     4
100
AcDbPolyline
 90
        2
 70
     0
 43
0.0
 10
91.1339061998648
 20
121.5041355176991
 10
91.1339061998648
 20
114.017896985589
  0
MTEXT
  5
3FA
330
1F
100
AcDbEntity
  8
0
100
AcDbMText
 10
72.34619369180679
 20
126.5975930082618
 30
0.0
 40
2.339449541284403
 41
16.3873234010998
 71
     1
 72
     5
  1
{\fTimes New Roman|b0|i0|c0|p18;NET1 +}
 11
0.0000000000000001
 21
1.0
 31
0.0
 73
     1
 44
1.0
1001
ACAD
1000
MTEXTBEGIN
1070
    73
1070
     1
1070
    44
1040
1.0
1070
    74
1070
     0
1000
MTEXTEND
  0
MTEXT
  5
3FB
330
1F
100
AcDbEntity
  8
0
100
AcDbMText
 10
77.44619369180681
 20
126.5975930082618
 30
0.0
 40
2.339449541284403
 41
16.3873234010998
 71
     1
 72
     5
  1
{\fTimes New Roman|b0|i0|c0|p18;NET1 -}
 11
0.0000000000000001
 21
1.0
 31
0.0
 73
     1
 44
1.0
1001
ACAD
1000
MTEXTBEGIN
1070
    73
1070
     1
1070
    44
1040
1.0
1070
    74
1070
     0
1000
MTEXTEND
  0
MTEXT
  5
3FC
330
1F
100
AcDbEntity
  8
0
100
AcDbMText
 10
82.54619369180694
 20
126.5975930082619
 30
0.0
 40
2.339449541284403
 41
16.3873234010998
 71
     1
 72
     5
  1
{\fTimes New Roman|b0|i0|c0|p18;NET2 +}
 11
0.0000000000000001
 21
1.0
 31
0.0
 73
     1
 44
1.0
1001
ACAD
1000
MTEXTBEGIN
1070
    73
1070
     1
1070
    44
1040
1.0
1070
    74
1070
     0
1000
MTEXTEND
  0
MTEXT
  5
3FD
330
1F
100
AcDbEntity
  8
0
100
AcDbMText
 10
87.64619369180685
 20
126.5975930082619
 30
0.0
 40
2.339449541284403
 41
16.3873234010998
 71
     1
 72
     5
  1
{\fTimes New Roman|b0|i0|c0|p18;NET2 -}
 11
0.0000000000000001
 21
1.0
 31
0.0
 73
     1
 44
1.0
1001
ACAD
1000
MTEXTBEGIN
1070
    73
1070
     1
1070
    44
1040
1.0
1070
    74
1070
     0
1000
MTEXTEND
  0
MTEXT
  5
3FE
330
1F
100
AcDbEntity
  8
0
100
AcDbMText
 10
92.74619369180689
 20
126.5975930082619
 30
0.0
 40
2.339449541284403
 41
16.3873234010998
 71
     1
 72
     5
  1
{\fTimes New Roman|b0|i0|c0|p18;GND}
 11
0.0000000000000001
 21
1.0
 31
0.0
 73
     1
 44
1.0
1001
ACAD
1000
MTEXTBEGIN
1070
    73
1070
     1
1070
    44
1040
1.0
1070
    74
1070
     0
1000
MTEXTEND
  0
MTEXT
  5
3FF
330
1F
100
AcDbEntity
  8
0
100
AcDbMText
 10
108.0461936918068
 20
126.5975930082618
 30
0.0
 40
2.339449541284403
 41
16.3873234010998
 71
     1
 72
     5
  1
{\fTimes New Roman|b0|i0|c0|p18;24V OUT}
 11
0.0000000000000001
 21
1.0
 31
0.0
 73
     1
 44
1.0
1001
ACAD
1000
MTEXTBEGIN
1070
    73
1070
     1
1070
    44
1040
1.0
1070
    74
1070
     0
1000
MTEXTEND
  0
MTEXT
  5
400
330
1F
100
AcDbEntity
  8
0
100
AcDbMText
 10
113.1461936918067
 20
126.5975930082618
 30
0.0
 40
2.339449541284403
 41
16.3873234010998
 71
     1
 72
     5
  1
{\fTimes New Roman|b0|i0|c0|p18;UI 01}
 11
0.0000000000000001
 21
1.0
 31
0.0
 73
     1
 44
1.0
1001
ACAD
1000
MTEXTBEGIN
1070
    73
1070
     1
1070
    44
1040
1.0
1070
    74
1070
     0
1000
MTEXTEND
  0
MTEXT
  5
401
330
1F
100
AcDbEntity
  8
0
100
AcDbMText
 10
118.2461936918069
 20
126.5975930082618
 30
0.0
 40
2.339449541284403
 41
16.3873234010998
 71
     1
 72
     5
  1
{\fTimes New Roman|b0|i0|c0|p18;UI 02}
 11
0.0000000000000001
 21
1.0
 31
0.0
 73
     1
 44
1.0
1001
ACAD
1000
MTEXTBEGIN
1070
    73
1070
     1
1070
    44
1040
1.0
1070
    74
1070
     0
1000
MTEXTEND
  0
MTEXT
  5
402
330
1F
100
AcDbEntity
  8
0
100
AcDbMText
 10
123.3461936918069
 20
126.5975930082618
 30
0.0
 40
2.339449541284403
 41
16.3873234010998
 71
     1
 72
     5
  1
{\fTimes New Roman|b0|i0|c0|p18;GND}
 11
0.0000000000000001
 21
1.0
 31
0.0
 73
     1
 44
1.0
1001
ACAD
1000
MTEXTBEGIN
1070
    73
1070
     1
1070
    44
1040
1.0
1070
    74
1070
     0
1000
MTEXTEND
  0
MTEXT
  5
403
330
1F
100
AcDbEntity
  8
0
100
AcDbMText
 10
128.4461936918068
 20
126.5975930082618
 30
0.0
 40
2.339449541284403
 41
16.3873234010998
 71
     1
 72
     5
  1
{\fTimes New Roman|b0|i0|c0|p18;UI 03}
 11
0.0000000000000001
 21
1.0
 31
0.0
 73
     1
 44
1.0
1001
ACAD
1000
MTEXTBEGIN
1070
    73
1070
     1
1070
    44
1040
1.0
1070
    74
1070
     0
1000
MTEXTEND
  0
MTEXT
  5
404
330
1F
100
AcDbEntity
  8
0
100
AcDbMText
 10
133.5461936918069
 20
126.5975930082618
 30
0.0
 40
2.339449541284403
 41
16.3873234010998
 71
     1
 72
     5
  1
{\fTimes New Roman|b0|i0|c0|p18;UI 04}
 11
0.0000000000000001
 21
1.0
 31
0.0
 73
     1
 44
1.0
1001
ACAD
1000
MTEXTBEGIN
1070
    73
1070
     1
1070
    44
1040
1.0
1070
    74
1070
     0
1000
MTEXTEND
  0
MTEXT
  5
405
330
1F
100
AcDbEntity
  8
0
100
AcDbMText
 10
138.6461936918068
 20
126.5975930082618
 30
0.0
 40
2.339449541284403
 41
16.3873234010998
 71
     1
 72
     5
  1
{\fTimes New Roman|b0|i0|c0|p18;GND}
 11
0.0000000000000001
 21
1.0
 31
0.0
 73
     1
 44
1.0
1001
ACAD
1000
MTEXTBEGIN
1070
    73
1070
     1
1070
    44
1040
1.0
1070
    74
1070
     0
1000
MTEXTEND
  0
MTEXT
  5
406
330
1F
100
AcDbEntity
  8
0
100
AcDbMText
 10
143.7461936918069
 20
126.5975930082618
 30
0.0
 40
2.339449541284403
 41
16.3873234010998
 71
     1
 72
     5
  1
{\fTimes New Roman|b0|i0|c0|p18;UI 05}
 11
0.0000000000000001
 21
1.0
 31
0.0
 73
     1
 44
1.0
1001
ACAD
1000
MTEXTBEGIN
1070
    73
1070
     1
1070
    44
1040
1.0
1070
    74
1070
     0
1000
MTEXTEND
  0
MTEXT
  5
407
330
1F
100
AcDbEntity
  8
0
100
AcDbMText
 10
148.8461936918068
 20
126.5975930082618
 30
0.0
 40
2.339449541284403
 41
16.3873234010998
 71
     1
 72
     5
  1
{\fTimes New Roman|b0|i0|c0|p18;UI 06}
 11
0.0000000000000001
 21
1.0
 31
0.0
 73
     1
 44
1.0
1001
ACAD
1000
MTEXTBEGIN
1070
    73
1070
     1
1070
    44
1040
1.0
1070
    74
1070
     0
1000
MTEXTEND
  0
MTEXT
  5
408
330
1F
100
AcDbEntity
  8
0
100
AcDbMText
 10
153.9461936918068
 20
126.5975930082618
 30
0.0
 40
2.339449541284403
 41
16.3873234010998
 71
     1
 72
     5
  1
{\fTimes New Roman|b0|i0|c0|p18;GND}
 11
0.0000000000000001
 21
1.0
 31
0.0
 73
     1
 44
1.0
1001
ACAD
1000
MTEXTBEGIN
1070
    73
1070
     1
1070
    44
1040
1.0
1070
    74
1070
     0
1000
MTEXTEND
  0
MTEXT
  5
409
330
1F
100
AcDbEntity
  8
0
100
AcDbMText
 10
159.0461936918068
 20
126.5975930082618
 30
0.0
 40
2.339449541284403
 41
16.3873234010998
 71
     1
 72
     5
  1
{\fTimes New Roman|b0|i0|c0|p18;UI 07}
 11
0.0000000000000001
 21
1.0
 31
0.0
 73
     1
 44
1.0
1001
ACAD
1000
MTEXTBEGIN
1070
    73
1070
     1
1070
    44
1040
1.0
1070
    74
1070
     0
1000
MTEXTEND
  0
MTEXT
  5
40A
330
1F
100
AcDbEntity
  8
0
100
AcDbMText
 10
164.1461936918068
 20
126.5975930082618
 30
0.0
 40
2.339449541284403
 41
16.3873234010998
 71
     1
 72
     5
  1
{\fTimes New Roman|b0|i0|c0|p18;UI 08}
 11
0.0000000000000001
 21
1.0
 31
0.0
 73
     1
 44
1.0
1001
ACAD
1000
MTEXTBEGIN
1070
    73
1070
     1
1070
    44
1040
1.0
1070
    74
1070
     0
1000
MTEXTEND
  0
MTEXT
  5
40B
330
1F
100
AcDbEntity
  8
0
100
AcDbMText
 10
169.2461936918068
 20
126.5975930082618
 30
0.0
 40
2.339449541284403
 41
16.3873234010998
 71
     1
 72
     5
  1
{\fTimes New Roman|b0|i0|c0|p18;GND}
 11
0.0000000000000001
 21
1.0
 31
0.0
 73
     1
 44
1.0
1001
ACAD
1000
MTEXTBEGIN
1070
    73
1070
     1
1070
    44
1040
1.0
1070
    74
1070
     0
1000
MTEXTEND
  0
LINE
  5
40C
330
1F
100
AcDbEntity
  8
0
 62
     4
100
AcDbLine
 10
101.3339061998646
 20
121.5041355176991
 30
0.0
 11
101.3339061998646
 21
126.4754657929284
 31
0.0
  0
LWPOLYLINE
  5
40D
330
1F
100
AcDbEntity
  8
0
 62
     4
100
AcDbPolyline
 90
        4
 70
     1
 43
0.0
 10
91.1339061998648
 20
121.5041355176992
 10
91.1339061998648
 20
114.017896985589
 10
96.23390619986471
 20
114.017896985589
 10
96.23390619986471
 20
121.5041355176992
  0
CIRCLE
  5
40E
330
1F
100
AcDbEntity
  8
0
 62
     4
100
AcDbCircle
 10
93.68390619986463
 20
117.7902593709101
 30
0.0
 40
1.871559633027523
  0
LWPOLYLINE
  5
40F
330
1F
100
AcDbEntity
  8
0
 62
     4
100
AcDbPolyline
 90
        4
 70
     1
 43
0.0
 10
94.71843887121123
 20
116.3609855086362
 10
95.20368993322327
 20
116.893967551645
 10
92.64937352851827
 20
119.2195332331841
 10
92.16412246650625
 20
118.6865511901752
  0
LWPOLYLINE
  5
410
330
1F
100
AcDbEntity
  8
0
 62
     4
100
AcDbPolyline
 90
        4
 70
     1
 43
0.0
 10
96.23390619986471
 20
121.5041355176992
 10
96.23390619986471
 20
114.017896985589
 10
101.3339061998646
 20
114.017896985589
 10
101.3339061998646
 20
121.5041355176992
  0
CIRCLE
  5
411
330
1F
100
AcDbEntity
  8
0
 62
     4
100
AcDbCircle
 10
98.78390619986477
 20
117.7902593709101
 30
0.0
 40
1.871559633027523
  0
LWPOLYLINE
  5
412
330
1F
100
AcDbEntity
  8
0
 62
     4
100
AcDbPolyline
 90
        4
 70
     1
 43
0.0
 10
99.81843887121126
 20
116.3609855086362
 10
100.3036899332233
 20
116.893967551645
 10
97.74937352851818
 20
119.2195332331841
 10
97.26412246650616
 20
118.6865511901752
  0
MTEXT
  5
413
330
1F
100
AcDbEntity
  8
0
100
AcDbMText
 10
97.84619369180679
 20
126.5975930082618
 30
0.0
 40
2.339449541284403
 41
16.3873234010998
 71
     1
 72
     5
  1
{\fTimes New Roman|b0|i0|c0|p18;GND}
 11
0.0000000000000001
 21
1.0
 31
0.0
 73
     1
 44
1.0
1001
ACAD
1000
MTEXTBEGIN
1070
    73
1070
     1
1070
    44
1040
1.0
1070
    74
1070
     0
1000
MTEXTEND
  0
LINE
  5
414
330
1F
100
AcDbEntity
  8
0
 62
     4
100
AcDbLine
 10
172.7339061998647
 20
114.0763832241212
 30
0.0
 11
172.7339061998647
 21
126.4754657929284
 31
0.0
  0
LINE
  5
415
330
1F
100
AcDbEntity
  8
0
 62
     4
100
AcDbLine
 10
70.73390619986482
 20
114.017896985589
 30
0.0
 11
70.73390619986482
 21
126.4754657929284
 31
0.0
  0
LWPOLYLINE
  5
416
330
1F
100
AcDbEntity
  8
0
 62
     4
100
AcDbPolyline
 90
        3
 70
     0
 43
0.0
 10
70.73390619986482
 20
226.9754657929285
 10
70.73390619986482
 20
239.3745483617359
 10
80.93390619986475
 20
239.3745483617359
  0
LWPOLYLINE
  5
417
330
1F
100
AcDbEntity
  8
0
 62
     4
100
AcDbPolyline
 90
        3
 70
     0
 43
0.0
 10
70.73390619986482
 20
226.9754657929285
 10
70.73390619986482
 20
227.6773006553139
 10
80.93390619986475
 20
227.6773006553139
  0
LWPOLYLINE
  5
418
330
1F
100
AcDbEntity
  8
0
 62
     4
100
AcDbPolyline
 90
        4
 70
     0
 43
0.0
 10
80.93390619986475
 20
231.9467960681579
 10
70.73390619986482
 20
231.9467960681579
 10
70.73390619986482
 20
239.433034600268
 10
80.93390619986475
 20
239.433034600268
  0
LWPOLYLINE
  5
419
330
1F
100
AcDbEntity
  8
0
 62
     4
100
AcDbPolyline
 90
        4
 70
     1
 43
0.0
 10
70.73390619986482
 20
231.9467960681579
 10
70.73390619986482
 20
239.433034600268
 10
75.83390619986484
 20
239.433034600268
 10
75.83390619986484
 20
231.9467960681579
  0
CIRCLE
  5
41A
330
1F
100
AcDbEntity
  8
0
 62
     4
100
AcDbCircle
 10
73.28390619986489
 20
235.6606722149469
 30
0.0
 40
1.871559633027523
  0
LWPOLYLINE
  5
41B
330
1F
100
AcDbEntity
  8
0
 62
     4
100
AcDbPolyline
 90
        4
 70
     1
 43
0.0
 10
74.31843887121125
 20
237.0899460772208
 10
74.8036899332234
 20
236.5569640342119
 10
72.2493735285184
 20
234.231398352673
 10
71.76412246650627
 20
234.7643803956818
  0
LWPOLYLINE
  5
41C
330
1F
100
AcDbEntity
  8
0
 62
     4
100
AcDbPolyline
 90
        4
 70
     1
 43
0.0
 10
75.83390619986484
 20
231.9467960681579
 10
75.83390619986484
 20
239.433034600268
 10
80.93390619986475
 20
239.433034600268
 10
80.93390619986475
 20
231.9467960681579
  0
CIRCLE
  5
41D
330
1F
100
AcDbEntity
  8
0
 62
     4
100
AcDbCircle
 10
78.3839061998648
 20
235.6606722149469
 30
0.0
 40
1.871559633027523
  0
LWPOLYLINE
  5
41E
330
1F
100
AcDbEntity
  8
0
 62
     4
100
AcDbPolyline
 90
        4
 70
     1
 43
0.0
 10
79.41843887121128
 20
237.0899460772208
 10
79.90368993322341
 20
236.5569640342119
 10
77.34937352851831
 20
234.231398352673
 10
76.86412246650629
 20
234.7643803956818
  0
MTEXT
  5
41F
330
1F
100
AcDbEntity
  8
0
100
AcDbMText
 10
72.22728574599752
 20
216.9301879682548
 30
0.0
 40
2.339449541284403
 41
20.90355474354091
 71
     1
 72
     5
  1
{\fTimes New Roman|b0|i0|c0|p18;POWER IN}
 11
0.0000000000000001
 21
1.0
 31
0.0
 73
     1
 44
1.0
1001
ACAD
1000
MTEXTBEGIN
1070
    73
1070
     1
1070
    44
1040
1.0
1070
    74
1070
     0
1000
MTEXTEND
  0
MTEXT
  5
420
330
1F
100
AcDbEntity
  8
0
100
AcDbMText
 10
77.32728574599754
 20
216.9301879682548
 30
0.0
 40
2.339449541284403
 41
16.3873234010998
 71
     1
 72
     5
  1
{\fTimes New Roman|b0|i0|c0|p18;GND}
 11
0.0000000000000001
 21
1.0
 31
0.0
 73
     1
 44
1.0
1001
ACAD
1000
MTEXTBEGIN
1070
    73
1070
     1
1070
    44
1040
1.0
1070
    74
1070
     0
1000
MTEXTEND
  0
LINE
  5
421
330
1F
100
AcDbEntity
  8
0
 62
     4
100
AcDbLine
 10
80.93390619986475
 20
231.9467960681579
 30
0.0
 11
80.93390619986475
 21
226.9754657929285
 31
0.0
  0
LWPOLYLINE
  5
422
330
1F
100
AcDbEntity
  8
0
 62
     3
100
AcDbPolyline
 90
        4
 70
     1
 43
0.0
 10
156.5589061998648
 20
149.2254657929285
 10
168.5589061998648
 20
149.2254657929285
 10
168.5589061998648
 20
147.2254657929285
 10
156.5589061998648
 20
147.2254657929285
  0
LINE
  5
423
330
1F
100
AcDbEntity
  8
0
100
AcDbLine
 10
172.7339061998648
 20
226.9754657929285
 30
0.0
 11
172.7339061998649
 21
231.9467960681579
 31
0.0
  0
LWPOLYLINE
  5
424
330
1F
100
AcDbEntity
  8
0
 62
     4
100
AcDbPolyline
 90
        3
 70
     0
 43
0.0
 10
91.13390619986491
 20
239.3745483617318
 10
172.7339061998648
 20
239.3745483617318
 10
172.7339061998648
 20
226.9754657929244
  0
LWPOLYLINE
  5
425
330
1F
100
AcDbEntity
  8
0
 62
     4
100
AcDbPolyline
 90
        3
 70
     0
 43
0.0
 10
91.13390619986491
 20
227.6773006553098
 10
172.7339061998648
 20
227.6773006553098
 10
172.7339061998648
 20
226.9754657929244
  0
LWPOLYLINE
  5
426
330
1F
100
AcDbEntity
  8
0
 62
     4
100
AcDbPolyline
 90
        4
 70
     0
 43
0.0
 10
91.13390619986491
 20
239.4330346002639
 10
172.7339061998648
 20
239.4330346002639
 10
172.7339061998648
 20
231.9467960681538
 10
91.13390619986491
 20
231.9467960681538
  0
LWPOLYLINE
  5
427
330
1F
100
AcDbEntity
  8
0
 62
     4
100
AcDbPolyline
 90
        4
 70
     1
 43
0.0
 10
91.13390619986491
 20
231.9467960681538
 10
91.13390619986491
 20
239.4330346002639
 10
96.23390619986482
 20
239.4330346002639
 10
96.23390619986482
 20
231.9467960681538
  0
CIRCLE
  5
428
330
1F
100
AcDbEntity
  8
0
 62
     4
100
AcDbCircle
 10
93.68390619986486
 20
235.6606722149428
 30
0.0
 40
1.871559633027523
  0
LWPOLYLINE
  5
429
330
1F
100
AcDbEntity
  8
0
 62
     4
100
AcDbPolyline
 90
        4
 70
     1
 43
0.0
 10
94.71843887121135
 20
237.0899460772168
 10
95.20368993322337
 20
236.5569640342078
 10
92.64937352851838
 20
234.2313983526689
 10
92.16412246650635
 20
234.7643803956777
  0
LWPOLYLINE
  5
42A
330
1F
100
AcDbEntity
  8
0
 62
     4
100
AcDbPolyline
 90
        4
 70
     1
 43
0.0
 10
96.23390619986482
 20
231.9467960681538
 10
96.23390619986482
 20
239.4330346002639
 10
101.3339061998647
 20
239.4330346002639
 10
101.3339061998647
 20
231.9467960681538
  0
CIRCLE
  5
42B
330
1F
100
AcDbEntity
  8
0
 62
     4
100
AcDbCircle
 10
98.78390619986477
 20
235.6606722149428
 30
0.0
 40
1.871559633027523
  0
LWPOLYLINE
  5
42C
330
1F
100
AcDbEntity
  8
0
 62
     4
100
AcDbPolyline
 90
        4
 70
     1
 43
0.0
 10
99.81843887121137
 20
237.0899460772168
 10
100.3036899332233
 20
236.5569640342078
 10
97.74937352851829
 20
234.2313983526689
 10
97.26412246650626
 20
234.7643803956777
  0
LWPOLYLINE
  5
42D
330
1F
100
AcDbEntity
  8
0
 62
     4
100
AcDbPolyline
 90
        4
 70
     1
 43
0.0
 10
101.3339061998647
 20
231.9467960681538
 10
101.3339061998647
 20
239.4330346002639
 10
106.4339061998648
 20
239.4330346002639
 10
106.4339061998648
 20
231.9467960681538
  0
CIRCLE
  5
42E
330
1F
100
AcDbEntity
  8
0
 62
     4
100
AcDbCircle
 10
103.8839061998649
 20
235.6606722149428
 30
0.0
 40
1.871559633027523
  0
LWPOLYLINE
  5
42F
330
1F
100
AcDbEntity
  8
0
 62
     4
100
AcDbPolyline
 90
        4
 70
     1
 43
0.0
 10
104.9184388712113
 20
237.0899460772168
 10
105.4036899332234
 20
236.5569640342078
 10
102.8493735285183
 20
234.2313983526689
 10
102.3641224665063
 20
234.7643803956777
  0
LWPOLYLINE
  5
430
330
1F
100
AcDbEntity
  8
0
 62
     4
100
AcDbPolyline
 90
        4
 70
     1
 43
0.0
 10
106.4339061998648
 20
231.9467960681538
 10
106.4339061998648
 20
239.4330346002639
 10
111.5339061998648
 20
239.4330346002639
 10
111.5339061998648
 20
231.9467960681538
  0
CIRCLE
  5
431
330
1F
100
AcDbEntity
  8
0
 62
     4
100
AcDbCircle
 10
108.9839061998648
 20
235.6606722149428
 30
0.0
 40
1.871559633027523
  0
LWPOLYLINE
  5
432
330
1F
100
AcDbEntity
  8
0
 62
     4
100
AcDbPolyline
 90
        4
 70
     1
 43
0.0
 10
110.0184388712112
 20
237.0899460772168
 10
110.5036899332234
 20
236.5569640342078
 10
107.9493735285184
 20
234.2313983526689
 10
107.4641224665063
 20
234.7643803956777
  0
LWPOLYLINE
  5
433
330
1F
100
AcDbEntity
  8
0
 62
     4
100
AcDbPolyline
 90
        4
 70
     1
 43
0.0
 10
111.5339061998648
 20
231.9467960681538
 10
111.5339061998648
 20
239.4330346002639
 10
116.6339061998649
 20
239.4330346002639
 10
116.6339061998649
 20
231.9467960681538
  0
CIRCLE
  5
434
330
1F
100
AcDbEntity
  8
0
 62
     4
100
AcDbCircle
 10
114.0839061998647
 20
235.6606722149428
 30
0.0
 40
1.871559633027523
  0
LWPOLYLINE
  5
435
330
1F
100
AcDbEntity
  8
0
 62
     4
100
AcDbPolyline
 90
        4
 70
     1
 43
0.0
 10
115.1184388712113
 20
237.0899460772168
 10
115.6036899332234
 20
236.5569640342078
 10
113.0493735285183
 20
234.2313983526689
 10
112.5641224665062
 20
234.7643803956777
  0
LWPOLYLINE
  5
436
330
1F
100
AcDbEntity
  8
0
 62
     4
100
AcDbPolyline
 90
        4
 70
     1
 43
0.0
 10
116.6339061998649
 20
231.9467960681538
 10
116.6339061998649
 20
239.4330346002639
 10
121.7339061998648
 20
239.4330346002639
 10
121.7339061998648
 20
231.9467960681538
  0
CIRCLE
  5
437
330
1F
100
AcDbEntity
  8
0
 62
     4
100
AcDbCircle
 10
119.1839061998648
 20
235.6606722149428
 30
0.0
 40
1.871559633027523
  0
LWPOLYLINE
  5
438
330
1F
100
AcDbEntity
  8
0
 62
     4
100
AcDbPolyline
 90
        4
 70
     1
 43
0.0
 10
120.2184388712113
 20
237.0899460772168
 10
120.7036899332234
 20
236.5569640342078
 10
118.1493735285183
 20
234.2313983526689
 10
117.6641224665063
 20
234.7643803956777
  0
LWPOLYLINE
  5
439
330
1F
100
AcDbEntity
  8
0
 62
     4
100
AcDbPolyline
 90
        4
 70
     1
 43
0.0
 10
121.7339061998648
 20
231.9467960681538
 10
121.7339061998648
 20
239.4330346002639
 10
126.8339061998647
 20
239.4330346002639
 10
126.8339061998647
 20
231.9467960681538
  0
CIRCLE
  5
43A
330
1F
100
AcDbEntity
  8
0
 62
     4
100
AcDbCircle
 10
124.2839061998648
 20
235.6606722149428
 30
0.0
 40
1.871559633027523
  0
LWPOLYLINE
  5
43B
330
1F
100
AcDbEntity
  8
0
 62
     4
100
AcDbPolyline
 90
        4
 70
     1
 43
0.0
 10
125.3184388712113
 20
237.0899460772168
 10
125.8036899332233
 20
236.5569640342078
 10
123.2493735285184
 20
234.2313983526689
 10
122.7641224665064
 20
234.7643803956777
  0
LWPOLYLINE
  5
43C
330
1F
100
AcDbEntity
  8
0
 62
     4
100
AcDbPolyline
 90
        4
 70
     1
 43
0.0
 10
126.8339061998649
 20
231.9467960681538
 10
126.8339061998649
 20
239.4330346002639
 10
131.9339061998648
 20
239.4330346002639
 10
131.9339061998648
 20
231.9467960681538
  0
CIRCLE
  5
43D
330
1F
100
AcDbEntity
  8
0
 62
     4
100
AcDbCircle
 10
129.3839061998649
 20
235.6606722149428
 30
0.0
 40
1.871559633027523
  0
LWPOLYLINE
  5
43E
330
1F
100
AcDbEntity
  8
0
 62
     4
100
AcDbPolyline
 90
        4
 70
     1
 43
0.0
 10
130.4184388712112
 20
237.0899460772168
 10
130.9036899332234
 20
236.5569640342078
 10
128.3493735285183
 20
234.2313983526689
 10
127.8641224665063
 20
234.7643803956777
  0
LWPOLYLINE
  5
43F
330
1F
100
AcDbEntity
  8
0
 62
     4
100
AcDbPolyline
 90
        4
 70
     1
 43
0.0
 10
131.9339061998648
 20
231.9467960681538
 10
131.9339061998648
 20
239.4330346002639
 10
137.0339061998647
 20
239.4330346002639
 10
137.0339061998647
 20
231.9467960681538
  0
CIRCLE
  5
440
330
1F
100
AcDbEntity
  8
0
 62
     4
100
AcDbCircle
 10
134.4839061998648
 20
235.6606722149428
 30
0.0
 40
1.871559633027523
  0
LWPOLYLINE
  5
441
330
1F
100
AcDbEntity
  8
0
 62
     4
100
AcDbPolyline
 90
        4
 70
     1
 43
0.0
 10
135.5184388712111
 20
237.0899460772168
 10
136.0036899332234
 20
236.5569640342078
 10
133.4493735285184
 20
234.2313983526689
 10
132.9641224665063
 20
234.7643803956777
  0
LWPOLYLINE
  5
442
330
1F
100
AcDbEntity
  8
0
 62
     4
100
AcDbPolyline
 90
        4
 70
     1
 43
0.0
 10
137.0339061998647
 20
231.9467960681538
 10
137.0339061998647
 20
239.4330346002639
 10
142.1339061998649
 20
239.4330346002639
 10
142.1339061998649
 20
231.9467960681538
  0
CIRCLE
  5
443
330
1F
100
AcDbEntity
  8
0
 62
     4
100
AcDbCircle
 10
139.5839061998647
 20
235.6606722149428
 30
0.0
 40
1.871559633027523
  0
LWPOLYLINE
  5
444
330
1F
100
AcDbEntity
  8
0
 62
     4
100
AcDbPolyline
 90
        4
 70
     1
 43
0.0
 10
140.6184388712113
 20
237.0899460772168
 10
141.1036899332234
 20
236.5569640342078
 10
138.5493735285184
 20
234.2313983526689
 10
138.0641224665062
 20
234.7643803956777
  0
LWPOLYLINE
  5
445
330
1F
100
AcDbEntity
  8
0
 62
     4
100
AcDbPolyline
 90
        4
 70
     1
 43
0.0
 10
142.1339061998649
 20
231.9467960681538
 10
142.1339061998649
 20
239.4330346002639
 10
147.2339061998648
 20
239.4330346002639
 10
147.2339061998648
 20
231.9467960681538
  0
CIRCLE
  5
446
330
1F
100
AcDbEntity
  8
0
 62
     4
100
AcDbCircle
 10
144.6839061998648
 20
235.6606722149428
 30
0.0
 40
1.871559633027523
  0
LWPOLYLINE
  5
447
330
1F
100
AcDbEntity
  8
0
 62
     4
100
AcDbPolyline
 90
        4
 70
     1
 43
0.0
 10
145.7184388712113
 20
237.0899460772168
 10
146.2036899332233
 20
236.5569640342078
 10
143.6493735285183
 20
234.2313983526689
 10
143.1641224665063
 20
234.7643803956777
  0
LWPOLYLINE
  5
448
330
1F
100
AcDbEntity
  8
0
 62
     4
100
AcDbPolyline
 90
        4
 70
     1
 43
0.0
 10
147.2339061998648
 20
231.9467960681538
 10
147.2339061998648
 20
239.4330346002639
 10
152.3339061998649
 20
239.4330346002639
 10
152.3339061998649
 20
231.9467960681538
  0
CIRCLE
  5
449
330
1F
100
AcDbEntity
  8
0
 62
     4
100
AcDbCircle
 10
149.7839061998647
 20
235.6606722149428
 30
0.0
 40
1.871559633027523
  0
LWPOLYLINE
  5
44A
330
1F
100
AcDbEntity
  8
0
 62
     4
100
AcDbPolyline
 90
        4
 70
     1
 43
0.0
 10
150.8184388712113
 20
237.0899460772168
 10
151.3036899332232
 20
236.5569640342078
 10
148.7493735285184
 20
234.2313983526689
 10
148.2641224665063
 20
234.7643803956777
  0
LWPOLYLINE
  5
44B
330
1F
100
AcDbEntity
  8
0
 62
     4
100
AcDbPolyline
 90
        4
 70
     1
 43
0.0
 10
152.3339061998649
 20
231.9467960681538
 10
152.3339061998649
 20
239.4330346002639
 10
157.4339061998648
 20
239.4330346002639
 10
157.4339061998648
 20
231.9467960681538
  0
CIRCLE
  5
44C
330
1F
100
AcDbEntity
  8
0
 62
     4
100
AcDbCircle
 10
154.8839061998649
 20
235.6606722149428
 30
0.0
 40
1.871559633027523
  0
LWPOLYLINE
  5
44D
330
1F
100
AcDbEntity
  8
0
 62
     4
100
AcDbPolyline
 90
        4
 70
     1
 43
0.0
 10
155.9184388712112
 20
237.0899460772168
 10
156.4036899332234
 20
236.5569640342078
 10
153.8493735285183
 20
234.2313983526689
 10
153.3641224665063
 20
234.7643803956777
  0
LWPOLYLINE
  5
44E
330
1F
100
AcDbEntity
  8
0
 62
     4
100
AcDbPolyline
 90
        4
 70
     1
 43
0.0
 10
157.4339061998648
 20
231.9467960681538
 10
157.4339061998648
 20
239.4330346002639
 10
162.5339061998647
 20
239.4330346002639
 10
162.5339061998647
 20
231.9467960681538
  0
CIRCLE
  5
44F
330
1F
100
AcDbEntity
  8
0
 62
     4
100
AcDbCircle
 10
159.9839061998648
 20
235.6606722149428
 30
0.0
 40
1.871559633027523
  0
LWPOLYLINE
  5
450
330
1F
100
AcDbEntity
  8
0
 62
     4
100
AcDbPolyline
 90
        4
 70
     1
 43
0.0
 10
161.0184388712114
 20
237.0899460772168
 10
161.5036899332234
 20
236.5569640342078
 10
158.9493735285184
 20
234.2313983526689
 10
158.4641224665063
 20
234.7643803956777
  0
LWPOLYLINE
  5
451
330
1F
100
AcDbEntity
  8
0
 62
     4
100
AcDbPolyline
 90
        4
 70
     1
 43
0.0
 10
162.5339061998647
 20
231.9467960681538
 10
162.5339061998647
 20
239.4330346002639
 10
167.6339061998649
 20
239.4330346002639
 10
167.6339061998649
 20
231.9467960681538
  0
CIRCLE
  5
452
330
1F
100
AcDbEntity
  8
0
 62
     4
100
AcDbCircle
 10
165.0839061998649
 20
235.6606722149428
 30
0.0
 40
1.871559633027523
  0
LWPOLYLINE
  5
453
330
1F
100
AcDbEntity
  8
0
 62
     4
100
AcDbPolyline
 90
        4
 70
     1
 43
0.0
 10
166.1184388712113
 20
237.0899460772168
 10
166.6036899332234
 20
236.5569640342078
 10
164.0493735285184
 20
234.2313983526689
 10
163.5641224665062
 20
234.7643803956777
  0
LWPOLYLINE
  5
454
330
1F
100
AcDbEntity
  8
0
 62
     4
100
AcDbPolyline
 90
        4
 70
     1
 43
0.0
 10
167.6339061998649
 20
231.9467960681538
 10
167.6339061998649
 20
239.4330346002639
 10
172.7339061998649
 20
239.4330346002639
 10
172.7339061998649
 20
231.9467960681538
  0
CIRCLE
  5
455
330
1F
100
AcDbEntity
  8
0
 62
     4
100
AcDbCircle
 10
170.1839061998648
 20
235.6606722149428
 30
0.0
 40
1.871559633027523
  0
LWPOLYLINE
  5
456
330
1F
100
AcDbEntity
  8
0
 62
     4
100
AcDbPolyline
 90
        4
 70
     1
 43
0.0
 10
171.2184388712113
 20
237.0899460772168
 10
171.7036899332233
 20
236.5569640342078
 10
169.1493735285183
 20
234.2313983526689
 10
168.6641224665063
 20
234.7643803956777
  0
MTEXT
  5
457
330
1F
100
AcDbEntity
  8
0
100
AcDbMText
 10
102.668463478839
 20
217.0928130292778
 30
0.0
 40
2.339449541284403
 41
16.3873234010998
 71
     1
 72
     5
  1
{\fTimes New Roman|b0|i0|c0|p18;BI 02}
 11
0.0000000000000001
 21
1.0
 31
0.0
 73
     1
 44
1.0
1001
ACAD
1000
MTEXTBEGIN
1070
    73
1070
     1
1070
    44
1040
1.0
1070
    74
1070
     0
1000
MTEXTEND
  0
MTEXT
  5
458
330
1F
100
AcDbEntity
  8
0
100
AcDbMText
 10
107.7684634788391
 20
217.0928130292778
 30
0.0
 40
2.339449541284403
 41
16.3873234010998
 71
     1
 72
     5
  1
{\fTimes New Roman|b0|i0|c0|p18;GND}
 11
0.0000000000000001
 21
1.0
 31
0.0
 73
     1
 44
1.0
1001
ACAD
1000
MTEXTBEGIN
1070
    73
1070
     1
1070
    44
1040
1.0
1070
    74
1070
     0
1000
MTEXTEND
  0
MTEXT
  5
459
330
1F
100
AcDbEntity
  8
0
100
AcDbMText
 10
112.8684634788392
 20
217.0694978952957
 30
0.0
 40
2.339449541284403
 41
16.3873234010998
 71
     1
 72
     5
  1
{\fTimes New Roman|b0|i0|c0|p18;BI 03}
 11
0.0000000000000001
 21
1.0
 31
0.0
 73
     1
 44
1.0
1001
ACAD
1000
MTEXTBEGIN
1070
    73
1070
     1
1070
    44
1040
1.0
1070
    74
1070
     0
1000
MTEXTEND
  0
MTEXT
  5
45A
330
1F
100
AcDbEntity
  8
0
100
AcDbMText
 10
117.9684634788391
 20
217.0694978952957
 30
0.0
 40
2.339449541284403
 41
16.3873234010998
 71
     1
 72
     5
  1
{\fTimes New Roman|b0|i0|c0|p18;GND}
 11
0.0000000000000001
 21
1.0
 31
0.0
 73
     1
 44
1.0
1001
ACAD
1000
MTEXTBEGIN
1070
    73
1070
     1
1070
    44
1040
1.0
1070
    74
1070
     0
1000
MTEXTEND
  0
MTEXT
  5
45B
330
1F
100
AcDbEntity
  8
0
100
AcDbMText
 10
123.0684634788391
 20
217.0694978952957
 30
0.0
 40
2.339449541284403
 41
16.3873234010998
 71
     1
 72
     5
  1
{\fTimes New Roman|b0|i0|c0|p18;BI 04}
 11
0.0000000000000001
 21
1.0
 31
0.0
 73
     1
 44
1.0
1001
ACAD
1000
MTEXTBEGIN
1070
    73
1070
     1
1070
    44
1040
1.0
1070
    74
1070
     0
1000
MTEXTEND
  0
MTEXT
  5
45C
330
1F
100
AcDbEntity
  8
0
100
AcDbMText
 10
133.2684634788392
 20
217.0694978952957
 30
0.0
 40
2.339449541284403
 41
16.3873234010998
 71
     1
 72
     5
  1
{\fTimes New Roman|b0|i0|c0|p18;BI 05}
 11
0.0000000000000001
 21
1.0
 31
0.0
 73
     1
 44
1.0
1001
ACAD
1000
MTEXTBEGIN
1070
    73
1070
     1
1070
    44
1040
1.0
1070
    74
1070
     0
1000
MTEXTEND
  0
MTEXT
  5
45D
330
1F
100
AcDbEntity
  8
0
100
AcDbMText
 10
138.3684634788391
 20
217.0694978952957
 30
0.0
 40
2.339449541284403
 41
16.3873234010998
 71
     1
 72
     5
  1
{\fTimes New Roman|b0|i0|c0|p18;GND}
 11
0.0000000000000001
 21
1.0
 31
0.0
 73
     1
 44
1.0
1001
ACAD
1000
MTEXTBEGIN
1070
    73
1070
     1
1070
    44
1040
1.0
1070
    74
1070
     0
1000
MTEXTEND
  0
MTEXT
  5
45E
330
1F
100
AcDbEntity
  8
0
100
AcDbMText
 10
143.4684634788391
 20
217.0694978952957
 30
0.0
 40
2.339449541284403
 41
16.3873234010998
 71
     1
 72
     5
  1
{\fTimes New Roman|b0|i0|c0|p18;BI 06}
 11
0.0000000000000001
 21
1.0
 31
0.0
 73
     1
 44
1.0
1001
ACAD
1000
MTEXTBEGIN
1070
    73
1070
     1
1070
    44
1040
1.0
1070
    74
1070
     0
1000
MTEXTEND
  0
MTEXT
  5
45F
330
1F
100
AcDbEntity
  8
0
100
AcDbMText
 10
148.5684634788391
 20
216.9301879682508
 30
0.0
 40
2.339449541284403
 41
16.3873234010998
 71
     1
 72
     5
  1
{\fTimes New Roman|b0|i0|c0|p18;GND}
 11
0.0000000000000001
 21
1.0
 31
0.0
 73
     1
 44
1.0
1001
ACAD
1000
MTEXTBEGIN
1070
    73
1070
     1
1070
    44
1040
1.0
1070
    74
1070
     0
1000
MTEXTEND
  0
MTEXT
  5
460
330
1F
100
AcDbEntity
  8
0
100
AcDbMText
 10
153.668463478839
 20
216.9301879682508
 30
0.0
 40
2.339449541284403
 41
16.3873234010998
 71
     1
 72
     5
  1
{\fTimes New Roman|b0|i0|c0|p18;BI 07}
 11
0.0000000000000001
 21
1.0
 31
0.0
 73
     1
 44
1.0
1001
ACAD
1000
MTEXTBEGIN
1070
    73
1070
     1
1070
    44
1040
1.0
1070
    74
1070
     0
1000
MTEXTEND
  0
MTEXT
  5
461
330
1F
100
AcDbEntity
  8
0
100
AcDbMText
 10
158.7684634788392
 20
216.9301879682508
 30
0.0
 40
2.339449541284403
 41
16.3873234010998
 71
     1
 72
     5
  1
{\fTimes New Roman|b0|i0|c0|p18;GND}
 11
0.0000000000000001
 21
1.0
 31
0.0
 73
     1
 44
1.0
1001
ACAD
1000
MTEXTBEGIN
1070
    73
1070
     1
1070
    44
1040
1.0
1070
    74
1070
     0
1000
MTEXTEND
  0
MTEXT
  5
462
330
1F
100
AcDbEntity
  8
0
100
AcDbMText
 10
163.8684634788391
 20
216.9301879682508
 30
0.0
 40
2.339449541284403
 41
16.3873234010998
 71
     1
 72
     5
  1
{\fTimes New Roman|b0|i0|c0|p18;BI 08}
 11
0.0000000000000001
 21
1.0
 31
0.0
 73
     1
 44
1.0
1001
ACAD
1000
MTEXTBEGIN
1070
    73
1070
     1
1070
    44
1040
1.0
1070
    74
1070
     0
1000
MTEXTEND
  0
MTEXT
  5
463
330
1F
100
AcDbEntity
  8
0
100
AcDbMText
 10
168.9684634788391
 20
216.9301879682508
 30
0.0
 40
2.339449541284403
 41
16.3873234010998
 71
     1
 72
     5
  1
{\fTimes New Roman|b0|i0|c0|p18;GND}
 11
0.0000000000000001
 21
1.0
 31
0.0
 73
     1
 44
1.0
1001
ACAD
1000
MTEXTBEGIN
1070
    73
1070
     1
1070
    44
1040
1.0
1070
    74
1070
     0
1000
MTEXTEND
  0
MTEXT
  5
464
330
1F
100
AcDbEntity
  8
0
100
AcDbMText
 10
128.1684634788393
 20
217.0694978952957
 30
0.0
 40
2.339449541284403
 41
16.3873234010998
 71
     1
 72
     5
  1
{\fTimes New Roman|b0|i0|c0|p18;GND}
 11
0.0000000000000001
 21
1.0
 31
0.0
 73
     1
 44
1.0
1001
ACAD
1000
MTEXTBEGIN
1070
    73
1070
     1
1070
    44
1040
1.0
1070
    74
1070
     0
1000
MTEXTEND
  0
MTEXT
  5
465
330
1F
100
AcDbEntity
  8
0
100
AcDbMText
 10
92.46846347883913
 20
217.0928130292778
 30
0.0
 40
2.339449541284403
 41
16.3873234010998
 71
     1
 72
     5
  1
{\fTimes New Roman|b0|i0|c0|p18;BI 01}
 11
0.0000000000000001
 21
1.0
 31
0.0
 73
     1
 44
1.0
1001
ACAD
1000
MTEXTBEGIN
1070
    73
1070
     1
1070
    44
1040
1.0
1070
    74
1070
     0
1000
MTEXTEND
  0
MTEXT
  5
466
330
1F
100
AcDbEntity
  8
0
100
AcDbMText
 10
97.56846347883913
 20
217.0928130292778
 30
0.0
 40
2.339449541284403
 41
16.3873234010998
 71
     1
 72
     5
  1
{\fTimes New Roman|b0|i0|c0|p18;GND}
 11
0.0000000000000001
 21
1.0
 31
0.0
 73
     1
 44
1.0
1001
ACAD
1000
MTEXTBEGIN
1070
    73
1070
     1
1070
    44
1040
1.0
1070
    74
1070
     0
1000
MTEXTEND
  0
LINE
  5
467
330
1F
100
AcDbEntity
  8
0
 62
     4
100
AcDbLine
 10
91.13390619986491
 20
231.9467960681538
 30
0.0
 11
91.13390619986491
 21
226.9754657929244
 31
0.0
  0
LINE
  5
468
330
1F
100
AcDbEntity
  8
0
100
AcDbLine
 10
62.98390619986482
 20
73.71574900131659
 30
0.0
 11
62.98390619986482
 21
68.71574900131648
 31
0.0
  0
LINE
  5
469
330
1F
100
AcDbEntity
  8
0
100
AcDbLine
 10
62.98390619986482
 20
67.71574900131648
 30
0.0
 11
62.98390619986482
 21
24.71574900131648
 31
0.0
  0
LINE
  5
46A
330
1F
100
AcDbEntity
  8
0
100
AcDbLine
 10
62.98390619986482
 20
24.71574900131648
 30
0.0
 11
111.6276949770939
 21
24.71574900131648
 31
0.0
  0
LINE
  5
46B
330
1F
100
AcDbEntity
  8
0
100
AcDbLine
 10
132.8401174209113
 20
24.71574900131648
 30
0.0
 11
181.4839061981404
 21
24.71574900131648
 31
0.0
  0
LINE
  5
46C
330
1F
100
AcDbEntity
  8
0
100
AcDbLine
 10
181.4839061981404
 20
24.71574900131648
 30
0.0
 11
181.4839061981404
 21
73.71574900131659
 31
0.0
  0
LINE
  5
46D
330
1F
100
AcDbEntity
  8
0
100
AcDbLine
 10
180.4839061981406
 20
74.71574900131648
 30
0.0
 11
63.98390619986493
 21
74.71574900131648
 31
0.0
  0
LINE
  5
46E
330
1F
100
AcDbEntity
  8
0
100
AcDbLine
 10
62.98390619986482
 20
68.71574900131648
 30
0.0
 11
181.4839061981404
 21
68.71574900131648
 31
0.0
  0
LINE
  5
46F
330
1F
100
AcDbEntity
  8
0
100
AcDbLine
 10
62.98390619986482
 20
48.71574900131648
 30
0.0
 11
181.4839061981404
 21
48.71574900131648
 31
0.0
  0
LINE
  5
470
330
1F
100
AcDbEntity
  8
0
100
AcDbLine
 10
62.98390619986482
 20
48.71574900131648
 30
0.0
 11
62.98390619986482
 21
28.71574900131648
 31
0.0
  0
LINE
  5
471
330
1F
100
AcDbEntity
  8
0
100
AcDbLine
 10
62.98390619986482
 20
28.71574900131648
 30
0.0
 11
181.4839061981404
 21
28.71574900131648
 31
0.0
  0
LINE
  5
472
330
1F
100
AcDbEntity
  8
0
100
AcDbLine
 10
62.98390619986482
 20
24.71574900131648
 30
0.0
 11
62.98390619986482
 21
19.71574900131648
 31
0.0
  0
LINE
  5
473
102
{ACAD_REACTORS
330
517
102
}
330
1F
100
AcDbEntity
  8
0
100
AcDbLine
 10
62.98390619986482
 20
19.71574900131648
 30
0.0
 11
181.4839061981404
 21
19.71574900131648
 31
0.0
  0
LINE
  5
474
330
1F
100
AcDbEntity
  8
0
100
AcDbLine
 10
181.4839061981404
 20
19.71574900131648
 30
0.0
 11
181.4839061981404
 21
24.71574900131648
 31
0.0
  0
LINE
  5
475
330
1F
100
AcDbEntity
  8
0
100
AcDbLine
 10
62.98390619986482
 20
68.71574900131648
 30
0.0
 11
72.98390619986482
 21
68.71574900131648
 31
0.0
  0
LINE
  5
476
330
1F
100
AcDbEntity
  8
0
100
AcDbLine
 10
62.98390619986482
 20
68.71574900131648
 30
0.0
 11
67.98390619986482
 21
68.71574900131648
 31
0.0
  0
LINE
  5
477
330
1F
100
AcDbEntity
  8
0
100
AcDbLine
 10
71.23390619900262
 20
68.71574900131648
 30
0.0
 11
71.23390619900262
 21
48.71574900131648
 31
0.0
  0
LWPOLYLINE
  5
478
330
1F
100
AcDbEntity
  8
0
100
AcDbPolyline
 90
        4
 70
     1
 43
0.0
 10
71.23390619900262
 20
48.71574900131648
 10
73.23390619900262
 20
48.71574900131648
 10
73.23390619900262
 20
68.71574900131648
 10
71.23390619900262
 20
68.71574900131648
  0
LWPOLYLINE
  5
479
330
1F
100
AcDbEntity
  8
0
100
AcDbPolyline
 90
        4
 70
     1
 43
0.0
 10
73.23390619900262
 20
48.71574900131648
 10
75.23390619900261
 20
48.71574900131648
 10
75.23390619900261
 20
68.71574900131648
 10
73.23390619900262
 20
68.71574900131648
  0
LWPOLYLINE
  5
47A
330
1F
100
AcDbEntity
  8
0
100
AcDbPolyline
 90
        4
 70
     1
 43
0.0
 10
75.23390619900261
 20
48.71574900131648
 10
77.23390619900261
 20
48.71574900131648
 10
77.23390619900261
 20
68.71574900131648
 10
75.23390619900261
 20
68.71574900131648
  0
LWPOLYLINE
  5
47B
330
1F
100
AcDbEntity
  8
0
100
AcDbPolyline
 90
        4
 70
     1
 43
0.0
 10
77.23390619900261
 20
48.71574900131648
 10
79.23390619900262
 20
48.71574900131648
 10
79.23390619900262
 20
68.71574900131648
 10
77.23390619900261
 20
68.71574900131648
  0
LWPOLYLINE
  5
47C
330
1F
100
AcDbEntity
  8
0
100
AcDbPolyline
 90
        4
 70
     1
 43
0.0
 10
79.23390619900262
 20
48.71574900131648
 10
81.23390619900261
 20
48.71574900131648
 10
81.23390619900261
 20
68.71574900131648
 10
79.23390619900262
 20
68.71574900131648
  0
LWPOLYLINE
  5
47D
330
1F
100
AcDbEntity
  8
0
100
AcDbPolyline
 90
        4
 70
     1
 43
0.0
 10
81.23390619900261
 20
48.71574900131648
 10
83.23390619900262
 20
48.71574900131648
 10
83.23390619900262
 20
68.71574900131648
 10
81.23390619900261
 20
68.71574900131648
  0
LWPOLYLINE
  5
47E
330
1F
100
AcDbEntity
  8
0
100
AcDbPolyline
 90
        4
 70
     1
 43
0.0
 10
83.23390619900262
 20
48.71574900131648
 10
85.23390619900261
 20
48.71574900131648
 10
85.23390619900261
 20
68.71574900131648
 10
83.23390619900262
 20
68.71574900131648
  0
LWPOLYLINE
  5
47F
330
1F
100
AcDbEntity
  8
0
100
AcDbPolyline
 90
        4
 70
     1
 43
0.0
 10
85.23390619900261
 20
48.71574900131648
 10
87.23390619900262
 20
48.71574900131648
 10
87.23390619900262
 20
68.71574900131648
 10
85.23390619900261
 20
68.71574900131648
  0
LWPOLYLINE
  5
480
330
1F
100
AcDbEntity
  8
0
100
AcDbPolyline
 90
        4
 70
     1
 43
0.0
 10
87.23390619900262
 20
48.71574900131648
 10
89.23390619900262
 20
48.71574900131648
 10
89.23390619900262
 20
68.71574900131648
 10
87.23390619900262
 20
68.71574900131648
  0
LWPOLYLINE
  5
481
330
1F
100
AcDbEntity
  8
0
100
AcDbPolyline
 90
        4
 70
     1
 43
0.0
 10
89.23390619900262
 20
48.71574900131648
 10
91.23390619900261
 20
48.71574900131648
 10
91.23390619900261
 20
68.71574900131648
 10
89.23390619900262
 20
68.71574900131648
  0
LWPOLYLINE
  5
482
330
1F
100
AcDbEntity
  8
0
100
AcDbPolyline
 90
        4
 70
     1
 43
0.0
 10
91.23390619900261
 20
48.71574900131648
 10
93.23390619900262
 20
48.71574900131648
 10
93.23390619900262
 20
68.71574900131648
 10
91.23390619900261
 20
68.71574900131648
  0
LWPOLYLINE
  5
483
330
1F
100
AcDbEntity
  8
0
100
AcDbPolyline
 90
        4
 70
     1
 43
0.0
 10
93.23390619900262
 20
48.71574900131648
 10
95.23390619900261
 20
48.71574900131648
 10
95.23390619900261
 20
68.71574900131648
 10
93.23390619900262
 20
68.71574900131648
  0
LWPOLYLINE
  5
484
330
1F
100
AcDbEntity
  8
0
100
AcDbPolyline
 90
        4
 70
     1
 43
0.0
 10
95.23390619900261
 20
48.71574900131648
 10
97.23390619900262
 20
48.71574900131648
 10
97.23390619900262
 20
68.71574900131648
 10
95.23390619900261
 20
68.71574900131648
  0
LWPOLYLINE
  5
485
330
1F
100
AcDbEntity
  8
0
100
AcDbPolyline
 90
        4
 70
     1
 43
0.0
 10
97.23390619900262
 20
48.71574900131648
 10
99.23390619900262
 20
48.71574900131648
 10
99.23390619900262
 20
68.71574900131648
 10
97.23390619900262
 20
68.71574900131648
  0
LWPOLYLINE
  5
486
330
1F
100
AcDbEntity
  8
0
100
AcDbPolyline
 90
        4
 70
     1
 43
0.0
 10
99.23390619900262
 20
48.71574900131648
 10
101.2339061990026
 20
48.71574900131648
 10
101.2339061990026
 20
68.71574900131648
 10
99.23390619900262
 20
68.71574900131648
  0
LWPOLYLINE
  5
487
330
1F
100
AcDbEntity
  8
0
100
AcDbPolyline
 90
        4
 70
     1
 43
0.0
 10
101.2339061990026
 20
48.71574900131648
 10
103.2339061990026
 20
48.71574900131648
 10
103.2339061990026
 20
68.71574900131648
 10
101.2339061990026
 20
68.71574900131648
  0
LWPOLYLINE
  5
488
330
1F
100
AcDbEntity
  8
0
100
AcDbPolyline
 90
        4
 70
     1
 43
0.0
 10
103.2339061990026
 20
48.71574900131648
 10
105.2339061990026
 20
48.71574900131648
 10
105.2339061990026
 20
68.71574900131648
 10
103.2339061990026
 20
68.71574900131648
  0
LWPOLYLINE
  5
489
330
1F
100
AcDbEntity
  8
0
100
AcDbPolyline
 90
        4
 70
     1
 43
0.0
 10
105.2339061990026
 20
48.71574900131648
 10
107.2339061990026
 20
48.71574900131648
 10
107.2339061990026
 20
68.71574900131648
 10
105.2339061990026
 20
68.71574900131648
  0
LWPOLYLINE
  5
48A
330
1F
100
AcDbEntity
  8
0
100
AcDbPolyline
 90
        4
 70
     1
 43
0.0
 10
107.2339061990026
 20
48.71574900131648
 10
109.2339061990026
 20
48.71574900131648
 10
109.2339061990026
 20
68.71574900131648
 10
107.2339061990026
 20
68.71574900131648
  0
LWPOLYLINE
  5
48B
330
1F
100
AcDbEntity
  8
0
100
AcDbPolyline
 90
        4
 70
     1
 43
0.0
 10
109.2339061990026
 20
48.71574900131648
 10
111.2339061990026
 20
48.71574900131648
 10
111.2339061990026
 20
68.71574900131648
 10
109.2339061990026
 20
68.71574900131648
  0
LWPOLYLINE
  5
48C
330
1F
100
AcDbEntity
  8
0
100
AcDbPolyline
 90
        4
 70
     1
 43
0.0
 10
111.2339061990026
 20
48.71574900131648
 10
113.2339061990026
 20
48.71574900131648
 10
113.2339061990026
 20
68.71574900131648
 10
111.2339061990026
 20
68.71574900131648
  0
LWPOLYLINE
  5
48D
330
1F
100
AcDbEntity
  8
0
100
AcDbPolyline
 90
        4
 70
     1
 43
0.0
 10
113.2339061990026
 20
48.71574900131648
 10
115.2339061990026
 20
48.71574900131648
 10
115.2339061990026
 20
68.71574900131648
 10
113.2339061990026
 20
68.71574900131648
  0
LWPOLYLINE
  5
48E
330
1F
100
AcDbEntity
  8
0
100
AcDbPolyline
 90
        4
 70
     1
 43
0.0
 10
115.2339061990026
 20
48.71574900131648
 10
117.2339061990026
 20
48.71574900131648
 10
117.2339061990026
 20
68.71574900131648
 10
115.2339061990026
 20
68.71574900131648
  0
LWPOLYLINE
  5
48F
330
1F
100
AcDbEntity
  8
0
100
AcDbPolyline
 90
        4
 70
     1
 43
0.0
 10
117.2339061990026
 20
48.71574900131648
 10
119.2339061990026
 20
48.71574900131648
 10
119.2339061990026
 20
68.71574900131648
 10
117.2339061990026
 20
68.71574900131648
  0
LWPOLYLINE
  5
490
330
1F
100
AcDbEntity
  8
0
100
AcDbPolyline
 90
        4
 70
     1
 43
0.0
 10
119.2339061990026
 20
48.71574900131648
 10
121.2339061990026
 20
48.71574900131648
 10
121.2339061990026
 20
68.71574900131648
 10
119.2339061990026
 20
68.71574900131648
  0
LWPOLYLINE
  5
491
330
1F
100
AcDbEntity
  8
0
100
AcDbPolyline
 90
        4
 70
     1
 43
0.0
 10
121.2339061990026
 20
48.71574900131648
 10
123.2339061990026
 20
48.71574900131648
 10
123.2339061990026
 20
68.71574900131648
 10
121.2339061990026
 20
68.71574900131648
  0
LWPOLYLINE
  5
492
330
1F
100
AcDbEntity
  8
0
100
AcDbPolyline
 90
        4
 70
     1
 43
0.0
 10
123.2339061990026
 20
48.71574900131648
 10
125.2339061990026
 20
48.71574900131648
 10
125.2339061990026
 20
68.71574900131648
 10
123.2339061990026
 20
68.71574900131648
  0
LWPOLYLINE
  5
493
330
1F
100
AcDbEntity
  8
0
100
AcDbPolyline
 90
        4
 70
     1
 43
0.0
 10
125.2339061990026
 20
48.71574900131648
 10
127.2339061990026
 20
48.71574900131648
 10
127.2339061990026
 20
68.71574900131648
 10
125.2339061990026
 20
68.71574900131648
  0
LWPOLYLINE
  5
494
330
1F
100
AcDbEntity
  8
0
100
AcDbPolyline
 90
        4
 70
     1
 43
0.0
 10
127.2339061990026
 20
48.71574900131648
 10
129.2339061990026
 20
48.71574900131648
 10
129.2339061990026
 20
68.71574900131648
 10
127.2339061990026
 20
68.71574900131648
  0
LWPOLYLINE
  5
495
330
1F
100
AcDbEntity
  8
0
100
AcDbPolyline
 90
        4
 70
     1
 43
0.0
 10
129.2339061990026
 20
48.71574900131648
 10
131.2339061990026
 20
48.71574900131648
 10
131.2339061990026
 20
68.71574900131648
 10
129.2339061990026
 20
68.71574900131648
  0
LWPOLYLINE
  5
496
330
1F
100
AcDbEntity
  8
0
100
AcDbPolyline
 90
        4
 70
     1
 43
0.0
 10
131.2339061990026
 20
48.71574900131648
 10
133.2339061990026
 20
48.71574900131648
 10
133.2339061990026
 20
68.71574900131648
 10
131.2339061990026
 20
68.71574900131648
  0
LWPOLYLINE
  5
497
330
1F
100
AcDbEntity
  8
0
100
AcDbPolyline
 90
        4
 70
     1
 43
0.0
 10
133.2339061990026
 20
48.71574900131648
 10
135.2339061990026
 20
48.71574900131648
 10
135.2339061990026
 20
68.71574900131648
 10
133.2339061990026
 20
68.71574900131648
  0
LWPOLYLINE
  5
498
330
1F
100
AcDbEntity
  8
0
100
AcDbPolyline
 90
        4
 70
     1
 43
0.0
 10
135.2339061990026
 20
48.71574900131648
 10
137.2339061990026
 20
48.71574900131648
 10
137.2339061990026
 20
68.71574900131648
 10
135.2339061990026
 20
68.71574900131648
  0
LWPOLYLINE
  5
499
330
1F
100
AcDbEntity
  8
0
100
AcDbPolyline
 90
        4
 70
     1
 43
0.0
 10
137.2339061990026
 20
48.71574900131648
 10
139.2339061990026
 20
48.71574900131648
 10
139.2339061990026
 20
68.71574900131648
 10
137.2339061990026
 20
68.71574900131648
  0
LWPOLYLINE
  5
49A
330
1F
100
AcDbEntity
  8
0
100
AcDbPolyline
 90
        4
 70
     1
 43
0.0
 10
139.2339061990026
 20
48.71574900131648
 10
141.2339061990026
 20
48.71574900131648
 10
141.2339061990026
 20
68.71574900131648
 10
139.2339061990026
 20
68.71574900131648
  0
LWPOLYLINE
  5
49B
330
1F
100
AcDbEntity
  8
0
100
AcDbPolyline
 90
        4
 70
     1
 43
0.0
 10
141.2339061990026
 20
48.71574900131648
 10
143.2339061990026
 20
48.71574900131648
 10
143.2339061990026
 20
68.71574900131648
 10
141.2339061990026
 20
68.71574900131648
  0
LWPOLYLINE
  5
49C
330
1F
100
AcDbEntity
  8
0
100
AcDbPolyline
 90
        4
 70
     1
 43
0.0
 10
143.2339061990026
 20
48.71574900131648
 10
145.2339061990026
 20
48.71574900131648
 10
145.2339061990026
 20
68.71574900131648
 10
143.2339061990026
 20
68.71574900131648
  0
LWPOLYLINE
  5
49D
330
1F
100
AcDbEntity
  8
0
100
AcDbPolyline
 90
        4
 70
     1
 43
0.0
 10
145.2339061990026
 20
48.71574900131648
 10
147.2339061990026
 20
48.71574900131648
 10
147.2339061990026
 20
68.71574900131648
 10
145.2339061990026
 20
68.71574900131648
  0
LWPOLYLINE
  5
49E
330
1F
100
AcDbEntity
  8
0
100
AcDbPolyline
 90
        4
 70
     1
 43
0.0
 10
147.2339061990026
 20
48.71574900131648
 10
149.2339061990026
 20
48.71574900131648
 10
149.2339061990026
 20
68.71574900131648
 10
147.2339061990026
 20
68.71574900131648
  0
LWPOLYLINE
  5
49F
330
1F
100
AcDbEntity
  8
0
100
AcDbPolyline
 90
        4
 70
     1
 43
0.0
 10
149.2339061990026
 20
48.71574900131648
 10
151.2339061990026
 20
48.71574900131648
 10
151.2339061990026
 20
68.71574900131648
 10
149.2339061990026
 20
68.71574900131648
  0
LWPOLYLINE
  5
4A0
330
1F
100
AcDbEntity
  8
0
100
AcDbPolyline
 90
        4
 70
     1
 43
0.0
 10
151.2339061990026
 20
48.71574900131648
 10
153.2339061990026
 20
48.71574900131648
 10
153.2339061990026
 20
68.71574900131648
 10
151.2339061990026
 20
68.71574900131648
  0
LWPOLYLINE
  5
4A1
330
1F
100
AcDbEntity
  8
0
100
AcDbPolyline
 90
        4
 70
     1
 43
0.0
 10
153.2339061990026
 20
48.71574900131648
 10
155.2339061990026
 20
48.71574900131648
 10
155.2339061990026
 20
68.71574900131648
 10
153.2339061990026
 20
68.71574900131648
  0
LWPOLYLINE
  5
4A2
330
1F
100
AcDbEntity
  8
0
100
AcDbPolyline
 90
        4
 70
     1
 43
0.0
 10
155.2339061990026
 20
48.71574900131648
 10
157.2339061990026
 20
48.71574900131648
 10
157.2339061990026
 20
68.71574900131648
 10
155.2339061990026
 20
68.71574900131648
  0
LWPOLYLINE
  5
4A3
330
1F
100
AcDbEntity
  8
0
100
AcDbPolyline
 90
        4
 70
     1
 43
0.0
 10
157.2339061990026
 20
48.71574900131648
 10
159.2339061990026
 20
48.71574900131648
 10
159.2339061990026
 20
68.71574900131648
 10
157.2339061990026
 20
68.71574900131648
  0
LWPOLYLINE
  5
4A4
330
1F
100
AcDbEntity
  8
0
100
AcDbPolyline
 90
        4
 70
     1
 43
0.0
 10
159.2339061990026
 20
48.71574900131648
 10
161.2339061990026
 20
48.71574900131648
 10
161.2339061990026
 20
68.71574900131648
 10
159.2339061990026
 20
68.71574900131648
  0
LWPOLYLINE
  5
4A5
330
1F
100
AcDbEntity
  8
0
100
AcDbPolyline
 90
        4
 70
     1
 43
0.0
 10
161.2339061990026
 20
48.71574900131648
 10
163.2339061990026
 20
48.71574900131648
 10
163.2339061990026
 20
68.71574900131648
 10
161.2339061990026
 20
68.71574900131648
  0
LWPOLYLINE
  5
4A6
330
1F
100
AcDbEntity
  8
0
100
AcDbPolyline
 90
        4
 70
     1
 43
0.0
 10
163.2339061990026
 20
48.71574900131648
 10
165.2339061990026
 20
48.71574900131648
 10
165.2339061990026
 20
68.71574900131648
 10
163.2339061990026
 20
68.71574900131648
  0
LWPOLYLINE
  5
4A7
330
1F
100
AcDbEntity
  8
0
100
AcDbPolyline
 90
        4
 70
     1
 43
0.0
 10
165.2339061990026
 20
48.71574900131648
 10
167.2339061990026
 20
48.71574900131648
 10
167.2339061990026
 20
68.71574900131648
 10
165.2339061990026
 20
68.71574900131648
  0
LWPOLYLINE
  5
4A8
330
1F
100
AcDbEntity
  8
0
100
AcDbPolyline
 90
        4
 70
     1
 43
0.0
 10
167.2339061990026
 20
48.71574900131648
 10
169.2339061990026
 20
48.71574900131648
 10
169.2339061990026
 20
68.71574900131648
 10
167.2339061990026
 20
68.71574900131648
  0
LWPOLYLINE
  5
4A9
330
1F
100
AcDbEntity
  8
0
100
AcDbPolyline
 90
        4
 70
     1
 43
0.0
 10
169.2339061990026
 20
48.71574900131648
 10
171.2339061990026
 20
48.71574900131648
 10
171.2339061990026
 20
68.71574900131648
 10
169.2339061990026
 20
68.71574900131648
  0
LWPOLYLINE
  5
4AA
330
1F
100
AcDbEntity
  8
0
100
AcDbPolyline
 90
        4
 70
     1
 43
0.0
 10
171.2339061990026
 20
48.71574900131648
 10
173.2339061990026
 20
48.71574900131648
 10
173.2339061990026
 20
68.71574900131648
 10
171.2339061990026
 20
68.71574900131648
  0
LWPOLYLINE
  5
4AB
330
1F
100
AcDbEntity
  8
0
100
AcDbPolyline
 90
        4
 70
     1
 43
0.0
 10
111.6276949770939
 20
25.65505458865291
 10
132.8401174209113
 20
25.65505458865291
 10
132.8401174209113
 20
22.40949418849473
 10
111.6276949770939
 20
22.40949418849473
  0
LWPOLYLINE
  5
4AC
330
1F
100
AcDbEntity
  8
0
100
AcDbPolyline
 90
        4
 70
     1
 43
0.0
 10
119.1026387011556
 20
22.40949418849473
 10
125.3104861228421
 20
22.40949418849473
 10
125.3104861228421
 20
19.71574900131648
 10
119.1026387011556
 20
19.71574900131648
  0
LINE
  5
4AD
330
1F
100
AcDbEntity
  8
0
100
AcDbLine
 10
118.6026387011556
 20
22.40949418849473
 30
0.0
 11
118.6026387011556
 21
19.71574900131648
 31
0.0
  0
LINE
  5
4AE
330
1F
100
AcDbEntity
  8
0
100
AcDbLine
 10
125.3104861228421
 20
22.40949418849473
 30
0.0
 11
125.8104861228421
 21
22.40949418849473
 31
0.0
  0
LINE
  5
4AF
330
1F
100
AcDbEntity
  8
0
100
AcDbLine
 10
125.8104861228421
 20
22.40949418849473
 30
0.0
 11
125.8104861228421
 21
19.71574900131648
 31
0.0
  0
LINE
  5
4B0
330
1F
100
AcDbEntity
  8
0
100
AcDbLine
 10
71.23390619900262
 20
46.71574900131648
 30
0.0
 11
71.23390619900262
 21
28.71574900131648
 31
0.0
  0
LINE
  5
4B1
330
1F
100
AcDbEntity
  8
0
100
AcDbLine
 10
173.2339061990026
 20
46.71574900131648
 30
0.0
 11
173.2339061990026
 21
28.71574900131648
 31
0.0
  0
LINE
  5
4B2
330
1F
100
AcDbEntity
  8
0
100
AcDbLine
 10
173.2339061990026
 20
46.71574900131648
 30
0.0
 11
71.23390619900262
 21
46.71574900131648
 31
0.0
  0
LWPOLYLINE
  5
4B3
330
1F
100
AcDbEntity
  8
0
 62
     4
100
AcDbPolyline
 90
        4
 70
     0
 43
0.0
 10
92.2339061990025
 20
45.42918570829138
 10
72.23390619900245
 20
45.42918570829138
 10
72.23390619900245
 20
29.42918570829138
 10
92.2339061990025
 20
29.42918570829138
  0
LWPOLYLINE
  5
4B4
330
1F
100
AcDbEntity
  8
0
 62
     4
100
AcDbPolyline
 90
        2
 70
     0
 43
0.0
 10
92.2339061990025
 20
30.92918570829138
 10
92.2339061990025
 20
37.42918570829139
  0
LINE
  5
4B5
330
1F
100
AcDbEntity
  8
0
 62
     4
100
AcDbLine
 10
82.2339061990025
 20
30.92918570829138
 30
0.0
 11
82.2339061990025
 21
37.42918570829139
 31
0.0
  0
LINE
  5
4B6
330
1F
100
AcDbEntity
  8
0
 62
     4
100
AcDbLine
 10
92.2339061990025
 20
37.42918570829139
 30
0.0
 11
72.23390619900245
 21
37.42918570829139
 31
0.0
  0
LINE
  5
4B7
330
1F
100
AcDbEntity
  8
0
 62
     4
100
AcDbLine
 10
87.2339061990025
 20
30.92918570829138
 30
0.0
 11
87.2339061990025
 21
37.42918570829139
 31
0.0
  0
LINE
  5
4B8
330
1F
100
AcDbEntity
  8
0
 62
     4
100
AcDbLine
 10
77.2339061990025
 20
30.92918570829138
 30
0.0
 11
77.2339061990025
 21
37.42918570829139
 31
0.0
  0
LINE
  5
4B9
330
1F
100
AcDbEntity
  8
0
 62
     4
100
AcDbLine
 10
92.2339061990025
 20
30.92918570829138
 30
0.0
 11
72.23390619900245
 21
30.92918570829138
 31
0.0
  0
LWPOLYLINE
  5
4BA
330
1F
100
AcDbEntity
  8
0
 62
     4
100
AcDbPolyline
 90
        4
 70
     1
 43
0.0
 10
91.85800669922334
 20
31.90733391996483
 10
87.60928058815046
 20
31.90733391996483
 10
87.60928058815046
 20
37.20187817680929
 10
91.85800669922334
 20
37.20187817680929
  0
LWPOLYLINE
  5
4BB
330
1F
100
AcDbEntity
  8
0
 62
     4
100
AcDbPolyline
 90
        4
 70
     1
 43
0.0
 10
86.85748158859224
 20
31.90733391996483
 10
82.60875547751938
 20
31.90733391996483
 10
82.60875547751938
 20
37.20187817680929
 10
86.85748158859224
 20
37.20187817680929
  0
LWPOLYLINE
  5
4BC
330
1F
100
AcDbEntity
  8
0
 62
     4
100
AcDbPolyline
 90
        4
 70
     1
 43
0.0
 10
81.86958325188847
 20
31.90733391996483
 10
77.6208571408156
 20
31.90733391996483
 10
77.6208571408156
 20
37.20187817680929
 10
81.86958325188847
 20
37.20187817680929
  0
LWPOLYLINE
  5
4BD
330
1F
100
AcDbEntity
  8
0
 62
     4
100
AcDbPolyline
 90
        4
 70
     1
 43
0.0
 10
76.85141585434123
 20
31.90733391996483
 10
72.6026897432683
 20
31.90733391996483
 10
72.6026897432683
 20
37.20187817680929
 10
76.85141585434123
 20
37.20187817680929
  0
LINE
  5
4BE
330
1F
100
AcDbEntity
  8
0
 62
     0
100
AcDbLine
 10
91.85800669922334
 20
35.40570369110222
 30
0.0
 11
87.60928058815046
 21
35.40570369110222
 31
0.0
  0
LINE
  5
4BF
330
1F
100
AcDbEntity
  8
0
 62
     0
100
AcDbLine
 10
86.85748158859224
 20
35.40570369110222
 30
0.0
 11
82.60875547751938
 21
35.40570369110222
 31
0.0
  0
LINE
  5
4C0
330
1F
100
AcDbEntity
  8
0
 62
     0
100
AcDbLine
 10
81.86958325188847
 20
35.40570369110222
 30
0.0
 11
77.6208571408156
 21
35.40570369110222
 31
0.0
  0
LINE
  5
4C1
330
1F
100
AcDbEntity
  8
0
 62
     0
100
AcDbLine
 10
76.85141585434123
 20
35.40570369110222
 30
0.0
 11
72.6026897432683
 21
35.40570369110222
 31
0.0
  0
LINE
  5
4C2
330
1F
100
AcDbEntity
  8
0
 62
     4
100
AcDbLine
 10
92.2339061990025
 20
44.92918570829139
 30
0.0
 11
72.23390619900245
 21
44.92918570829139
 31
0.0
  0
LWPOLYLINE
  5
4C3
330
1F
100
AcDbEntity
  8
0
 62
     4
100
AcDbPolyline
 90
        2
 70
     0
 43
0.0
 10
92.2339061990025
 20
37.42918570829139
 10
92.2339061990025
 20
30.92918570829138
  0
LWPOLYLINE
  5
4C4
330
1F
100
AcDbEntity
  8
0
 62
     4
100
AcDbPolyline
 90
        2
 70
     0
 43
0.0
 10
92.2339061990025
 20
29.42918570829138
 10
112.2339061990025
 20
29.42918570829138
  0
LWPOLYLINE
  5
4C5
330
1F
100
AcDbEntity
  8
0
 62
     4
100
AcDbPolyline
 90
        2
 70
     0
 43
0.0
 10
112.2339061990025
 20
30.92918570829138
 10
112.2339061990025
 20
37.42918570829139
  0
LWPOLYLINE
  5
4C6
330
1F
100
AcDbEntity
  8
0
 62
     4
100
AcDbPolyline
 90
        2
 70
     0
 43
0.0
 10
112.2339061990025
 20
45.42918570829138
 10
92.2339061990025
 20
45.42918570829138
  0
LINE
  5
4C7
330
1F
100
AcDbEntity
  8
0
 62
     4
100
AcDbLine
 10
102.2339061990026
 20
30.92918570829138
 30
0.0
 11
102.2339061990025
 21
37.42918570829139
 31
0.0
  0
LINE
  5
4C8
330
1F
100
AcDbEntity
  8
0
 62
     4
100
AcDbLine
 10
112.2339061990025
 20
37.42918570829139
 30
0.0
 11
92.2339061990025
 21
37.42918570829139
 31
0.0
  0
LINE
  5
4C9
330
1F
100
AcDbEntity
  8
0
 62
     4
100
AcDbLine
 10
107.2339061990025
 20
30.92918570829138
 30
0.0
 11
107.2339061990025
 21
37.42918570829139
 31
0.0
  0
LINE
  5
4CA
330
1F
100
AcDbEntity
  8
0
 62
     4
100
AcDbLine
 10
97.23390619900257
 20
30.92918570829138
 30
0.0
 11
97.23390619900257
 21
37.42918570829139
 31
0.0
  0
LINE
  5
4CB
330
1F
100
AcDbEntity
  8
0
 62
     4
100
AcDbLine
 10
112.2339061990025
 20
30.92918570829138
 30
0.0
 11
92.2339061990025
 21
30.92918570829138
 31
0.0
  0
LWPOLYLINE
  5
4CC
330
1F
100
AcDbEntity
  8
0
 62
     4
100
AcDbPolyline
 90
        4
 70
     1
 43
0.0
 10
111.8580066992234
 20
31.90733391996483
 10
107.6092805881505
 20
31.90733391996483
 10
107.6092805881505
 20
37.20187817680929
 10
111.8580066992234
 20
37.20187817680929
  0
LWPOLYLINE
  5
4CD
330
1F
100
AcDbEntity
  8
0
 62
     4
100
AcDbPolyline
 90
        4
 70
     1
 43
0.0
 10
106.8574815885923
 20
31.90733391996483
 10
102.6087554775194
 20
31.90733391996483
 10
102.6087554775194
 20
37.20187817680929
 10
106.8574815885923
 20
37.20187817680929
  0
LWPOLYLINE
  5
4CE
330
1F
100
AcDbEntity
  8
0
 62
     4
100
AcDbPolyline
 90
        4
 70
     1
 43
0.0
 10
101.8695832518885
 20
31.90733391996483
 10
97.62085714081566
 20
31.90733391996483
 10
97.62085714081566
 20
37.20187817680929
 10
101.8695832518885
 20
37.20187817680929
  0
LWPOLYLINE
  5
4CF
330
1F
100
AcDbEntity
  8
0
 62
     4
100
AcDbPolyline
 90
        4
 70
     1
 43
0.0
 10
96.85141585434129
 20
31.90733391996483
 10
92.60268974326836
 20
31.90733391996483
 10
92.60268974326836
 20
37.20187817680929
 10
96.85141585434129
 20
37.20187817680929
  0
LINE
  5
4D0
330
1F
100
AcDbEntity
  8
0
 62
     0
100
AcDbLine
 10
111.8580066992234
 20
35.40570369110222
 30
0.0
 11
107.6092805881505
 21
35.40570369110222
 31
0.0
  0
LINE
  5
4D1
330
1F
100
AcDbEntity
  8
0
 62
     0
100
AcDbLine
 10
106.8574815885923
 20
35.40570369110222
 30
0.0
 11
102.6087554775194
 21
35.40570369110222
 31
0.0
  0
LINE
  5
4D2
330
1F
100
AcDbEntity
  8
0
 62
     0
100
AcDbLine
 10
101.8695832518885
 20
35.40570369110222
 30
0.0
 11
97.62085714081566
 21
35.40570369110222
 31
0.0
  0
LINE
  5
4D3
330
1F
100
AcDbEntity
  8
0
 62
     0
100
AcDbLine
 10
96.85141585434129
 20
35.40570369110222
 30
0.0
 11
92.60268974326836
 21
35.40570369110222
 31
0.0
  0
LINE
  5
4D4
330
1F
100
AcDbEntity
  8
0
 62
     4
100
AcDbLine
 10
112.2339061990025
 20
44.92918570829139
 30
0.0
 11
92.2339061990025
 21
44.92918570829139
 31
0.0
  0
LWPOLYLINE
  5
4D5
330
1F
100
AcDbEntity
  8
0
 62
     4
100
AcDbPolyline
 90
        2
 70
     0
 43
0.0
 10
112.2339061990025
 20
37.42918570829139
 10
112.2339061990025
 20
30.92918570829138
  0
LWPOLYLINE
  5
4D6
330
1F
100
AcDbEntity
  8
0
 62
     4
100
AcDbPolyline
 90
        2
 70
     0
 43
0.0
 10
112.2339061990025
 20
29.42918570829138
 10
132.2339061990026
 20
29.42918570829138
  0
LWPOLYLINE
  5
4D7
330
1F
100
AcDbEntity
  8
0
 62
     4
100
AcDbPolyline
 90
        2
 70
     0
 43
0.0
 10
132.2339061990026
 20
30.92918570829138
 10
132.2339061990026
 20
37.42918570829139
  0
LWPOLYLINE
  5
4D8
330
1F
100
AcDbEntity
  8
0
 62
     4
100
AcDbPolyline
 90
        2
 70
     0
 43
0.0
 10
132.2339061990026
 20
45.42918570829138
 10
112.2339061990025
 20
45.42918570829138
  0
LINE
  5
4D9
330
1F
100
AcDbEntity
  8
0
 62
     4
100
AcDbLine
 10
122.2339061990026
 20
29.42918570829138
 30
0.0
 11
122.2339061990026
 21
45.42918570829138
 31
0.0
  0
LINE
  5
4DA
330
1F
100
AcDbEntity
  8
0
 62
     4
100
AcDbLine
 10
132.2339061990026
 20
37.42918570829139
 30
0.0
 11
112.2339061990025
 21
37.42918570829139
 31
0.0
  0
LINE
  5
4DB
330
1F
100
AcDbEntity
  8
0
 62
     4
100
AcDbLine
 10
127.2339061990026
 20
30.92918570829138
 30
0.0
 11
127.2339061990026
 21
37.42918570829139
 31
0.0
  0
LINE
  5
4DC
330
1F
100
AcDbEntity
  8
0
 62
     4
100
AcDbLine
 10
117.2339061990026
 20
30.92918570829138
 30
0.0
 11
117.2339061990026
 21
37.42918570829139
 31
0.0
  0
LINE
  5
4DD
330
1F
100
AcDbEntity
  8
0
 62
     4
100
AcDbLine
 10
132.2339061990026
 20
30.92918570829138
 30
0.0
 11
112.2339061990025
 21
30.92918570829138
 31
0.0
  0
LWPOLYLINE
  5
4DE
330
1F
100
AcDbEntity
  8
0
 62
     4
100
AcDbPolyline
 90
        4
 70
     1
 43
0.0
 10
131.8580066992234
 20
31.90733391996483
 10
127.6092805881505
 20
31.90733391996483
 10
127.6092805881505
 20
37.20187817680929
 10
131.8580066992234
 20
37.20187817680929
  0
LWPOLYLINE
  5
4DF
330
1F
100
AcDbEntity
  8
0
 62
     4
100
AcDbPolyline
 90
        4
 70
     1
 43
0.0
 10
126.8574815885923
 20
31.90733391996483
 10
122.6087554775195
 20
31.90733391996483
 10
122.6087554775195
 20
37.20187817680929
 10
126.8574815885923
 20
37.20187817680929
  0
LWPOLYLINE
  5
4E0
330
1F
100
AcDbEntity
  8
0
 62
     4
100
AcDbPolyline
 90
        4
 70
     1
 43
0.0
 10
121.8695832518886
 20
31.90733391996483
 10
117.6208571408157
 20
31.90733391996483
 10
117.6208571408157
 20
37.20187817680929
 10
121.8695832518886
 20
37.20187817680929
  0
LWPOLYLINE
  5
4E1
330
1F
100
AcDbEntity
  8
0
 62
     4
100
AcDbPolyline
 90
        4
 70
     1
 43
0.0
 10
116.8514158543413
 20
31.90733391996483
 10
112.6026897432684
 20
31.90733391996483
 10
112.6026897432684
 20
37.20187817680929
 10
116.8514158543413
 20
37.20187817680929
  0
LINE
  5
4E2
330
1F
100
AcDbEntity
  8
0
 62
     0
100
AcDbLine
 10
131.8580066992234
 20
35.40570369110222
 30
0.0
 11
127.6092805881505
 21
35.40570369110222
 31
0.0
  0
LINE
  5
4E3
330
1F
100
AcDbEntity
  8
0
 62
     0
100
AcDbLine
 10
126.8574815885923
 20
35.40570369110222
 30
0.0
 11
122.6087554775195
 21
35.40570369110222
 31
0.0
  0
LINE
  5
4E4
330
1F
100
AcDbEntity
  8
0
 62
     0
100
AcDbLine
 10
121.8695832518886
 20
35.40570369110222
 30
0.0
 11
117.6208571408157
 21
35.40570369110222
 31
0.0
  0
LINE
  5
4E5
330
1F
100
AcDbEntity
  8
0
 62
     0
100
AcDbLine
 10
116.8514158543413
 20
35.40570369110222
 30
0.0
 11
112.6026897432684
 21
35.40570369110222
 31
0.0
  0
LINE
  5
4E6
330
1F
100
AcDbEntity
  8
0
 62
     4
100
AcDbLine
 10
132.2339061990026
 20
44.92918570829139
 30
0.0
 11
112.2339061990025
 21
44.92918570829139
 31
0.0
  0
LWPOLYLINE
  5
4E7
330
1F
100
AcDbEntity
  8
0
 62
     4
100
AcDbPolyline
 90
        2
 70
     0
 43
0.0
 10
132.2339061990026
 20
37.42918570829139
 10
132.2339061990026
 20
30.92918570829138
  0
LWPOLYLINE
  5
4E8
330
1F
100
AcDbEntity
  8
0
 62
     4
100
AcDbPolyline
 90
        2
 70
     0
 43
0.0
 10
132.2339061990026
 20
29.42918570829138
 10
152.2339061990026
 20
29.42918570829138
  0
LWPOLYLINE
  5
4E9
330
1F
100
AcDbEntity
  8
0
 62
     4
100
AcDbPolyline
 90
        2
 70
     0
 43
0.0
 10
152.2339061990026
 20
30.92918570829138
 10
152.2339061990026
 20
37.42918570829139
  0
LWPOLYLINE
  5
4EA
330
1F
100
AcDbEntity
  8
0
 62
     4
100
AcDbPolyline
 90
        2
 70
     0
 43
0.0
 10
152.2339061990026
 20
45.42918570829138
 10
132.2339061990026
 20
45.42918570829138
  0
LINE
  5
4EB
330
1F
100
AcDbEntity
  8
0
 62
     4
100
AcDbLine
 10
142.2339061990027
 20
30.92918570829138
 30
0.0
 11
142.2339061990026
 21
37.42918570829139
 31
0.0
  0
LINE
  5
4EC
330
1F
100
AcDbEntity
  8
0
 62
     4
100
AcDbLine
 10
152.2339061990026
 20
37.42918570829139
 30
0.0
 11
132.2339061990026
 21
37.42918570829139
 31
0.0
  0
LINE
  5
4ED
330
1F
100
AcDbEntity
  8
0
 62
     4
100
AcDbLine
 10
147.2339061990026
 20
30.92918570829138
 30
0.0
 11
147.2339061990026
 21
37.42918570829139
 31
0.0
  0
LINE
  5
4EE
330
1F
100
AcDbEntity
  8
0
 62
     4
100
AcDbLine
 10
137.2339061990026
 20
30.92918570829138
 30
0.0
 11
137.2339061990026
 21
37.42918570829139
 31
0.0
  0
LINE
  5
4EF
330
1F
100
AcDbEntity
  8
0
 62
     4
100
AcDbLine
 10
152.2339061990026
 20
30.92918570829138
 30
0.0
 11
132.2339061990026
 21
30.92918570829138
 31
0.0
  0
LWPOLYLINE
  5
4F0
330
1F
100
AcDbEntity
  8
0
 62
     4
100
AcDbPolyline
 90
        4
 70
     1
 43
0.0
 10
151.8580066992235
 20
31.90733391996483
 10
147.6092805881506
 20
31.90733391996483
 10
147.6092805881506
 20
37.20187817680929
 10
151.8580066992235
 20
37.20187817680929
  0
LWPOLYLINE
  5
4F1
330
1F
100
AcDbEntity
  8
0
 62
     4
100
AcDbPolyline
 90
        4
 70
     1
 43
0.0
 10
146.8574815885924
 20
31.90733391996483
 10
142.6087554775195
 20
31.90733391996483
 10
142.6087554775195
 20
37.20187817680929
 10
146.8574815885924
 20
37.20187817680929
  0
LWPOLYLINE
  5
4F2
330
1F
100
AcDbEntity
  8
0
 62
     4
100
AcDbPolyline
 90
        4
 70
     1
 43
0.0
 10
141.8695832518886
 20
31.90733391996483
 10
137.6208571408157
 20
31.90733391996483
 10
137.6208571408157
 20
37.20187817680929
 10
141.8695832518886
 20
37.20187817680929
  0
LWPOLYLINE
  5
4F3
330
1F
100
AcDbEntity
  8
0
 62
     4
100
AcDbPolyline
 90
        4
 70
     1
 43
0.0
 10
136.8514158543414
 20
31.90733391996483
 10
132.6026897432684
 20
31.90733391996483
 10
132.6026897432684
 20
37.20187817680929
 10
136.8514158543414
 20
37.20187817680929
  0
LINE
  5
4F4
330
1F
100
AcDbEntity
  8
0
 62
     0
100
AcDbLine
 10
151.8580066992235
 20
35.40570369110222
 30
0.0
 11
147.6092805881506
 21
35.40570369110222
 31
0.0
  0
LINE
  5
4F5
330
1F
100
AcDbEntity
  8
0
 62
     0
100
AcDbLine
 10
146.8574815885924
 20
35.40570369110222
 30
0.0
 11
142.6087554775195
 21
35.40570369110222
 31
0.0
  0
LINE
  5
4F6
330
1F
100
AcDbEntity
  8
0
 62
     0
100
AcDbLine
 10
141.8695832518886
 20
35.40570369110222
 30
0.0
 11
137.6208571408157
 21
35.40570369110222
 31
0.0
  0
LINE
  5
4F7
330
1F
100
AcDbEntity
  8
0
 62
     0
100
AcDbLine
 10
136.8514158543414
 20
35.40570369110222
 30
0.0
 11
132.6026897432684
 21
35.40570369110222
 31
0.0
  0
LINE
  5
4F8
330
1F
100
AcDbEntity
  8
0
 62
     4
100
AcDbLine
 10
152.2339061990026
 20
44.92918570829139
 30
0.0
 11
132.2339061990026
 21
44.92918570829139
 31
0.0
  0
LWPOLYLINE
  5
4F9
330
1F
100
AcDbEntity
  8
0
 62
     4
100
AcDbPolyline
 90
        2
 70
     0
 43
0.0
 10
152.2339061990026
 20
37.42918570829139
 10
152.2339061990026
 20
30.92918570829138
  0
LWPOLYLINE
  5
4FA
330
1F
100
AcDbEntity
  8
0
 62
     4
100
AcDbPolyline
 90
        4
 70
     0
 43
0.0
 10
152.2339061990026
 20
29.42918570829138
 10
172.2339061990027
 20
29.42918570829138
 10
172.2339061990027
 20
45.42918570829138
 10
152.2339061990026
 20
45.42918570829138
  0
LINE
  5
4FB
330
1F
100
AcDbEntity
  8
0
 62
     4
100
AcDbLine
 10
162.2339061990027
 20
30.92918570829138
 30
0.0
 11
162.2339061990027
 21
37.42918570829139
 31
0.0
  0
LINE
  5
4FC
330
1F
100
AcDbEntity
  8
0
 62
     4
100
AcDbLine
 10
172.2339061990027
 20
37.42918570829139
 30
0.0
 11
152.2339061990026
 21
37.42918570829139
 31
0.0
  0
LINE
  5
4FD
330
1F
100
AcDbEntity
  8
0
 62
     4
100
AcDbLine
 10
167.2339061990027
 20
30.92918570829138
 30
0.0
 11
167.2339061990027
 21
37.42918570829139
 31
0.0
  0
LINE
  5
4FE
330
1F
100
AcDbEntity
  8
0
 62
     4
100
AcDbLine
 10
172.2339061990027
 20
29.42918570829138
 30
0.0
 11
172.2339061990027
 21
30.92918570829138
 31
0.0
  0
LINE
  5
4FF
330
1F
100
AcDbEntity
  8
0
 62
     4
100
AcDbLine
 10
157.2339061990027
 20
30.92918570829138
 30
0.0
 11
157.2339061990027
 21
37.42918570829139
 31
0.0
  0
LINE
  5
500
330
1F
100
AcDbEntity
  8
0
 62
     4
100
AcDbLine
 10
172.2339061990027
 20
30.92918570829138
 30
0.0
 11
152.2339061990026
 21
30.92918570829138
 31
0.0
  0
LWPOLYLINE
  5
501
330
1F
100
AcDbEntity
  8
0
 62
     4
100
AcDbPolyline
 90
        4
 70
     1
 43
0.0
 10
171.8580066992235
 20
31.90733391996483
 10
167.6092805881506
 20
31.90733391996483
 10
167.6092805881506
 20
37.20187817680929
 10
171.8580066992235
 20
37.20187817680929
  0
LWPOLYLINE
  5
502
330
1F
100
AcDbEntity
  8
0
 62
     4
100
AcDbPolyline
 90
        4
 70
     1
 43
0.0
 10
166.8574815885924
 20
31.90733391996483
 10
162.6087554775196
 20
31.90733391996483
 10
162.6087554775196
 20
37.20187817680929
 10
166.8574815885924
 20
37.20187817680929
  0
LWPOLYLINE
  5
503
330
1F
100
AcDbEntity
  8
0
 62
     4
100
AcDbPolyline
 90
        4
 70
     1
 43
0.0
 10
161.8695832518887
 20
31.90733391996483
 10
157.6208571408158
 20
31.90733391996483
 10
157.6208571408158
 20
37.20187817680929
 10
161.8695832518887
 20
37.20187817680929
  0
LWPOLYLINE
  5
504
330
1F
100
AcDbEntity
  8
0
 62
     4
100
AcDbPolyline
 90
        4
 70
     1
 43
0.0
 10
156.8514158543414
 20
31.90733391996483
 10
152.6026897432685
 20
31.90733391996483
 10
152.6026897432685
 20
37.20187817680929
 10
156.8514158543414
 20
37.20187817680929
  0
LINE
  5
505
330
1F
100
AcDbEntity
  8
0
 62
     0
100
AcDbLine
 10
171.8580066992235
 20
35.40570369110222
 30
0.0
 11
167.6092805881506
 21
35.40570369110222
 31
0.0
  0
LINE
  5
506
330
1F
100
AcDbEntity
  8
0
 62
     0
100
AcDbLine
 10
166.8574815885924
 20
35.40570369110222
 30
0.0
 11
162.6087554775196
 21
35.40570369110222
 31
0.0
  0
LINE
  5
507
330
1F
100
AcDbEntity
  8
0
 62
     0
100
AcDbLine
 10
161.8695832518887
 20
35.40570369110222
 30
0.0
 11
157.6208571408158
 21
35.40570369110222
 31
0.0
  0
LINE
  5
508
330
1F
100
AcDbEntity
  8
0
 62
     0
100
AcDbLine
 10
156.8514158543414
 20
35.40570369110222
 30
0.0
 11
152.6026897432685
 21
35.40570369110222
 31
0.0
  0
LINE
  5
509
330
1F
100
AcDbEntity
  8
0
 62
     4
100
AcDbLine
 10
172.2339061990027
 20
45.42918570829138
 30
0.0
 11
172.2339061990027
 21
44.92918570829139
 31
0.0
  0
LINE
  5
50A
330
1F
100
AcDbEntity
  8
0
 62
     4
100
AcDbLine
 10
172.2339061990027
 20
44.92918570829139
 30
0.0
 11
152.2339061990026
 21
44.92918570829139
 31
0.0
  0
ARC
  5
50B
102
{ACAD_REACTORS
330
514
330
517
102
}
330
1F
100
AcDbEntity
  8
0
100
AcDbCircle
 10
64.26423628575448
 20
73.43541891542682
 30
0.0
 40
1.310660171779521
100
AcDbArc
 50
102.3501001262013
 51
167.6498998737954
  0
ARC
  5
50C
330
1F
100
AcDbEntity
  8
0
100
AcDbCircle
 10
64.26423628575448
 20
67.43541891542682
 30
0.0
 40
1.310660171779521
100
AcDbArc
 50
102.3501001262013
 51
167.6498998737954
  0
LINE
  5
50D
330
1F
100
AcDbEntity
  8
0
100
AcDbLine
 10
62.98390619986482
 20
68.71574900131648
 30
0.0
 11
62.98390619986482
 21
67.71574900131648
 31
0.0
  0
ARC
  5
50E
330
1F
100
AcDbEntity
  8
0
100
AcDbCircle
 10
64.26423628575448
 20
47.43541891542682
 30
0.0
 40
1.310660171779521
100
AcDbArc
 50
102.3501001262013
 51
167.6498998737954
  0
ARC
  5
50F
102
{ACAD_REACTORS
330
514
102
}
330
1F
100
AcDbEntity
  8
0
100
AcDbCircle
 10
180.2092516288464
 20
73.44109443202242
 30
0.0
 40
1.303909277310461
100
AcDbArc
 50
12.15982091124337
 51
77.84017908876059
  0
ARC
  5
510
330
1F
100
AcDbEntity
  8
0
100
AcDbCircle
 10
180.2092516288464
 20
67.44109443202242
 30
0.0
 40
1.303909277310461
100
AcDbArc
 50
12.15982091124337
 51
77.84017908876059
  0
ARC
  5
511
330
1F
100
AcDbEntity
  8
0
100
AcDbCircle
 10
180.2092516288464
 20
47.44109443202242
 30
0.0
 40
1.303909277310461
100
AcDbArc
 50
12.15982091124337
 51
77.84017908876059
  0
DIMENSION
  5
512
102
{ACAD_XDICTIONARY
360
513
102
}
102
{ACAD_REACTORS
330
514
102
}
330
1F
100
AcDbEntity
  8
0
370
    40
100
AcDbDimension
  2
*D15
 10
181.4839061981404
 20
85.6199473132343
 30
0.0
 11
122.2339061990026
 21
96.37019731323432
 31
0.0
 70
    32
  1
{\H0.7667x;\C256;119}
 71
     5
 42
118.4999999982756
  3
TRIEU
100
AcDbAlignedDimension
 13
62.98390619986483
 23
73.71574900131655
 33
0.0
 14
181.4839061981404
 24
73.71574900131655
 34
0.0
100
AcDbRotatedDimension
  0
DIMENSION
  5
515
102
{ACAD_XDICTIONARY
360
516
102
}
102
{ACAD_REACTORS
330
517
102
}
330
1F
100
AcDbEntity
  8
0
370
    40
100
AcDbDimension
  2
*D16
 10
49.79932152446799
 20
74.71574900131648
 30
0.0
 11
39.04907152446798
 21
47.21574900131649
 31
0.0
 70
    32
  1
{\H0.7667x;\C256;55}
 71
     5
 42
55.0
  3
TRIEU
100
AcDbAlignedDimension
 13
62.98390619986482
 23
19.71574900131648
 33
0.0
 14
63.98390619986482
 24
74.71574900131648
 34
0.0
 50
90.0
100
AcDbRotatedDimension
  0
LINE
  5
518
330
1F
100
AcDbEntity
  8
0
100
AcDbLine
 10
218.8724850930614
 20
19.71574900131636
 30
0.0
 11
251.5753843757021
 21
19.71574900131636
 31
0.0
  0
LINE
  5
519
330
1F
100
AcDbEntity
  8
0
100
AcDbLine
 10
281.5406807253471
 20
19.71574900131636
 30
0.0
 11
318.8724850930614
 21
19.71574900131636
 31
0.0
  0
LINE
  5
51A
330
1F
100
AcDbEntity
  8
0
100
AcDbLine
 10
318.8724850930614
 20
19.71574900131636
 30
0.0
 11
318.8724850930614
 21
47.71574900131636
 31
0.0
  0
LINE
  5
51B
330
1F
100
AcDbEntity
  8
0
100
AcDbLine
 10
218.8724850930614
 20
47.71574900131636
 30
0.0
 11
218.8724850930614
 21
19.71574900131636
 31
0.0
  0
LINE
  5
51C
330
1F
100
AcDbEntity
  8
0
100
AcDbLine
 10
218.8724850930614
 20
24.71574900131637
 30
0.0
 11
318.8724850930614
 21
24.71574900131637
 31
0.0
  0
LINE
  5
51D
330
1F
100
AcDbEntity
  8
0
100
AcDbLine
 10
218.8724850930614
 20
28.71574900131637
 30
0.0
 11
318.8724850930614
 21
28.71574900131637
 31
0.0
  0
LINE
  5
51E
330
1F
100
AcDbEntity
  8
0
100
AcDbLine
 10
288.8724850930614
 20
24.71574900131637
 30
0.0
 11
268.8724850930614
 21
24.71574900131637
 31
0.0
  0
LINE
  5
51F
330
1F
100
AcDbEntity
  8
0
100
AcDbLine
 10
248.8724850930614
 20
24.71574900131637
 30
0.0
 11
248.8724850930614
 21
19.71574900131636
 31
0.0
  0
LINE
  5
520
330
1F
100
AcDbEntity
  8
0
100
AcDbLine
 10
288.8724850930614
 20
24.71574900131637
 30
0.0
 11
288.8724850930614
 21
19.71574900131636
 31
0.0
  0
LINE
  5
521
330
1F
100
AcDbEntity
  8
0
100
AcDbLine
 10
288.8724850930614
 20
22.76116320521945
 30
0.0
 11
281.5406807253471
 21
21.23845610326796
 31
0.0
  0
LINE
  5
522
330
1F
100
AcDbEntity
  8
0
100
AcDbLine
 10
281.5406807253471
 20
21.23845610326796
 30
0.0
 11
281.5406807253471
 21
19.71574900131636
 31
0.0
  0
LINE
  5
523
330
1F
100
AcDbEntity
  8
0
100
AcDbLine
 10
248.8724850930614
 20
19.71574900131636
 30
0.0
 11
251.575384375702
 21
19.71574900131636
 31
0.0
  0
LINE
  5
524
330
1F
100
AcDbEntity
  8
0
100
AcDbLine
 10
251.5753843757021
 20
19.71574900131636
 30
0.0
 11
256.1724850930614
 21
22.21574900131637
 31
0.0
  0
LINE
  5
525
330
1F
100
AcDbEntity
  8
0
100
AcDbLine
 10
256.1724850930614
 20
22.21574900131637
 30
0.0
 11
256.1724850930614
 21
22.83358804929756
 31
0.0
  0
LINE
  5
526
330
1F
100
AcDbEntity
  8
0
100
AcDbLine
 10
255.2929960560007
 20
23.45142709727864
 30
0.0
 11
248.8724850930614
 21
23.45142709727864
 31
0.0
  0
LINE
  5
527
330
1F
100
AcDbEntity
  8
0
100
AcDbLine
 10
256.1724850930614
 20
22.83358804929756
 30
0.0
 11
255.2929960560005
 21
23.45142709727864
 31
0.0
  0
LWPOLYLINE
  5
528
330
1F
100
AcDbEntity
  8
0
100
AcDbPolyline
 90
        4
 70
     1
 43
0.0
 10
264.5274341697153
 20
30.36607532897474
 10
272.8974234723829
 20
30.36607532897474
 10
272.8974234723829
 20
34.69771483498565
 10
264.5274341697153
 20
34.69771483498565
  0
LINE
  5
529
330
1F
100
AcDbEntity
  8
0
100
AcDbLine
 10
264.5274341697153
 20
33.79898239273805
 30
0.0
 11
272.8974234723829
 21
33.79898239273805
 31
0.0
  0
LINE
  5
52A
330
1F
100
AcDbEntity
  8
0
100
AcDbLine
 10
218.8724850930614
 20
28.71574900131637
 30
0.0
 11
218.8724850930614
 21
47.71574900131636
 31
0.0
  0
LINE
  5
52B
330
1F
100
AcDbEntity
  8
0
100
AcDbLine
 10
219.8724850930616
 20
48.71574900131637
 30
0.0
 11
231.8724850930614
 21
48.71574900131637
 31
0.0
  0
LINE
  5
52C
330
1F
100
AcDbEntity
  8
0
100
AcDbLine
 10
305.8724850930614
 20
48.71574900131637
 30
0.0
 11
317.8724850930614
 21
48.71574900131637
 31
0.0
  0
LINE
  5
52D
330
1F
100
AcDbEntity
  8
0
100
AcDbLine
 10
231.7969146693338
 20
68.71574900131648
 30
0.0
 11
239.8724850930614
 21
68.71574900131659
 31
0.0
  0
LINE
  5
52E
330
1F
100
AcDbEntity
  8
0
100
AcDbLine
 10
297.8724850930614
 20
68.71574900131648
 30
0.0
 11
305.8724850930614
 21
68.71574900131637
 31
0.0
  0
LINE
  5
52F
330
1F
100
AcDbEntity
  8
0
100
AcDbLine
 10
231.8724850930614
 20
48.71574900131637
 30
0.0
 11
231.8724850930614
 21
67.73466523238155
 31
0.0
  0
LINE
  5
530
330
1F
100
AcDbEntity
  8
0
100
AcDbLine
 10
317.8724850930612
 20
48.71574900131637
 30
0.0
 11
305.8724850930614
 21
48.71574900131637
 31
0.0
  0
LINE
  5
531
330
1F
100
AcDbEntity
  8
0
100
AcDbLine
 10
305.8724850930614
 20
48.71574900131637
 30
0.0
 11
305.8724850930614
 21
67.71574900131636
 31
0.0
  0
LINE
  5
532
330
1F
100
AcDbEntity
  8
0
100
AcDbLine
 10
231.8724850930614
 20
68.71574900131637
 30
0.0
 11
239.8724850930614
 21
68.71574900131637
 31
0.0
  0
LINE
  5
533
330
1F
100
AcDbEntity
  8
0
100
AcDbLine
 10
239.8724850930614
 20
68.71574900131637
 30
0.0
 11
239.8724850930614
 21
73.71574900131648
 31
0.0
  0
LINE
  5
534
330
1F
100
AcDbEntity
  8
0
100
AcDbLine
 10
305.8724850930614
 20
68.71574900131637
 30
0.0
 11
297.8724850930614
 21
68.71574900131637
 31
0.0
  0
LINE
  5
535
330
1F
100
AcDbEntity
  8
0
100
AcDbLine
 10
297.8724850930614
 20
68.71574900131637
 30
0.0
 11
297.8724850930614
 21
73.71574900131648
 31
0.0
  0
LINE
  5
536
330
1F
100
AcDbEntity
  8
0
100
AcDbLine
 10
231.8724850930614
 20
68.71574900131637
 30
0.0
 11
231.7969146693336
 21
68.71574900131637
 31
0.0
  0
LINE
  5
537
330
1F
100
AcDbEntity
  8
0
100
AcDbLine
 10
230.8724850930614
 20
67.73466523238155
 30
0.0
 11
230.8724850930614
 21
48.71574900131637
 31
0.0
  0
LINE
  5
538
330
1F
100
AcDbEntity
  8
0
100
AcDbLine
 10
305.8724850930614
 20
48.71574900131637
 30
0.0
 11
306.8724850930614
 21
48.71574900131637
 31
0.0
  0
LINE
  5
539
330
1F
100
AcDbEntity
  8
0
100
AcDbLine
 10
306.8724850930614
 20
48.71574900131637
 30
0.0
 11
306.8724850930614
 21
67.71574900131625
 31
0.0
  0
LINE
  5
53A
330
1F
100
AcDbEntity
  8
0
100
AcDbLine
 10
240.8724850930616
 20
74.71574900131637
 30
0.0
 11
269.9196681148734
 21
74.71574900131637
 31
0.0
  0
LINE
  5
53B
102
{ACAD_REACTORS
330
564
102
}
330
1F
100
AcDbEntity
  8
0
100
AcDbLine
 10
269.9196681148734
 20
74.71574900131637
 30
0.0
 11
296.8724850930613
 21
74.71574900131637
 31
0.0
  0
ARC
  5
53C
330
1F
100
AcDbEntity
  8
0
100
AcDbCircle
 10
241.1528151789511
 20
73.4354189154267
 30
0.0
 40
1.310660171779521
100
AcDbArc
 50
102.3501001262013
 51
167.6498998737954
  0
ARC
  5
53D
330
1F
100
AcDbEntity
  8
0
100
AcDbCircle
 10
232.1528151789511
 20
67.4543351464919
 30
0.0
 40
1.310660171779521
100
AcDbArc
 50
105.7561011091574
 51
167.6498998737954
  0
ARC
  5
53E
330
1F
100
AcDbEntity
  8
0
100
AcDbCircle
 10
220.1528151789511
 20
47.43541891542671
 30
0.0
 40
1.310660171779521
100
AcDbArc
 50
102.3501001262013
 51
167.6498998737954
  0
ARC
  5
53F
330
1F
100
AcDbEntity
  8
0
100
AcDbCircle
 10
233.1528151789511
 20
67.4543351464919
 30
0.0
 40
1.310660171779521
100
AcDbArc
 50
105.7561011091574
 51
167.6498998737954
  0
ARC
  5
540
102
{ACAD_REACTORS
330
564
102
}
330
1F
100
AcDbEntity
  8
0
100
AcDbCircle
 10
296.5978305237674
 20
73.44109443202231
 30
0.0
 40
1.303909277310461
100
AcDbArc
 50
12.15982091124337
 51
77.84017908875727
  0
ARC
  5
541
330
1F
100
AcDbEntity
  8
0
100
AcDbCircle
 10
305.5978305237673
 20
67.44109443202231
 30
0.0
 40
1.303909277310461
100
AcDbArc
 50
12.15982091124337
 51
77.84017908875727
  0
ARC
  5
542
330
1F
100
AcDbEntity
  8
0
100
AcDbCircle
 10
317.5978305237673
 20
47.44109443202231
 30
0.0
 40
1.303909277310461
100
AcDbArc
 50
12.15982091124337
 51
77.84017908875727
  0
ARC
  5
543
330
1F
100
AcDbEntity
  8
0
100
AcDbCircle
 10
304.5978305237674
 20
67.44109443202231
 30
0.0
 40
1.303909277310461
100
AcDbArc
 50
12.15982091124337
 51
77.84017908875727
  0
LINE
  5
544
330
1F
100
AcDbEntity
  8
0
100
AcDbLine
 10
218.8724850930614
 20
29.42918570829127
 30
0.0
 11
318.8724850930614
 21
29.42918570829127
 31
0.0
  0
LINE
  5
545
330
1F
100
AcDbEntity
  8
0
 62
     4
100
AcDbLine
 10
318.8724850930614
 20
29.42918570829127
 30
0.0
 11
330.8724850930614
 21
29.42918570829127
 31
0.0
  0
LINE
  5
546
330
1F
100
AcDbEntity
  8
0
 62
     4
100
AcDbLine
 10
330.8724850930614
 20
29.42918570829127
 30
0.0
 11
330.8724850930614
 21
45.42918570829127
 31
0.0
  0
LINE
  5
547
330
1F
100
AcDbEntity
  8
0
 62
     4
100
AcDbLine
 10
330.8724850930614
 20
45.42918570829127
 30
0.0
 11
324.3724850930614
 21
45.42918570829127
 31
0.0
  0
LINE
  5
548
330
1F
100
AcDbEntity
  8
0
 62
     4
100
AcDbLine
 10
322.8724850930614
 20
39.94002084397406
 30
0.0
 11
322.8724850930614
 21
29.42918570829127
 31
0.0
  0
LINE
  5
549
330
1F
100
AcDbEntity
  8
0
 62
     4
100
AcDbLine
 10
322.8724850930614
 20
37.42918570829127
 30
0.0
 11
318.8724850930614
 21
37.42918570829127
 31
0.0
  0
LINE
  5
54A
330
1F
100
AcDbEntity
  8
0
 62
     4
100
AcDbLine
 10
324.3724850930614
 20
45.42918570829127
 30
0.0
 11
322.8724850930614
 21
39.94002084397406
 31
0.0
  0
LINE
  5
54B
330
1F
100
AcDbEntity
  8
0
 62
     4
100
AcDbLine
 10
322.8724850930614
 20
38.33487733624546
 30
0.0
 11
320.5482079971046
 21
37.88203152226837
 31
0.0
  0
LINE
  5
54C
330
1F
100
AcDbEntity
  8
0
 62
     4
100
AcDbLine
 10
320.5482079971046
 20
37.88203152226837
 30
0.0
 11
320.5482079971046
 21
37.42918570829127
 31
0.0
  0
LINE
  5
54D
330
1F
100
AcDbEntity
  8
0
 62
     4
100
AcDbLine
 10
330.8724850930614
 20
45.42918570829127
 30
0.0
 11
330.0724850930614
 21
45.42918570829127
 31
0.0
  0
LINE
  5
54E
330
1F
100
AcDbEntity
  8
0
 62
     4
100
AcDbLine
 10
218.8724850930614
 20
29.42918570829127
 30
0.0
 11
206.8724850930614
 21
29.42918570829127
 31
0.0
  0
LINE
  5
54F
330
1F
100
AcDbEntity
  8
0
 62
     4
100
AcDbLine
 10
206.8724850930614
 20
29.42918570829127
 30
0.0
 11
206.8724850930614
 21
45.42918570829127
 31
0.0
  0
LINE
  5
550
330
1F
100
AcDbEntity
  8
0
 62
     4
100
AcDbLine
 10
206.8724850930614
 20
45.42918570829127
 30
0.0
 11
213.3724850930614
 21
45.42918570829127
 31
0.0
  0
LINE
  5
551
330
1F
100
AcDbEntity
  8
0
 62
     4
100
AcDbLine
 10
206.8724850930614
 20
29.42918570829127
 30
0.0
 11
214.8724850930614
 21
29.42918570829127
 31
0.0
  0
LINE
  5
552
330
1F
100
AcDbEntity
  8
0
 62
     4
100
AcDbLine
 10
214.8724850930614
 20
29.42918570829127
 30
0.0
 11
214.8724850930614
 21
39.94002084397406
 31
0.0
  0
LINE
  5
553
330
1F
100
AcDbEntity
  8
0
 62
     4
100
AcDbLine
 10
214.8724850930614
 20
37.42918570829127
 30
0.0
 11
218.8724850930614
 21
37.42918570829127
 31
0.0
  0
LINE
  5
554
330
1F
100
AcDbEntity
  8
0
 62
     4
100
AcDbLine
 10
218.8724850930614
 20
37.42918570829127
 30
0.0
 11
217.1724850930614
 21
37.42918570829127
 31
0.0
  0
LINE
  5
555
330
1F
100
AcDbEntity
  8
0
 62
     4
100
AcDbLine
 10
217.1724850930614
 20
37.42918570829127
 30
0.0
 11
217.1724850930614
 21
37.92918570829127
 31
0.0
  0
LINE
  5
556
330
1F
100
AcDbEntity
  8
0
 62
     4
100
AcDbLine
 10
214.8724850930614
 20
38.33487733624546
 30
0.0
 11
217.1724850930614
 21
37.92918570829127
 31
0.0
  0
LINE
  5
557
330
1F
100
AcDbEntity
  8
0
 62
     4
100
AcDbLine
 10
206.8724850930614
 20
45.42918570829127
 30
0.0
 11
213.3724850930614
 21
45.42918570829127
 31
0.0
  0
LINE
  5
558
330
1F
100
AcDbEntity
  8
0
 62
     4
100
AcDbLine
 10
213.3724850930614
 20
45.42918570829127
 30
0.0
 11
214.8724850930614
 21
39.94002084397406
 31
0.0
  0
LINE
  5
559
330
1F
100
AcDbEntity
  8
0
 62
     4
100
AcDbLine
 10
206.8724850930614
 20
29.42918570829127
 30
0.0
 11
207.6724850930614
 21
29.42918570829127
 31
0.0
  0
LWPOLYLINE
  5
55A
330
1F
100
AcDbEntity
  8
0
100
AcDbPolyline
 90
        4
 70
     1
 43
0.0
 10
218.8724850930614
 20
19.71574900131636
 10
215.2922371105763
 20
19.71574900131636
 10
215.2922371105763
 20
22.40949418849462
 10
218.8724850930614
 20
22.40949418849462
  0
LINE
  5
55B
102
{ACAD_REACTORS
330
561
102
}
330
1F
100
AcDbEntity
  8
0
 62
     4
100
AcDbLine
 10
206.8724850930614
 20
29.42918570829127
 30
0.0
 11
207.3723768480588
 21
29.4187821855368
 31
0.0
  0
LINE
  5
55C
330
1F
100
AcDbEntity
  8
0
 62
     4
100
AcDbLine
 10
207.3723768480588
 20
29.4187821855368
 30
0.0
 11
207.3723768480588
 21
45.42918570829127
 31
0.0
  0
LINE
  5
55D
102
{ACAD_REACTORS
330
561
102
}
330
1F
100
AcDbEntity
  8
0
 62
     4
100
AcDbLine
 10
330.8724850930614
 20
29.42918570829127
 30
0.0
 11
330.3724850930614
 21
29.42918570829127
 31
0.0
  0
LINE
  5
55E
330
1F
100
AcDbEntity
  8
0
 62
     4
100
AcDbLine
 10
330.3724850930614
 20
29.42918570829127
 30
0.0
 11
330.3724850930614
 21
45.42918570829127
 31
0.0
  0
DIMENSION
  5
55F
102
{ACAD_XDICTIONARY
360
560
102
}
102
{ACAD_REACTORS
330
561
102
}
330
1F
100
AcDbEntity
  8
0
370
    40
100
AcDbDimension
  2
*D17
 10
330.8724850930614
 20
85.61994731323412
 30
0.0
 11
268.8724850930614
 21
96.37019731323412
 31
0.0
 70
    32
  1
{\H0.7667x;\C256;124}
 71
     5
 42
124.0
  3
TRIEU
100
AcDbAlignedDimension
 13
206.8724850930614
 23
29.42918570829127
 33
0.0
 14
330.8724850930614
 24
29.42918570829127
 34
0.0
100
AcDbRotatedDimension
  0
DIMENSION
  5
562
102
{ACAD_XDICTIONARY
360
563
102
}
102
{ACAD_REACTORS
330
564
102
}
330
1F
100
AcDbEntity
  8
0
370
    40
100
AcDbDimension
  2
*D18
 10
357.1556968423264
 20
19.71574900131633
 30
0.0
 11
346.4054468423265
 21
47.21574900131634
 31
0.0
 70
    32
  1
{\H0.7667x;\C256;55}
 71
     5
 42
54.99999999999989
  3
TRIEU
100
AcDbAlignedDimension
 13
296.8724850930616
 23
74.71574900131625
 33
0.0
 14
296.8724850930616
 24
19.71574900131636
 34
0.0
 50
90.0
100
AcDbRotatedDimension
  0
DIMENSION
  5
565
330
1F
100
AcDbEntity
  8
0
370
    40
100
AcDbDimension
  2
*D11
 10
206.8724850930614
 20
126.475465794391
 30
0.0
 11
196.1222350930614
 21
176.7254657936598
 31
0.0
 70
    32
  1
{\H0.7667x;\C256;101}
 71
     5
 42
100.4999999985375
  3
TRIEU
100
AcDbAlignedDimension
 13
181.4839061981404
 23
226.9754657929285
 33
0.0
 14
181.4839061981404
 24
126.475465794391
 34
0.0
 50
90.0
100
AcDbRotatedDimension
  0
DIMENSION
  5
566
330
1F
100
AcDbEntity
  8
0
370
    40
100
AcDbDimension
  2
*D12
 10
234.8431286038579
 20
114.0178969872486
 30
0.0
 11
224.0928786038579
 21
176.7254657936743
 31
0.0
 70
    32
  1
{\H0.7667x;\C256;125}
 71
     5
 42
125.4151376128513
  3
TRIEU
100
AcDbAlignedDimension
 13
172.7339061982677
 23
239.4330346001
 33
0.0
 14
172.7339061982677
 24
114.0178969872486
 34
0.0
 50
90.0
100
AcDbRotatedDimension
  0
DIMENSION
  5
567
330
1F
100
AcDbEntity
  8
0
370
    40
100
AcDbDimension
  2
*D13
 10
172.7339061982677
 20
249.8446349483208
 30
0.0
 11
121.7339061990099
 21
260.5948849483208
 31
0.0
 70
    32
  1
{\H0.7667x;\C256;102}
 71
     5
 42
101.9999999985157
  3
TRIEU
100
AcDbAlignedDimension
 13
70.73390619975204
 23
239.4330346001
 33
0.0
 14
172.7339061982677
 24
239.3745483615715
 34
0.0
100
AcDbRotatedDimension
  0
DIMENSION
  5
568
330
1F
100
AcDbEntity
  8
0
370
    40
100
AcDbDimension
  2
*D14
 10
181.4839061981404
 20
270.8033793759074
 30
0.0
 11
122.2339061990026
 21
281.5536293759074
 31
0.0
 70
    32
  1
{\H0.7667x;\C256;119}
 71
     5
 42
118.4999999982756
  3
TRIEU
100
AcDbAlignedDimension
 13
62.98390619986482
 23
226.9754657929285
 33
0.0
 14
181.4839061981404
 24
226.9754657929285
 34
0.0
100
AcDbRotatedDimension
  0
ENDSEC
  0
SECTION
  2
OBJECTS
  0
DICTIONARY
  5
C
330
0
100
AcDbDictionary
281
     1
  3
ACAD_COLOR
350
73
  3
ACAD_GROUP
350
D
  3
ACAD_LAYOUT
350
1A
  3
ACAD_MATERIAL
350
72
  3
ACAD_MLINESTYLE
350
17
  3
ACAD_PLOTSETTINGS
350
19
  3
ACAD_PLOTSTYLENAME
350
E
  3
ACAD_TABLESTYLE
350
86
  3
ACAD_VISUALSTYLE
350
99
  3
AcDbVariableDictionary
350
66
  3
DWGPROPS
350
601
  0
DICTIONARY
  5
122
330
2
100
AcDbDictionary
280
     1
281
     1
  3
ACAD_LAYERSTATES
360
123
  0
DICTIONARY
  5
513
330
512
100
AcDbDictionary
280
     1
281
     1
  3
ACAD_DIMASSOC
360
514
  0
DICTIONARY
  5
516
330
515
100
AcDbDictionary
280
     1
281
     1
  3
ACAD_DIMASSOC
360
517
  0
DICTIONARY
  5
560
330
55F
100
AcDbDictionary
280
     1
281
     1
  3
ACAD_DIMASSOC
360
561
  0
DICTIONARY
  5
563
330
562
100
AcDbDictionary
280
     1
281
     1
  3
ACAD_DIMASSOC
360
564
  0
DICTIONARY
  5
73
102
{ACAD_REACTORS
330
C
102
}
330
C
100
AcDbDictionary
281
     1
  0
DICTIONARY
  5
D
102
{ACAD_REACTORS
330
C
102
}
330
C
100
AcDbDictionary
281
     1
  0
DICTIONARY
  5
1A
102
{ACAD_REACTORS
330
C
102
}
330
C
100
AcDbDictionary
281
     1
  3
Layout1
350
59
  3
Layout2
350
5E
  3
Model
350
22
  0
DICTIONARY
  5
72
102
{ACAD_REACTORS
330
C
102
}
330
C
100
AcDbDictionary
281
     1
  3
ByBlock
350
97
  3
ByLayer
350
96
  3
Global
350
98
  0
DICTIONARY
  5
17
102
{ACAD_REACTORS
330
C
102
}
330
C
100
AcDbDictionary
281
     1
  3
Standard
350
18
  0
DICTIONARY
  5
19
102
{ACAD_REACTORS
330
C
102
}
330
C
100
AcDbDictionary
281
     1
  0
ACDBDICTIONARYWDFLT
  5
E
102
{ACAD_REACTORS
330
C
102
}
330
C
100
AcDbDictionary
281
     1
  3
Normal
350
F
100
AcDbDictionaryWithDefault
340
F
  0
DICTIONARY
  5
86
102
{ACAD_REACTORS
330
C
102
}
330
C
100
AcDbDictionary
281
     1
  3
Standard
350
87
  0
DICTIONARY
  5
99
102
{ACAD_REACTORS
330
C
102
}
330
C
100
AcDbDictionary
281
     1
  3
2dWireframe
350
9F
  3
3D Hidden
350
A1
  3
3dWireframe
350
A0
  3
Basic
350
9E
  3
Brighten
350
A5
  3
ColorChange
350
A9
  3
Conceptual
350
A2
  3
Dim
350
A4
  3
Facepattern
350
A8
  3
Flat
350
9A
  3
FlatWithEdges
350
9B
  3
Gouraud
350
9C
  3
GouraudWithEdges
350
9D
  3
Linepattern
350
A7
  3
Realistic
350
A3
  3
Thicken
350
A6
  0
DICTIONARY
  5
66
102
{ACAD_REACTORS
330
C
102
}
330
C
100
AcDbDictionary
281
     1
  3
CTABLESTYLE
350
89
  3
DIMASSOC
350
67
  3
HIDETEXT
350
6B
  3
INDEXCTL
350
600
  3
SORTENTS
350
5FF
  0
XRECORD
  5
601
102
{ACAD_REACTORS
330
C
102
}
330
C
100
AcDbXrecord
280
     1
  1
DWGPROPS COOKIE
  2

  3

  4

  6

  7

  8
Administrator
  9

300
=
301
=
302
=
303
=
304
=
305
=
306
=
307
=
308
=
309
=
 40
0.0006657523148148
 41
2458472.389864201
 42
2458472.390527408
  1

 90
        0
  0
DICTIONARY
  5
123
102
{ACAD_REACTORS
330
122
102
}
330
122
100
AcDbDictionary
281
     1
  0
DIMASSOC
  5
514
102
{ACAD_REACTORS
330
513
102
}
330
513
100
AcDbDimAssoc
330
512
 90
        3
 70
     0
 71
     0
  1
AcDbOsnapPointRef
 72
     1
331
50B
 73
     2
 91
        0
 40
2.926042743436616
 10
0.0
 20
0.0
 30
2.000000000000000E+50
 75
     0
  1
AcDbOsnapPointRef
 72
    13
331
50F
 73
     2
 91
        0
 40
0.2122289113540576
 10
0.0
 20
0.0
 30
2.000000000000000E+50
 75
     0
  0
DIMASSOC
  5
517
102
{ACAD_REACTORS
330
516
102
}
330
516
100
AcDbDimAssoc
330
515
 90
        3
 70
     0
 71
     0
  1
AcDbOsnapPointRef
 72
    13
331
473
 73
     2
 91
        0
 40
0.0
 10
0.0
 20
0.0
 30
2.000000000000000E+50
 75
     0
  1
AcDbOsnapPointRef
 72
    13
331
50B
 73
     2
 91
        0
 40
1.786346236948073
 10
0.0
 20
0.0
 30
2.000000000000000E+50
 75
     0
  0
DIMASSOC
  5
561
102
{ACAD_REACTORS
330
560
102
}
330
560
100
AcDbDimAssoc
330
55F
 90
        3
 70
     0
 71
     0
  1
AcDbOsnapPointRef
 72
    13
331
55B
 73
     2
 91
        0
 40
0.0
 10
0.0
 20
0.0
 30
2.000000000000000E+50
 75
     0
  1
AcDbOsnapPointRef
 72
    13
331
55D
 73
     2
 91
        0
 40
0.0
 10
0.0
 20
0.0
 30
2.000000000000000E+50
 75
     0
  0
DIMASSOC
  5
564
102
{ACAD_REACTORS
330
563
102
}
330
563
100
AcDbDimAssoc
330
562
 90
        1
 70
     0
 71
     0
  1
AcDbOsnapPointRef
 72
     6
331
53B
 73
     2
 91
        0
 40
1.0
 10
0.0
 20
0.0
 30
0.0
332
540
 74
     2
 92
        0
 75
     0
  0
LAYOUT
  5
59
102
{ACAD_XDICTIONARY
360
604
102
}
102
{ACAD_REACTORS
330
1A
102
}
330
1A
100
AcDbPlotSettings
  1

  2
None
  4

  6

 40
0.0
 41
0.0
 42
0.0
 43
0.0
 44
0.0
 45
0.0
 46
0.0
 47
0.0
 48
0.0
 49
0.0
140
0.0
141
0.0
142
1.0
143
1.0
 70
   688
 72
     0
 73
     0
 74
     5
  7

 75
    16
147
1.0
148
0.0
149
0.0
100
AcDbLayout
  1
Layout1
 70
     1
 71
     1
 10
0.0
 20
0.0
 11
12.0
 21
9.0
 12
0.0
 22
0.0
 32
0.0
 14
0.0
 24
0.0
 34
0.0
 15
0.0
 25
0.0
 35
0.0
146
0.0
 13
0.0
 23
0.0
 33
0.0
 16
1.0
 26
0.0
 36
0.0
 17
0.0
 27
1.0
 37
0.0
 76
     0
330
58
  0
LAYOUT
  5
5E
102
{ACAD_XDICTIONARY
360
606
102
}
102
{ACAD_REACTORS
330
1A
102
}
330
1A
100
AcDbPlotSettings
  1

  2
None
  4

  6

 40
0.0
 41
0.0
 42
0.0
 43
0.0
 44
0.0
 45
0.0
 46
0.0
 47
0.0
 48
0.0
 49
0.0
140
0.0
141
0.0
142
1.0
143
1.0
 70
   688
 72
     0
 73
     0
 74
     5
  7

 75
    16
147
1.0
148
0.0
149
0.0
100
AcDbLayout
  1
Layout2
 70
     1
 71
     2
 10
0.0
 20
0.0
 11
12.0
 21
9.0
 12
0.0
 22
0.0
 32
0.0
 14
0.0
 24
0.0
 34
0.0
 15
0.0
 25
0.0
 35
0.0
146
0.0
 13
0.0
 23
0.0
 33
0.0
 16
1.0
 26
0.0
 36
0.0
 17
0.0
 27
1.0
 37
0.0
 76
     0
330
5D
  0
LAYOUT
  5
22
102
{ACAD_XDICTIONARY
360
602
102
}
102
{ACAD_REACTORS
330
1A
102
}
330
1A
100
AcDbPlotSettings
  1

  2
none_device
  4
ANSI_A_(8.50_x_11.00_Inches)
  6

 40
6.349999904632568
 41
19.04999923706055
 42
6.350006103515625
 43
19.04998779296875
 44
215.8999938964844
 45
279.3999938964844
 46
0.0
 47
0.0
 48
0.0
 49
0.0
140
0.0
141
0.0
142
1.0
143
2.584895464708373
 70
 11952
 72
     0
 73
     1
 74
     0
  7

 75
     0
147
0.3868628397755418
148
0.0
149
0.0
100
AcDbLayout
  1
Model
 70
     1
 71
     0
 10
0.0
 20
0.0
 11
12.0
 21
9.0
 12
0.0
 22
0.0
 32
0.0
 14
0.0
 24
0.0
 34
0.0
 15
0.0
 25
0.0
 35
0.0
146
0.0
 13
0.0
 23
0.0
 33
0.0
 16
1.0
 26
0.0
 36
0.0
 17
0.0
 27
1.0
 37
0.0
 76
     0
330
1F
331
94
  0
MATERIAL
  5
97
102
{ACAD_XDICTIONARY
360
60C
102
}
102
{ACAD_REACTORS
330
72
102
}
330
72
100
AcDbMaterial
  1
ByBlock
  0
MATERIAL
  5
96
102
{ACAD_XDICTIONARY
360
60A
102
}
102
{ACAD_REACTORS
330
72
102
}
330
72
100
AcDbMaterial
  1
ByLayer
  0
MATERIAL
  5
98
102
{ACAD_XDICTIONARY
360
60E
102
}
102
{ACAD_REACTORS
330
72
102
}
330
72
100
AcDbMaterial
  1
Global
  0
MLINESTYLE
  5
18
102
{ACAD_REACTORS
330
17
102
}
330
17
100
AcDbMlineStyle
  2
STANDARD
 70
     0
  3

 62
   256
 51
90.0
 52
90.0
 71
     2
 49
0.5
 62
   256
  6
BYLAYER
 49
-0.5
 62
   256
  6
BYLAYER
  0
ACDBPLACEHOLDER
  5
F
102
{ACAD_REACTORS
330
E
102
}
330
E
  0
TABLESTYLE
  5
87
102
{ACAD_XDICTIONARY
360
608
102
}
102
{ACAD_REACTORS
330
86
102
}
330
86
100
AcDbTableStyle
  3
Standard
 70
     0
 71
     0
 40
0.06
 41
0.06
280
     0
281
     0
  7
Standard
140
0.18
170
     2
 62
     0
 63
     7
283
     0
274
    -2
284
     1
 64
     0
275
    -2
285
     1
 65
     0
276
    -2
286
     1
 66
     0
277
    -2
287
     1
 67
     0
278
    -2
288
     1
 68
     0
279
    -2
289
     1
 69
     0
  7
Standard
140
0.25
170
     5
 62
     0
 63
     7
283
     0
274
    -2
284
     1
 64
     0
275
    -2
285
     1
 65
     0
276
    -2
286
     1
 66
     0
277
    -2
287
     1
 67
     0
278
    -2
288
     1
 68
     0
279
    -2
289
     1
 69
     0
  7
Standard
140
0.18
170
     5
 62
     0
 63
     7
283
     0
274
    -2
284
     1
 64
     0
275
    -2
285
     1
 65
     0
276
    -2
286
     1
 66
     0
277
    -2
287
     1
 67
     0
278
    -2
288
     1
 68
     0
279
    -2
289
     1
 69
     0
  0
VISUALSTYLE
  5
9F
102
{ACAD_REACTORS
330
99
102
}
330
99
100
AcDbVisualStyle
  2
2dWireframe
 70
     4
 71
     0
 72
     2
 73
     1
 90
        0
 40
-0.6
 41
-30.0
 62
     5
 63
     7
 74
     1
 91
        4
 64
     7
 65
   257
 75
     1
175
     1
 42
1.0
 92
        0
 66
   257
 43
1.0
 76
     1
 77
     6
 78
     2
 67
     7
 79
     5
170
     0
171
     0
290
     0
174
     0
 93
        1
 44
0.0
173
     0
291
     0
 45
0.0
1001
ACAD
1000
AcDbSavedByObjectVersion
1070
     0
  0
VISUALSTYLE
  5
A1
102
{ACAD_REACTORS
330
99
102
}
330
99
100
AcDbVisualStyle
  2
3D Hidden
 70
     6
 71
     1
 72
     2
 73
     2
 90
        0
 40
-0.6
 41
-30.0
 62
     5
 63
     7
 74
     2
 91
        2
 64
     7
 65
   257
 75
     2
175
     1
 42
40.0
 92
        0
 66
   257
 43
1.0
 76
     1
 77
     6
 78
     2
 67
     7
 79
     3
170
     0
171
     0
290
     0
174
     0
 93
        1
 44
0.0
173
     0
291
     0
 45
0.0
1001
ACAD
1000
AcDbSavedByObjectVersion
1070
     0
  0
VISUALSTYLE
  5
A0
102
{ACAD_REACTORS
330
99
102
}
330
99
100
AcDbVisualStyle
  2
3dWireframe
 70
     5
 71
     0
 72
     2
 73
     1
 90
        0
 40
-0.6
 41
-30.0
 62
     5
 63
     7
 74
     1
 91
        4
 64
     7
 65
   257
 75
     1
175
     1
 42
1.0
 92
        0
 66
   257
 43
1.0
 76
     1
 77
     6
 78
     2
 67
     7
 79
     5
170
     0
171
     0
290
     0
174
     0
 93
        1
 44
0.0
173
     0
291
     0
 45
0.0
1001
ACAD
1000
AcDbSavedByObjectVersion
1070
     0
  0
VISUALSTYLE
  5
9E
102
{ACAD_REACTORS
330
99
102
}
330
99
100
AcDbVisualStyle
  2
Basic
 70
     7
 71
     1
 72
     0
 73
     1
 90
        0
 40
-0.6
 41
-30.0
 62
     5
 63
     7
 74
     0
 91
        4
 64
     7
 65
   257
 75
     1
175
     1
 42
1.0
 92
        8
 66
     7
 43
1.0
 76
     1
 77
     6
 78
     2
 67
     7
 79
     5
170
     0
171
     0
290
     0
174
     0
 93
        1
 44
0.0
173
     0
291
     1
 45
0.0
1001
ACAD
1000
AcDbSavedByObjectVersion
1070
     0
  0
VISUALSTYLE
  5
A5
102
{ACAD_REACTORS
330
99
102
}
330
99
100
AcDbVisualStyle
  2
Brighten
 70
    12
 71
     2
 72
     2
 73
     1
 90
        0
 40
-0.6
 41
-30.0
 62
     5
 63
     7
 74
     1
 91
        4
 64
     7
 65
   257
 75
     1
175
     1
 42
1.0
 92
        8
 66
     7
 43
1.0
 76
     1
 77
     6
 78
     2
 67
     7
 79
     5
170
     0
171
     0
290
     0
174
     0
 93
        1
 44
50.0
173
     0
291
     1
 45
0.0
1001
ACAD
1000
AcDbSavedByObjectVersion
1070
     0
  0
VISUALSTYLE
  5
A9
102
{ACAD_REACTORS
330
99
102
}
330
99
100
AcDbVisualStyle
  2
ColorChange
 70
    16
 71
     2
 72
     2
 73
     3
 90
        0
 40
-0.6
 41
-30.0
 62
     5
 63
     8
 74
     1
 91
        4
 64
     7
 65
   257
 75
     1
175
     1
 42
1.0
 92
        8
 66
     8
 43
1.0
 76
     1
 77
     6
 78
     2
 67
     7
 79
     5
170
     0
171
     0
290
     0
174
     0
 93
        1
 44
0.0
173
     0
291
     1
 45
0.0
1001
ACAD
1000
AcDbSavedByObjectVersion
1070
     0
  0
VISUALSTYLE
  5
A2
102
{ACAD_REACTORS
330
99
102
}
330
99
100
AcDbVisualStyle
  2
Conceptual
 70
     9
 71
     3
 72
     2
 73
     1
 90
        0
 40
-0.6
 41
-30.0
 62
     5
 63
     7
 74
     2
 91
        2
 64
     7
 65
   257
 75
     1
175
     1
 42
40.0
 92
        8
 66
     7
 43
1.0
 76
     1
 77
     6
 78
     2
 67
     7
 79
     3
170
     0
171
     0
290
     0
174
     0
 93
        1
 44
0.0
173
     0
291
     0
 45
0.0
1001
ACAD
1000
AcDbSavedByObjectVersion
1070
     0
  0
VISUALSTYLE
  5
A4
102
{ACAD_REACTORS
330
99
102
}
330
99
100
AcDbVisualStyle
  2
Dim
 70
    11
 71
     2
 72
     2
 73
     1
 90
        0
 40
-0.6
 41
-30.0
 62
     5
 63
     7
 74
     1
 91
        4
 64
     7
 65
   257
 75
     1
175
     1
 42
1.0
 92
        8
 66
     7
 43
1.0
 76
     1
 77
     6
 78
     2
 67
     7
 79
     5
170
     0
171
     0
290
     0
174
     0
 93
        1
 44
-50.0
173
     0
291
     1
 45
0.0
1001
ACAD
1000
AcDbSavedByObjectVersion
1070
     0
  0
VISUALSTYLE
  5
A8
102
{ACAD_REACTORS
330
99
102
}
330
99
100
AcDbVisualStyle
  2
Facepattern
 70
    15
 71
     2
 72
     2
 73
     1
 90
        0
 40
-0.6
 41
-30.0
 62
     5
 63
     7
 74
     1
 91
        4
 64
     7
 65
   257
 75
     1
175
     1
 42
1.0
 92
        8
 66
     7
 43
1.0
 76
     1
 77
     6
 78
     2
 67
     7
 79
     5
170
     0
171
     0
290
     0
174
     0
 93
        1
 44
0.0
173
     0
291
     1
 45
0.0
1001
ACAD
1000
AcDbSavedByObjectVersion
1070
     0
  0
VISUALSTYLE
  5
9A
102
{ACAD_REACTORS
330
99
102
}
330
99
100
AcDbVisualStyle
  2
Flat
 70
     0
 71
     2
 72
     1
 73
     1
 90
        2
 40
-0.6
 41
30.0
 62
     5
 63
     7
 74
     0
 91
        4
 64
     7
 65
   257
 75
     1
175
     1
 42
1.0
 92
        8
 66
     7
 43
1.0
 76
     1
 77
     6
 78
     2
 67
     7
 79
     5
170
     0
171
     0
290
     0
174
     0
 93
        1
 44
0.0
173
     0
291
     1
 45
0.0
1001
ACAD
1000
AcDbSavedByObjectVersion
1070
     0
  0
VISUALSTYLE
  5
9B
102
{ACAD_REACTORS
330
99
102
}
330
99
100
AcDbVisualStyle
  2
FlatWithEdges
 70
     1
 71
     2
 72
     1
 73
     1
 90
        2
 40
-0.6
 41
30.0
 62
     5
 63
     7
 74
     1
 91
        4
 64
     7
 65
   257
 75
     1
175
     1
 42
1.0
 92
        0
 66
   257
 43
1.0
 76
     1
 77
     6
 78
     2
 67
     7
 79
     5
170
     0
171
     0
290
     0
174
     0
 93
        1
 44
0.0
173
     0
291
     1
 45
0.0
1001
ACAD
1000
AcDbSavedByObjectVersion
1070
     0
  0
VISUALSTYLE
  5
9C
102
{ACAD_REACTORS
330
99
102
}
330
99
100
AcDbVisualStyle
  2
Gouraud
 70
     2
 71
     2
 72
     2
 73
     1
 90
        2
 40
-0.6
 41
30.0
 62
     5
 63
     7
 74
     0
 91
        4
 64
     7
 65
   257
 75
     1
175
     1
 42
1.0
 92
        0
 66
     7
 43
1.0
 76
     1
 77
     6
 78
     2
 67
     7
 79
     5
170
     0
171
     0
290
     0
174
     0
 93
        1
 44
0.0
173
     0
291
     1
 45
0.0
1001
ACAD
1000
AcDbSavedByObjectVersion
1070
     0
  0
VISUALSTYLE
  5
9D
102
{ACAD_REACTORS
330
99
102
}
330
99
100
AcDbVisualStyle
  2
GouraudWithEdges
 70
     3
 71
     2
 72
     2
 73
     1
 90
        2
 40
-0.6
 41
30.0
 62
     5
 63
     7
 74
     1
 91
        4
 64
     7
 65
   257
 75
     1
175
     1
 42
1.0
 92
        0
 66
   257
 43
1.0
 76
     1
 77
     6
 78
     2
 67
     7
 79
     5
170
     0
171
     0
290
     0
174
     0
 93
        1
 44
0.0
173
     0
291
     1
 45
0.0
1001
ACAD
1000
AcDbSavedByObjectVersion
1070
     0
  0
VISUALSTYLE
  5
A7
102
{ACAD_REACTORS
330
99
102
}
330
99
100
AcDbVisualStyle
  2
Linepattern
 70
    14
 71
     2
 72
     2
 73
     1
 90
        0
 40
-0.6
 41
-30.0
 62
     5
 63
     7
 74
     1
 91
        4
 64
     7
 65
   257
 75
     7
175
     7
 42
1.0
 92
        8
 66
     7
 43
1.0
 76
     1
 77
     6
 78
     2
 67
     7
 79
     5
170
     0
171
     0
290
     0
174
     0
 93
        1
 44
0.0
173
     0
291
     1
 45
0.0
1001
ACAD
1000
AcDbSavedByObjectVersion
1070
     0
  0
VISUALSTYLE
  5
A3
102
{ACAD_REACTORS
330
99
102
}
330
99
100
AcDbVisualStyle
  2
Realistic
 70
     8
 71
     2
 72
     2
 73
     1
 90
        0
 40
-0.6
 41
-30.0
 62
     5
 63
     7
 74
     1
 91
        0
 64
     7
 65
   257
 75
     1
175
     1
 42
1.0
 92
        8
 66
     8
 43
1.0
 76
     1
 77
     6
 78
     2
 67
     7
 79
     5
170
     0
171
     0
290
     0
174
     0
 93
       13
 44
0.0
173
     0
291
     0
 45
0.0
1001
ACAD
1000
AcDbSavedByObjectVersion
1070
     0
  0
VISUALSTYLE
  5
A6
102
{ACAD_REACTORS
330
99
102
}
330
99
100
AcDbVisualStyle
  2
Thicken
 70
    13
 71
     2
 72
     2
 73
     1
 90
        0
 40
-0.6
 41
-30.0
 62
     5
 63
     7
 74
     1
 91
        4
 64
     7
 65
   257
 75
     1
175
     1
 42
1.0
 92
       12
 66
     7
 43
1.0
 76
     1
 77
     6
 78
     2
 67
     7
 79
     5
170
     0
171
     0
290
     0
174
     0
 93
        1
 44
0.0
173
     0
291
     1
 45
0.0
1001
ACAD
1000
AcDbSavedByObjectVersion
1070
     0
  0
DICTIONARYVAR
  5
89
102
{ACAD_REACTORS
330
66
102
}
330
66
100
DictionaryVariables
280
     0
  1
STANDARD
  0
DICTIONARYVAR
  5
67
102
{ACAD_REACTORS
330
66
102
}
330
66
100
DictionaryVariables
280
     0
  1
2
  0
DICTIONARYVAR
  5
6B
102
{ACAD_REACTORS
330
66
102
}
330
66
100
DictionaryVariables
280
     0
  1
1
  0
DICTIONARYVAR
  5
600
102
{ACAD_REACTORS
330
66
102
}
330
66
100
DictionaryVariables
280
     0
  1
0
  0
DICTIONARYVAR
  5
5FF
102
{ACAD_REACTORS
330
66
102
}
330
66
100
DictionaryVariables
280
     0
  1
127
  0
DICTIONARY
  5
604
330
59
100
AcDbDictionary
280
     1
281
     1
  3
ACAD_XREC_ROUNDTRIP
360
605
  0
DICTIONARY
  5
606
330
5E
100
AcDbDictionary
280
     1
281
     1
  3
ACAD_XREC_ROUNDTRIP
360
607
  0
DICTIONARY
  5
602
330
22
100
AcDbDictionary
280
     1
281
     1
  3
ACAD_XREC_ROUNDTRIP
360
603
  0
DICTIONARY
  5
60C
330
97
100
AcDbDictionary
280
     1
281
     1
  3
ACAD_XREC_ROUNDTRIP
360
60D
  0
DICTIONARY
  5
60A
330
96
100
AcDbDictionary
280
     1
281
     1
  3
ACAD_XREC_ROUNDTRIP
360
60B
  0
DICTIONARY
  5
60E
330
98
100
AcDbDictionary
280
     1
281
     1
  3
ACAD_XREC_ROUNDTRIP
360
60F
  0
DICTIONARY
  5
608
330
87
100
AcDbDictionary
280
     1
281
     1
  3
ACAD_XREC_ROUNDTRIP
360
609
  0
XRECORD
  5
605
102
{ACAD_REACTORS
330
604
102
}
330
604
100
AcDbXrecord
280
     1
102
SHADEPLOT
 70
     0
102
SHADEPLOTRESLEVEL
 70
     2
102
SHADEPLOTCUSTOMDPI
 70
   300
  0
XRECORD
  5
607
102
{ACAD_REACTORS
330
606
102
}
330
606
100
AcDbXrecord
280
     1
102
SHADEPLOT
 70
     0
102
SHADEPLOTRESLEVEL
 70
     2
102
SHADEPLOTCUSTOMDPI
 70
   300
  0
XRECORD
  5
603
102
{ACAD_REACTORS
330
602
102
}
330
602
100
AcDbXrecord
280
     1
102
SHADEPLOT
 70
     0
102
SHADEPLOTRESLEVEL
 70
     2
102
SHADEPLOTCUSTOMDPI
 70
   300
  0
XRECORD
  5
60D
102
{ACAD_REACTORS
330
60C
102
}
330
60C
100
AcDbXrecord
280
     1
102
MATERIAL
148
0.0
149
0.0
149
0.0
 93
        0
 94
       63
282
     0
 72
     1
 77
     1
171
     1
175
     1
179
     1
273
     0
  0
XRECORD
  5
60B
102
{ACAD_REACTORS
330
60A
102
}
330
60A
100
AcDbXrecord
280
     1
102
MATERIAL
148
0.0
149
0.0
149
0.0
 93
        0
 94
       63
282
     0
 72
     1
 77
     1
171
     1
175
     1
179
     1
273
     0
  0
XRECORD
  5
60F
102
{ACAD_REACTORS
330
60E
102
}
330
60E
100
AcDbXrecord
280
     1
102
MATERIAL
148
0.0
149
0.0
149
0.0
 93
        0
 94
       63
282
     0
 72
     1
 77
     1
171
     1
175
     1
179
     1
273
     0
  0
XRECORD
  5
609
102
{ACAD_REACTORS
330
608
102
}
330
608
100
AcDbXrecord
280
     1
102
ACAD_ROUNDTRIP_PRE2007_TABLESTYLE
 90
      512
 91
        0
  1

 92
      512
 93
        0
  2

 94
      512
 95
        0
  3

  0
ENDSEC
  0
EOF
