  0
SECTION
  2
HEADER
  9
$ACADVER
  1
AC1015
  9
$ACADMAINTVER
 70
    20
  9
$DWGCODEPAGE
  3
ANSI_1252
  9
$INSBASE
 10
0.0
 20
0.0
 30
0.0
  9
$EXTMIN
 10
48.63187410815552
 20
20.46432082907757
 30
0.0
  9
$EXTMAX
 10
370.0598837983808
 20
290.2101310841624
 30
0.0
  9
$LIMMIN
 10
0.0
 20
0.0
  9
$LIMMAX
 10
12.0
 20
9.0
  9
$ORTHOMODE
 70
     0
  9
$REGENMODE
 70
     1
  9
$FILLMODE
 70
     1
  9
$QTEXTMODE
 70
     0
  9
$MIRRTEXT
 70
     0
  9
$LTSCALE
 40
1.0
  9
$ATTMODE
 70
     1
  9
$TEXTSIZE
 40
0.2
  9
$TRACEWID
 40
0.05
  9
$TEXTSTYLE
  7
Standard
  9
$CLAYER
  8
0
  9
$CELTYPE
  6
ByLayer
  9
$CECOLOR
 62
   256
  9
$CELTSCALE
 40
1.0
  9
$DISPSILH
 70
     0
  9
$DIMSCALE
 40
1.0
  9
$DIMASZ
 40
0.18
  9
$DIMEXO
 40
0.0625
  9
$DIMDLI
 40
0.38
  9
$DIMRND
 40
0.0
  9
$DIMDLE
 40
0.0
  9
$DIMEXE
 40
0.18
  9
$DIMTP
 40
0.0
  9
$DIMTM
 40
0.0
  9
$DIMTXT
 40
0.18
  9
$DIMCEN
 40
0.09
  9
$DIMTSZ
 40
0.0
  9
$DIMTOL
 70
     0
  9
$DIMLIM
 70
     0
  9
$DIMTIH
 70
     1
  9
$DIMTOH
 70
     1
  9
$DIMSE1
 70
     0
  9
$DIMSE2
 70
     0
  9
$DIMTAD
 70
     0
  9
$DIMZIN
 70
     0
  9
$DIMBLK
  1

  9
$DIMASO
 70
     1
  9
$DIMSHO
 70
     1
  9
$DIMPOST
  1

  9
$DIMAPOST
  1

  9
$DIMALT
 70
     0
  9
$DIMALTD
 70
     2
  9
$DIMALTF
 40
25.4
  9
$DIMLFAC
 40
1.0
  9
$DIMTOFL
 70
     0
  9
$DIMTVP
 40
0.0
  9
$DIMTIX
 70
     0
  9
$DIMSOXD
 70
     0
  9
$DIMSAH
 70
     0
  9
$DIMBLK1
  1

  9
$DIMBLK2
  1

  9
$DIMSTYLE
  2
Standard
  9
$DIMCLRD
 70
     0
  9
$DIMCLRE
 70
     0
  9
$DIMCLRT
 70
     0
  9
$DIMTFAC
 40
1.0
  9
$DIMGAP
 40
0.09
  9
$DIMJUST
 70
     0
  9
$DIMSD1
 70
     0
  9
$DIMSD2
 70
     0
  9
$DIMTOLJ
 70
     1
  9
$DIMTZIN
 70
     0
  9
$DIMALTZ
 70
     0
  9
$DIMALTTZ
 70
     0
  9
$DIMUPT
 70
     0
  9
$DIMDEC
 70
     4
  9
$DIMTDEC
 70
     4
  9
$DIMALTU
 70
     2
  9
$DIMALTTD
 70
     2
  9
$DIMTXSTY
  7
Standard
  9
$DIMAUNIT
 70
     0
  9
$DIMADEC
 70
     0
  9
$DIMALTRND
 40
0.0
  9
$DIMAZIN
 70
     0
  9
$DIMDSEP
 70
    46
  9
$DIMATFIT
 70
     3
  9
$DIMFRAC
 70
     0
  9
$DIMLDRBLK
  1

  9
$DIMLUNIT
 70
     2
  9
$DIMLWD
 70
    -2
  9
$DIMLWE
 70
    -2
  9
$DIMTMOVE
 70
     0
  9
$LUNITS
 70
     2
  9
$LUPREC
 70
     4
  9
$SKETCHINC
 40
0.1
  9
$FILLETRAD
 40
0.0
  9
$AUNITS
 70
     0
  9
$AUPREC
 70
     0
  9
$MENU
  1
.
  9
$ELEVATION
 40
0.0
  9
$PELEVATION
 40
0.0
  9
$THICKNESS
 40
0.0
  9
$LIMCHECK
 70
     0
  9
$CHAMFERA
 40
0.0
  9
$CHAMFERB
 40
0.0
  9
$CHAMFERC
 40
0.0
  9
$CHAMFERD
 40
0.0
  9
$SKPOLY
 70
     0
  9
$TDCREATE
 40
2458493.510017419
  9
$TDUCREATE
 40
2458493.218350752
  9
$TDUPDATE
 40
2458493.510373241
  9
$TDUUPDATE
 40
2458493.218706574
  9
$TDINDWG
 40
0.0003568171
  9
$TDUSRTIMER
 40
0.0003567593
  9
$USRTIMER
 70
     1
  9
$ANGBASE
 50
0.0
  9
$ANGDIR
 70
     0
  9
$PDMODE
 70
     0
  9
$PDSIZE
 40
0.0
  9
$PLINEWID
 40
0.0
  9
$SPLFRAME
 70
     0
  9
$SPLINETYPE
 70
     6
  9
$SPLINESEGS
 70
     8
  9
$HANDSEED
  5
604
  9
$SURFTAB1
 70
     6
  9
$SURFTAB2
 70
     6
  9
$SURFTYPE
 70
     6
  9
$SURFU
 70
     6
  9
$SURFV
 70
     6
  9
$UCSBASE
  2

  9
$UCSNAME
  2

  9
$UCSORG
 10
0.0
 20
0.0
 30
0.0
  9
$UCSXDIR
 10
1.0
 20
0.0
 30
0.0
  9
$UCSYDIR
 10
0.0
 20
1.0
 30
0.0
  9
$UCSORTHOREF
  2

  9
$UCSORTHOVIEW
 70
     0
  9
$UCSORGTOP
 10
0.0
 20
0.0
 30
0.0
  9
$UCSORGBOTTOM
 10
0.0
 20
0.0
 30
0.0
  9
$UCSORGLEFT
 10
0.0
 20
0.0
 30
0.0
  9
$UCSORGRIGHT
 10
0.0
 20
0.0
 30
0.0
  9
$UCSORGFRONT
 10
0.0
 20
0.0
 30
0.0
  9
$UCSORGBACK
 10
0.0
 20
0.0
 30
0.0
  9
$PUCSBASE
  2

  9
$PUCSNAME
  2

  9
$PUCSORG
 10
0.0
 20
0.0
 30
0.0
  9
$PUCSXDIR
 10
1.0
 20
0.0
 30
0.0
  9
$PUCSYDIR
 10
0.0
 20
1.0
 30
0.0
  9
$PUCSORTHOREF
  2

  9
$PUCSORTHOVIEW
 70
     0
  9
$PUCSORGTOP
 10
0.0
 20
0.0
 30
0.0
  9
$PUCSORGBOTTOM
 10
0.0
 20
0.0
 30
0.0
  9
$PUCSORGLEFT
 10
0.0
 20
0.0
 30
0.0
  9
$PUCSORGRIGHT
 10
0.0
 20
0.0
 30
0.0
  9
$PUCSORGFRONT
 10
0.0
 20
0.0
 30
0.0
  9
$PUCSORGBACK
 10
0.0
 20
0.0
 30
0.0
  9
$USERI1
 70
     0
  9
$USERI2
 70
     0
  9
$USERI3
 70
     0
  9
$USERI4
 70
     0
  9
$USERI5
 70
     0
  9
$USERR1
 40
0.0
  9
$USERR2
 40
0.0
  9
$USERR3
 40
0.0
  9
$USERR4
 40
0.0
  9
$USERR5
 40
0.0
  9
$WORLDVIEW
 70
     1
  9
$SHADEDGE
 70
     3
  9
$SHADEDIF
 70
    70
  9
$TILEMODE
 70
     1
  9
$MAXACTVP
 70
    64
  9
$PINSBASE
 10
0.0
 20
0.0
 30
0.0
  9
$PLIMCHECK
 70
     0
  9
$PEXTMIN
 10
0.0
 20
0.0
 30
0.0
  9
$PEXTMAX
 10
0.0
 20
0.0
 30
0.0
  9
$PLIMMIN
 10
0.0
 20
0.0
  9
$PLIMMAX
 10
12.0
 20
9.0
  9
$UNITMODE
 70
     0
  9
$VISRETAIN
 70
     1
  9
$PLINEGEN
 70
     0
  9
$PSLTSCALE
 70
     1
  9
$TREEDEPTH
 70
  3020
  9
$CMLSTYLE
  2
Standard
  9
$CMLJUST
 70
     0
  9
$CMLSCALE
 40
1.0
  9
$PROXYGRAPHICS
 70
     1
  9
$MEASUREMENT
 70
     0
  9
$CELWEIGHT
370
    -1
  9
$ENDCAPS
280
     0
  9
$JOINSTYLE
280
     0
  9
$LWDISPLAY
290
     0
  9
$INSUNITS
 70
     1
  9
$HYPERLINKBASE
  1

  9
$STYLESHEET
  1

  9
$XEDIT
290
     1
  9
$CEPSNTYPE
380
     0
  9
$PSTYLEMODE
290
     1
  9
$FINGERPRINTGUID
  2
{BF8F3338-04E0-447C-AEAC-CBCB1F98CF0B}
  9
$VERSIONGUID
  2
{E5DDBFDA-1CF9-4976-8FD7-81E3D969D61B}
  9
$EXTNAMES
290
     1
  9
$PSVPSCALE
 40
0.0
  9
$OLESTARTUP
290
     0
  0
ENDSEC
  0
SECTION
  2
CLASSES
  0
CLASS
  1
ACDBDICTIONARYWDFLT
  2
AcDbDictionaryWithDefault
  3
ObjectDBX Classes
 90
        0
280
     0
281
     0
  0
CLASS
  1
ACDBPLACEHOLDER
  2
AcDbPlaceHolder
  3
ObjectDBX Classes
 90
        0
280
     0
281
     0
  0
CLASS
  1
LAYOUT
  2
AcDbLayout
  3
ObjectDBX Classes
 90
        0
280
     0
281
     0
  0
CLASS
  1
DICTIONARYVAR
  2
AcDbDictionaryVar
  3
ObjectDBX Classes
 90
        0
280
     0
281
     0
  0
CLASS
  1
TABLESTYLE
  2
AcDbTableStyle
  3
ObjectDBX Classes
 90
     4095
280
     0
281
     0
  0
CLASS
  1
MATERIAL
  2
AcDbMaterial
  3
ObjectDBX Classes
 90
     1153
280
     0
281
     0
  0
CLASS
  1
VISUALSTYLE
  2
AcDbVisualStyle
  3
ObjectDBX Classes
 90
     4095
280
     0
281
     0
  0
CLASS
  1
DIMASSOC
  2
AcDbDimAssoc
  3
"AcDbDimAssoc|Product Desc:     AcDim ARX App For Dimension|Company:          Autodesk, Inc.|WEB Address:      www.autodesk.com"
 90
        0
280
     0
281
     0
  0
CLASS
  1
SORTENTSTABLE
  2
AcDbSortentsTable
  3
ObjectDBX Classes
 90
        0
280
     0
281
     0
  0
ENDSEC
  0
SECTION
  2
TABLES
  0
TABLE
  2
VPORT
  5
8
330
0
100
AcDbSymbolTable
 70
     1
  0
VPORT
  5
94
330
8
100
AcDbSymbolTableRecord
100
AcDbViewportTableRecord
  2
*Active
 70
     0
 10
0.0
 20
0.0
 11
1.0
 21
1.0
 12
230.1132649993399
 22
211.394405563294
 13
0.0
 23
0.0
 14
0.5
 24
0.5
 15
0.5
 25
0.5
 16
0.0
 26
0.0
 36
1.0
 17
0.0
 27
0.0
 37
0.0
 40
1198.145833225831
 41
2.23076923076923
 42
50.0
 43
0.0
 44
0.0
 50
0.0
 51
0.0
 71
     0
 72
  1000
 73
     1
 74
     3
 75
     0
 76
     0
 77
     0
 78
     0
281
     0
 65
     1
110
0.0
120
0.0
130
0.0
111
1.0
121
0.0
131
0.0
112
0.0
122
1.0
132
0.0
 79
     0
146
0.0
  0
ENDTAB
  0
TABLE
  2
LTYPE
  5
5
330
0
100
AcDbSymbolTable
 70
     1
  0
LTYPE
  5
14
330
5
100
AcDbSymbolTableRecord
100
AcDbLinetypeTableRecord
  2
ByBlock
 70
     0
  3

 72
    65
 73
     0
 40
0.0
  0
LTYPE
  5
15
330
5
100
AcDbSymbolTableRecord
100
AcDbLinetypeTableRecord
  2
ByLayer
 70
     0
  3

 72
    65
 73
     0
 40
0.0
  0
LTYPE
  5
16
330
5
100
AcDbSymbolTableRecord
100
AcDbLinetypeTableRecord
  2
Continuous
 70
     0
  3
Solid line
 72
    65
 73
     0
 40
0.0
  0
ENDTAB
  0
TABLE
  2
LAYER
  5
2
102
{ACAD_XDICTIONARY
360
120
102
}
330
0
100
AcDbSymbolTable
 70
     2
  0
LAYER
  5
10
330
2
100
AcDbSymbolTableRecord
100
AcDbLayerTableRecord
  2
0
 70
     0
 62
     7
  6
Continuous
370
    -3
390
F
  0
LAYER
  5
11D
330
2
100
AcDbSymbolTableRecord
100
AcDbLayerTableRecord
  2
Defpoints
 70
     0
 62
     7
  6
Continuous
290
     0
370
    -3
390
F
  0
ENDTAB
  0
TABLE
  2
STYLE
  5
3
330
0
100
AcDbSymbolTable
 70
     1
  0
STYLE
  5
11
330
3
100
AcDbSymbolTableRecord
100
AcDbTextStyleTableRecord
  2
Standard
 70
     0
 40
0.0
 41
1.0
 50
0.0
 71
     0
 42
0.2
  3
txt
  4

  0
ENDTAB
  0
TABLE
  2
VIEW
  5
6
330
0
100
AcDbSymbolTable
 70
     0
  0
ENDTAB
  0
TABLE
  2
UCS
  5
7
330
0
100
AcDbSymbolTable
 70
     0
  0
ENDTAB
  0
TABLE
  2
APPID
  5
9
330
0
100
AcDbSymbolTable
 70
     2
  0
APPID
  5
12
330
9
100
AcDbSymbolTableRecord
100
AcDbRegAppTableRecord
  2
ACAD
 70
     0
  0
APPID
  5
603
330
9
100
AcDbSymbolTableRecord
100
AcDbRegAppTableRecord
  2
ACAD_DSTYLE_DIMTEXT_FILL
 70
     0
  0
ENDTAB
  0
TABLE
  2
DIMSTYLE
  5
A
330
0
100
AcDbSymbolTable
 70
     3
100
AcDbDimStyleTable
 71
     0
  0
DIMSTYLE
105
27
330
A
100
AcDbSymbolTableRecord
100
AcDbDimStyleTableRecord
  2
Standard
 70
     0
340
11
  0
DIMSTYLE
105
11E
102
{ACAD_REACTORS
330
32F
330
333
330
336
330
339
330
33C
330
33F
330
342
330
345
330
565
330
569
330
56C
330
56F
330
572
330
575
330
578
330
57B
102
}
330
A
100
AcDbSymbolTableRecord
100
AcDbDimStyleTableRecord
  2
MV
 70
     0
 41
6.0
 73
     0
 77
     3
 78
     8
140
10.0
141
5.0
147
3.0
176
     9
177
     9
178
   256
271
     0
272
     0
340
11
342
B9
  0
DIMSTYLE
105
11F
330
A
100
AcDbSymbolTableRecord
100
AcDbDimStyleTableRecord
  2
MV2
 70
     0
 41
6.0
 73
     0
 77
     3
 78
     8
140
5.0
141
5.0
147
3.0
176
     9
177
     9
178
   256
271
     0
272
     0
340
11
342
B9
  0
ENDTAB
  0
TABLE
  2
BLOCK_RECORD
  5
1
330
0
100
AcDbSymbolTable
 70
    19
  0
BLOCK_RECORD
  5
1F
330
1
100
AcDbSymbolTableRecord
100
AcDbBlockTableRecord
  2
*Model_Space
340
22
  0
BLOCK_RECORD
  5
58
330
1
100
AcDbSymbolTableRecord
100
AcDbBlockTableRecord
  2
*Paper_Space
340
59
  0
BLOCK_RECORD
  5
5D
330
1
100
AcDbSymbolTableRecord
100
AcDbBlockTableRecord
  2
*Paper_Space0
340
5E
  0
BLOCK_RECORD
  5
B9
330
1
100
AcDbSymbolTableRecord
100
AcDbBlockTableRecord
  2
_Oblique
340
0
102
{BLKREFS
331
C2
331
C3
331
CE
331
CF
331
DA
331
DB
331
E6
331
E7
331
F2
331
F3
331
FE
331
FF
331
10A
331
10B
331
116
331
117
331
58D
331
58E
331
599
331
59A
331
5A5
331
5A6
331
5B1
331
5B2
331
5BD
331
5BE
331
5C9
331
5CA
331
5D5
331
5D6
331
5EC
331
5ED
102
}
  0
BLOCK_RECORD
  5
BD
330
1
100
AcDbSymbolTableRecord
100
AcDbBlockTableRecord
  2
*D2
340
0
  0
BLOCK_RECORD
  5
C9
330
1
100
AcDbSymbolTableRecord
100
AcDbBlockTableRecord
  2
*D3
340
0
  0
BLOCK_RECORD
  5
D5
330
1
100
AcDbSymbolTableRecord
100
AcDbBlockTableRecord
  2
*D4
340
0
  0
BLOCK_RECORD
  5
E1
330
1
100
AcDbSymbolTableRecord
100
AcDbBlockTableRecord
  2
*D5
340
0
  0
BLOCK_RECORD
  5
ED
330
1
100
AcDbSymbolTableRecord
100
AcDbBlockTableRecord
  2
*D6
340
0
  0
BLOCK_RECORD
  5
F9
330
1
100
AcDbSymbolTableRecord
100
AcDbBlockTableRecord
  2
*D7
340
0
  0
BLOCK_RECORD
  5
105
330
1
100
AcDbSymbolTableRecord
100
AcDbBlockTableRecord
  2
*D8
340
0
  0
BLOCK_RECORD
  5
111
330
1
100
AcDbSymbolTableRecord
100
AcDbBlockTableRecord
  2
*D9
340
0
  0
BLOCK_RECORD
  5
589
330
1
100
AcDbSymbolTableRecord
100
AcDbBlockTableRecord
  2
*D11
340
0
  0
BLOCK_RECORD
  5
595
330
1
100
AcDbSymbolTableRecord
100
AcDbBlockTableRecord
  2
*D12
340
0
  0
BLOCK_RECORD
  5
5A1
330
1
100
AcDbSymbolTableRecord
100
AcDbBlockTableRecord
  2
*D13
340
0
  0
BLOCK_RECORD
  5
5AD
330
1
100
AcDbSymbolTableRecord
100
AcDbBlockTableRecord
  2
*D14
340
0
  0
BLOCK_RECORD
  5
5B9
330
1
100
AcDbSymbolTableRecord
100
AcDbBlockTableRecord
  2
*D15
340
0
  0
BLOCK_RECORD
  5
5C5
330
1
100
AcDbSymbolTableRecord
100
AcDbBlockTableRecord
  2
*D16
340
0
  0
BLOCK_RECORD
  5
5D1
330
1
100
AcDbSymbolTableRecord
100
AcDbBlockTableRecord
  2
*D17
340
0
  0
BLOCK_RECORD
  5
5DD
330
1
100
AcDbSymbolTableRecord
100
AcDbBlockTableRecord
  2
*D18
340
0
  0
ENDTAB
  0
ENDSEC
  0
SECTION
  2
BLOCKS
  0
BLOCK
  5
20
330
1F
100
AcDbEntity
  8
0
100
AcDbBlockBegin
  2
*Model_Space
 70
     0
 10
0.0
 20
0.0
 30
0.0
  3
*Model_Space
  1

  0
ENDBLK
  5
21
330
1F
100
AcDbEntity
  8
0
100
AcDbBlockEnd
  0
BLOCK
  5
5A
330
58
100
AcDbEntity
 67
     1
  8
0
100
AcDbBlockBegin
  2
*Paper_Space
 70
     0
 10
0.0
 20
0.0
 30
0.0
  3
*Paper_Space
  1

  0
ENDBLK
  5
5B
330
58
100
AcDbEntity
 67
     1
  8
0
100
AcDbBlockEnd
  0
BLOCK
  5
5F
330
5D
100
AcDbEntity
 67
     1
  8
0
100
AcDbBlockBegin
  2
*Paper_Space0
 70
     0
 10
0.0
 20
0.0
 30
0.0
  3
*Paper_Space0
  1

  0
ENDBLK
  5
60
330
5D
100
AcDbEntity
 67
     1
  8
0
100
AcDbBlockEnd
  0
BLOCK
  5
BA
330
B9
100
AcDbEntity
  8
0
100
AcDbBlockBegin
  2
_Oblique
 70
     0
 10
0.0
 20
0.0
 30
0.0
  3
_Oblique
  1

  0
LINE
  5
BB
330
B9
100
AcDbEntity
  8
0
  6
ByBlock
 62
     0
370
    -2
100
AcDbLine
 10
-0.5
 20
-0.5
 30
0.0
 11
0.5
 21
0.5
 31
0.0
  0
ENDBLK
  5
BC
330
B9
100
AcDbEntity
  8
0
100
AcDbBlockEnd
  0
BLOCK
  5
BE
330
BD
100
AcDbEntity
  8
0
100
AcDbBlockBegin
  2
*D2
 70
     1
 10
0.0
 20
0.0
 30
0.0
  3
*D2
  1

  0
LINE
  5
BF
330
BD
100
AcDbEntity
  8
0
 62
     9
370
    -2
100
AcDbLine
 10
159.5018010521871
 20
-153.3726909841473
 30
0.0
 11
177.5289811511776
 21
-153.3726909841473
 31
0.0
  0
LINE
  5
C0
330
BD
100
AcDbEntity
  8
0
 62
     9
370
    -2
100
AcDbLine
 10
159.5018010521871
 20
-253.9351909841474
 30
0.0
 11
177.5289811511776
 21
-253.9351909841474
 31
0.0
  0
LINE
  5
C1
330
BD
100
AcDbEntity
  8
0
 62
     9
370
    -2
100
AcDbLine
 10
177.3489811511776
 20
-153.3726909841473
 30
0.0
 11
177.3489811511776
 21
-253.9351909841474
 31
0.0
  0
INSERT
  5
C2
330
BD
100
AcDbEntity
  8
0
 62
     9
370
    -2
100
AcDbBlockReference
  2
_Oblique
 10
177.3489811511776
 20
-153.3726909841473
 30
0.0
 41
6.0
 42
6.0
 43
6.0
 50
90.0
  0
INSERT
  5
C3
330
BD
100
AcDbEntity
  8
0
 62
     9
370
    -2
100
AcDbBlockReference
  2
_Oblique
 10
177.3489811511776
 20
-253.9351909841474
 30
0.0
 41
6.0
 42
6.0
 43
6.0
 50
270.0
  0
MTEXT
  5
C4
330
BD
100
AcDbEntity
  8
0
370
    40
100
AcDbMText
 10
169.3489811511777
 20
-203.6539409841473
 30
0.0
 40
10.0
 41
0.0
 71
     5
 72
     1
  1
\A1;101
 11
0.0000000000000001
 21
1.0
 31
0.0
 73
     1
 44
1.0
1001
ACAD
1000
MTEXTBEGIN
1070
    73
1070
     1
1070
    44
1040
1.0
1070
    74
1070
     0
1000
MTEXTEND
  0
POINT
  5
C5
330
BD
100
AcDbEntity
  8
Defpoints
 62
     0
100
AcDbPoint
 10
159.4393010521871
 20
-153.3726909841473
 30
0.0
  0
POINT
  5
C6
330
BD
100
AcDbEntity
  8
Defpoints
 62
     0
100
AcDbPoint
 10
159.4393010521871
 20
-253.9351909841474
 30
0.0
  0
POINT
  5
C7
330
BD
100
AcDbEntity
  8
Defpoints
 62
     0
100
AcDbPoint
 10
177.3489811511776
 20
-253.9351909841474
 30
0.0
  0
ENDBLK
  5
C8
330
BD
100
AcDbEntity
  8
0
100
AcDbBlockEnd
  0
BLOCK
  5
CA
330
C9
100
AcDbEntity
  8
0
100
AcDbBlockBegin
  2
*D3
 70
     1
 10
0.0
 20
0.0
 30
0.0
  3
*D3
  1

  0
LINE
  5
CB
330
C9
100
AcDbEntity
  8
0
 62
     9
370
    -2
100
AcDbLine
 10
150.7518010521871
 20
-141.1851909841472
 30
0.0
 11
196.1508007524831
 21
-141.1851909841473
 31
0.0
  0
LINE
  5
CC
330
C9
100
AcDbEntity
  8
0
 62
     9
370
    -2
100
AcDbLine
 10
150.7518010521871
 20
-266.1851909841473
 30
0.0
 11
196.1508007524831
 21
-266.1851909841473
 31
0.0
  0
LINE
  5
CD
330
C9
100
AcDbEntity
  8
0
 62
     9
370
    -2
100
AcDbLine
 10
195.9708007524831
 20
-141.1851909841473
 30
0.0
 11
195.9708007524831
 21
-266.1851909841473
 31
0.0
  0
INSERT
  5
CE
330
C9
100
AcDbEntity
  8
0
 62
     9
370
    -2
100
AcDbBlockReference
  2
_Oblique
 10
195.9708007524831
 20
-141.1851909841473
 30
0.0
 41
6.0
 42
6.0
 43
6.0
 50
90.0
  0
INSERT
  5
CF
330
C9
100
AcDbEntity
  8
0
 62
     9
370
    -2
100
AcDbBlockReference
  2
_Oblique
 10
195.9708007524831
 20
-266.1851909841473
 30
0.0
 41
6.0
 42
6.0
 43
6.0
 50
270.0
  0
MTEXT
  5
D0
330
C9
100
AcDbEntity
  8
0
370
    40
100
AcDbMText
 10
187.9708007524831
 20
-203.6851909841473
 30
0.0
 40
10.0
 41
0.0
 71
     5
 72
     1
  1
\A1;125
 11
0.0000000000000001
 21
1.0
 31
0.0
 73
     1
 44
1.0
1001
ACAD
1000
MTEXTBEGIN
1070
    73
1070
     1
1070
    44
1040
1.0
1070
    74
1070
     0
1000
MTEXTEND
  0
POINT
  5
D1
330
C9
100
AcDbEntity
  8
Defpoints
 62
     0
100
AcDbPoint
 10
150.6893010521871
 20
-141.1851909841472
 30
0.0
  0
POINT
  5
D2
330
C9
100
AcDbEntity
  8
Defpoints
 62
     0
100
AcDbPoint
 10
150.6893010521871
 20
-266.1851909841473
 30
0.0
  0
POINT
  5
D3
330
C9
100
AcDbEntity
  8
Defpoints
 62
     0
100
AcDbPoint
 10
195.9708007524831
 20
-266.1851909841473
 30
0.0
  0
ENDBLK
  5
D4
330
C9
100
AcDbEntity
  8
0
100
AcDbBlockEnd
  0
BLOCK
  5
D6
330
D5
100
AcDbEntity
  8
0
100
AcDbBlockBegin
  2
*D4
 70
     1
 10
0.0
 20
0.0
 30
0.0
  3
*D4
  1

  0
LINE
  5
D7
330
D5
100
AcDbEntity
  8
0
 62
     9
370
    -2
100
AcDbLine
 10
48.68930105218711
 20
-141.1811772226794
 30
0.0
 11
48.68930105218711
 21
-131.2539963130247
 31
0.0
  0
LINE
  5
D8
330
D5
100
AcDbEntity
  8
0
 62
     9
370
    -2
100
AcDbLine
 10
150.6893010521871
 20
-141.1811772226794
 30
0.0
 11
150.6893010521871
 21
-131.2539963130247
 31
0.0
  0
LINE
  5
D9
330
D5
100
AcDbEntity
  8
0
 62
     9
370
    -2
100
AcDbLine
 10
48.68930105218711
 20
-131.4339963130247
 30
0.0
 11
150.6893010521871
 21
-131.4339963130247
 31
0.0
  0
INSERT
  5
DA
330
D5
100
AcDbEntity
  8
0
 62
     9
370
    -2
100
AcDbBlockReference
  2
_Oblique
 10
48.68930105218711
 20
-131.4339963130247
 30
0.0
 41
6.0
 42
6.0
 43
6.0
 50
180.0
  0
INSERT
  5
DB
330
D5
100
AcDbEntity
  8
0
 62
     9
370
    -2
100
AcDbBlockReference
  2
_Oblique
 10
150.6893010521871
 20
-131.4339963130247
 30
0.0
 41
6.0
 42
6.0
 43
6.0
  0
MTEXT
  5
DC
330
D5
100
AcDbEntity
  8
0
370
    40
100
AcDbMText
 10
99.68930105218712
 20
-123.4339963130247
 30
0.0
 40
10.0
 41
0.0
 71
     5
 72
     1
  1
\A1;102
 73
     1
 44
1.0
1001
ACAD
1000
MTEXTBEGIN
1070
    73
1070
     1
1070
    44
1040
1.0
1070
    74
1070
     0
1000
MTEXTEND
  0
POINT
  5
DD
330
D5
100
AcDbEntity
  8
Defpoints
 62
     0
100
AcDbPoint
 10
48.68930105218711
 20
-141.2436772226794
 30
0.0
  0
POINT
  5
DE
330
D5
100
AcDbEntity
  8
Defpoints
 62
     0
100
AcDbPoint
 10
150.6893010521871
 20
-141.2436772226794
 30
0.0
  0
POINT
  5
DF
330
D5
100
AcDbEntity
  8
Defpoints
 62
     0
100
AcDbPoint
 10
150.6893010521871
 20
-131.4339963130247
 30
0.0
  0
ENDBLK
  5
E0
330
D5
100
AcDbEntity
  8
0
100
AcDbBlockEnd
  0
BLOCK
  5
E2
330
E1
100
AcDbEntity
  8
0
100
AcDbBlockBegin
  2
*D5
 70
     1
 10
0.0
 20
0.0
 30
0.0
  3
*D5
  1

  0
LINE
  5
E3
330
E1
100
AcDbEntity
  8
0
 62
     9
370
    -2
100
AcDbLine
 10
40.93930105218711
 20
-153.3726909841473
 30
0.0
 11
40.93930105218711
 21
-115.7857202333052
 31
0.0
  0
LINE
  5
E4
330
E1
100
AcDbEntity
  8
0
 62
     9
370
    -2
100
AcDbLine
 10
159.4393010521871
 20
-153.3726909841473
 30
0.0
 11
159.4393010521871
 21
-115.7857202333052
 31
0.0
  0
LINE
  5
E5
330
E1
100
AcDbEntity
  8
0
 62
     9
370
    -2
100
AcDbLine
 10
40.93930105218711
 20
-115.9657202333052
 30
0.0
 11
159.4393010521871
 21
-115.9657202333052
 31
0.0
  0
INSERT
  5
E6
330
E1
100
AcDbEntity
  8
0
 62
     9
370
    -2
100
AcDbBlockReference
  2
_Oblique
 10
40.93930105218711
 20
-115.9657202333052
 30
0.0
 41
6.0
 42
6.0
 43
6.0
 50
180.0
  0
INSERT
  5
E7
330
E1
100
AcDbEntity
  8
0
 62
     9
370
    -2
100
AcDbBlockReference
  2
_Oblique
 10
159.4393010521871
 20
-115.9657202333052
 30
0.0
 41
6.0
 42
6.0
 43
6.0
  0
MTEXT
  5
E8
330
E1
100
AcDbEntity
  8
0
370
    40
100
AcDbMText
 10
100.1893010521871
 20
-107.9657202333052
 30
0.0
 40
10.0
 41
0.0
 71
     5
 72
     1
  1
\A1;119
 73
     1
 44
1.0
1001
ACAD
1000
MTEXTBEGIN
1070
    73
1070
     1
1070
    44
1040
1.0
1070
    74
1070
     0
1000
MTEXTEND
  0
POINT
  5
E9
330
E1
100
AcDbEntity
  8
Defpoints
 62
     0
100
AcDbPoint
 10
40.93930105218711
 20
-153.4351909841473
 30
0.0
  0
POINT
  5
EA
330
E1
100
AcDbEntity
  8
Defpoints
 62
     0
100
AcDbPoint
 10
159.4393010521871
 20
-153.4351909841473
 30
0.0
  0
POINT
  5
EB
330
E1
100
AcDbEntity
  8
Defpoints
 62
     0
100
AcDbPoint
 10
159.4393010521871
 20
-115.9657202333052
 30
0.0
  0
ENDBLK
  5
EC
330
E1
100
AcDbEntity
  8
0
100
AcDbBlockEnd
  0
BLOCK
  5
EE
330
ED
100
AcDbEntity
  8
0
100
AcDbBlockBegin
  2
*D6
 70
     1
 10
0.0
 20
0.0
 30
0.0
  3
*D6
  1

  0
LINE
  5
EF
330
ED
100
AcDbEntity
  8
0
 62
     9
370
    -2
100
AcDbLine
 10
40.93930105218711
 20
-315.6490304883901
 30
0.0
 11
40.93930105218711
 21
-303.8425316190466
 31
0.0
  0
LINE
  5
F0
330
ED
100
AcDbEntity
  8
0
 62
     9
370
    -2
100
AcDbLine
 10
159.4393010504627
 20
-315.6490304883901
 30
0.0
 11
159.4393010504627
 21
-303.8425316190466
 31
0.0
  0
LINE
  5
F1
330
ED
100
AcDbEntity
  8
0
 62
     9
370
    -2
100
AcDbLine
 10
40.93930105218711
 20
-304.0225316190466
 30
0.0
 11
159.4393010504627
 21
-304.0225316190466
 31
0.0
  0
INSERT
  5
F2
330
ED
100
AcDbEntity
  8
0
 62
     9
370
    -2
100
AcDbBlockReference
  2
_Oblique
 10
40.93930105218711
 20
-304.0225316190466
 30
0.0
 41
6.0
 42
6.0
 43
6.0
 50
180.0
  0
INSERT
  5
F3
330
ED
100
AcDbEntity
  8
0
 62
     9
370
    -2
100
AcDbBlockReference
  2
_Oblique
 10
159.4393010504627
 20
-304.0225316190466
 30
0.0
 41
6.0
 42
6.0
 43
6.0
  0
MTEXT
  5
F4
330
ED
100
AcDbEntity
  8
0
370
    40
100
AcDbMText
 10
100.1893010513249
 20
-296.0225316190466
 30
0.0
 40
10.0
 41
0.0
 71
     5
 72
     1
  1
\A1;119
 73
     1
 44
1.0
1001
ACAD
1000
MTEXTBEGIN
1070
    73
1070
     1
1070
    44
1040
1.0
1070
    74
1070
     0
1000
MTEXTEND
  0
POINT
  5
F5
330
ED
100
AcDbEntity
  8
Defpoints
 62
     0
100
AcDbPoint
 10
40.93930105218711
 20
-315.71153048839
 30
0.0
  0
POINT
  5
F6
330
ED
100
AcDbEntity
  8
Defpoints
 62
     0
100
AcDbPoint
 10
159.4393010504627
 20
-315.71153048839
 30
0.0
  0
POINT
  5
F7
330
ED
100
AcDbEntity
  8
Defpoints
 62
     0
100
AcDbPoint
 10
159.4393010504627
 20
-304.0225316190466
 30
0.0
  0
ENDBLK
  5
F8
330
ED
100
AcDbEntity
  8
0
100
AcDbBlockEnd
  0
BLOCK
  5
FA
330
F9
100
AcDbEntity
  8
0
100
AcDbBlockBegin
  2
*D7
 70
     1
 10
0.0
 20
0.0
 30
0.0
  3
*D7
  1

  0
LINE
  5
FB
330
F9
100
AcDbEntity
  8
0
 62
     9
370
    -2
100
AcDbLine
 10
41.87680105218722
 20
-314.7115304883901
 30
0.0
 11
28.45593060886555
 21
-314.7115304883901
 31
0.0
  0
LINE
  5
FC
330
F9
100
AcDbEntity
  8
0
 62
     9
370
    -2
100
AcDbLine
 10
40.87680105218711
 20
-369.71153048839
 30
0.0
 11
28.45593060886555
 21
-369.71153048839
 31
0.0
  0
LINE
  5
FD
330
F9
100
AcDbEntity
  8
0
 62
     9
370
    -2
100
AcDbLine
 10
28.63593060886556
 20
-314.7115304883901
 30
0.0
 11
28.63593060886554
 21
-369.71153048839
 31
0.0
  0
INSERT
  5
FE
330
F9
100
AcDbEntity
  8
0
 62
     9
370
    -2
100
AcDbBlockReference
  2
_Oblique
 10
28.63593060886556
 20
-314.7115304883901
 30
0.0
 41
6.0
 42
6.0
 43
6.0
 50
90.0
  0
INSERT
  5
FF
330
F9
100
AcDbEntity
  8
0
 62
     9
370
    -2
100
AcDbBlockReference
  2
_Oblique
 10
28.63593060886554
 20
-369.71153048839
 30
0.0
 41
6.0
 42
6.0
 43
6.0
 50
270.0
  0
MTEXT
  5
100
330
F9
100
AcDbEntity
  8
0
370
    40
100
AcDbMText
 10
20.6359306088656
 20
-342.21153048839
 30
0.0
 40
10.0
 41
0.0
 71
     5
 72
     1
  1
\A1;55
 11
0.0000000000000001
 21
1.0
 31
0.0
 73
     1
 44
1.0
1001
ACAD
1000
MTEXTBEGIN
1070
    73
1070
     1
1070
    44
1040
1.0
1070
    74
1070
     0
1000
MTEXTEND
  0
POINT
  5
101
330
F9
100
AcDbEntity
  8
Defpoints
 62
     0
100
AcDbPoint
 10
41.93930105218722
 20
-314.7115304883901
 30
0.0
  0
POINT
  5
102
330
F9
100
AcDbEntity
  8
Defpoints
 62
     0
100
AcDbPoint
 10
40.93930105218711
 20
-369.71153048839
 30
0.0
  0
POINT
  5
103
330
F9
100
AcDbEntity
  8
Defpoints
 62
     0
100
AcDbPoint
 10
28.63593060886554
 20
-369.71153048839
 30
0.0
  0
ENDBLK
  5
104
330
F9
100
AcDbEntity
  8
0
100
AcDbBlockEnd
  0
BLOCK
  5
106
330
105
100
AcDbEntity
  8
0
100
AcDbBlockBegin
  2
*D8
 70
     1
 10
0.0
 20
0.0
 30
0.0
  3
*D8
  1

  0
LINE
  5
107
330
105
100
AcDbEntity
  8
0
 62
     9
370
    -2
100
AcDbLine
 10
184.8278799453836
 20
-343.9355937814152
 30
0.0
 11
184.8278799453836
 21
-300.8425316190467
 31
0.0
  0
LINE
  5
108
330
105
100
AcDbEntity
  8
0
 62
     9
370
    -2
100
AcDbLine
 10
308.8278799453836
 20
-343.9355937814152
 30
0.0
 11
308.8278799453836
 21
-300.8425316190467
 31
0.0
  0
LINE
  5
109
330
105
100
AcDbEntity
  8
0
 62
     9
370
    -2
100
AcDbLine
 10
184.8278799453836
 20
-301.0225316190467
 30
0.0
 11
308.8278799453836
 21
-301.0225316190467
 31
0.0
  0
INSERT
  5
10A
330
105
100
AcDbEntity
  8
0
 62
     9
370
    -2
100
AcDbBlockReference
  2
_Oblique
 10
184.8278799453836
 20
-301.0225316190467
 30
0.0
 41
6.0
 42
6.0
 43
6.0
 50
180.0
  0
INSERT
  5
10B
330
105
100
AcDbEntity
  8
0
 62
     9
370
    -2
100
AcDbBlockReference
  2
_Oblique
 10
308.8278799453836
 20
-301.0225316190467
 30
0.0
 41
6.0
 42
6.0
 43
6.0
  0
MTEXT
  5
10C
330
105
100
AcDbEntity
  8
0
370
    40
100
AcDbMText
 10
246.8278799453836
 20
-293.0225316190467
 30
0.0
 40
10.0
 41
0.0
 71
     5
 72
     1
  1
\A1;124
 73
     1
 44
1.0
1001
ACAD
1000
MTEXTBEGIN
1070
    73
1070
     1
1070
    44
1040
1.0
1070
    74
1070
     0
1000
MTEXTEND
  0
POINT
  5
10D
330
105
100
AcDbEntity
  8
Defpoints
 62
     0
100
AcDbPoint
 10
184.8278799453836
 20
-343.9980937814151
 30
0.0
  0
POINT
  5
10E
330
105
100
AcDbEntity
  8
Defpoints
 62
     0
100
AcDbPoint
 10
308.8278799453836
 20
-343.9980937814151
 30
0.0
  0
POINT
  5
10F
330
105
100
AcDbEntity
  8
Defpoints
 62
     0
100
AcDbPoint
 10
308.8278799453836
 20
-301.0225316190467
 30
0.0
  0
ENDBLK
  5
110
330
105
100
AcDbEntity
  8
0
100
AcDbBlockEnd
  0
BLOCK
  5
112
330
111
100
AcDbEntity
  8
0
100
AcDbBlockBegin
  2
*D9
 70
     1
 10
0.0
 20
0.0
 30
0.0
  3
*D9
  1

  0
LINE
  5
113
330
111
100
AcDbEntity
  8
0
 62
     9
370
    -2
100
AcDbLine
 10
274.8903799453836
 20
-314.7115304883901
 30
0.0
 11
334.2439402990908
 21
-314.7115304883901
 31
0.0
  0
LINE
  5
114
330
111
100
AcDbEntity
  8
0
 62
     9
370
    -2
100
AcDbLine
 10
296.8903799453836
 20
-369.71153048839
 30
0.0
 11
334.2439402990908
 21
-369.71153048839
 31
0.0
  0
LINE
  5
115
330
111
100
AcDbEntity
  8
0
 62
     9
370
    -2
100
AcDbLine
 10
334.0639402990908
 20
-314.7115304883901
 30
0.0
 11
334.0639402990908
 21
-369.71153048839
 31
0.0
  0
INSERT
  5
116
330
111
100
AcDbEntity
  8
0
 62
     9
370
    -2
100
AcDbBlockReference
  2
_Oblique
 10
334.0639402990908
 20
-314.7115304883901
 30
0.0
 41
6.0
 42
6.0
 43
6.0
 50
90.0
  0
INSERT
  5
117
330
111
100
AcDbEntity
  8
0
 62
     9
370
    -2
100
AcDbBlockReference
  2
_Oblique
 10
334.0639402990908
 20
-369.71153048839
 30
0.0
 41
6.0
 42
6.0
 43
6.0
 50
270.0
  0
MTEXT
  5
118
330
111
100
AcDbEntity
  8
0
370
    40
100
AcDbMText
 10
326.0639402990908
 20
-342.2115304883899
 30
0.0
 40
10.0
 41
0.0
 71
     5
 72
     1
  1
\A1;55
 11
0.0000000000000001
 21
1.0
 31
0.0
 73
     1
 44
1.0
1001
ACAD
1000
MTEXTBEGIN
1070
    73
1070
     1
1070
    44
1040
1.0
1070
    74
1070
     0
1000
MTEXTEND
  0
POINT
  5
119
330
111
100
AcDbEntity
  8
Defpoints
 62
     0
100
AcDbPoint
 10
274.8278799453836
 20
-314.7115304883901
 30
0.0
  0
POINT
  5
11A
330
111
100
AcDbEntity
  8
Defpoints
 62
     0
100
AcDbPoint
 10
296.8278799453836
 20
-369.71153048839
 30
0.0
  0
POINT
  5
11B
330
111
100
AcDbEntity
  8
Defpoints
 62
     0
100
AcDbPoint
 10
334.0639402990908
 20
-369.71153048839
 30
0.0
  0
ENDBLK
  5
11C
330
111
100
AcDbEntity
  8
0
100
AcDbBlockEnd
  0
BLOCK
  5
593
330
589
100
AcDbEntity
  8
0
100
AcDbBlockBegin
  2
*D11
 70
     1
 10
0.0
 20
0.0
 30
0.0
  3
*D11
  1

  0
LINE
  5
58A
330
589
100
AcDbEntity
  8
0
 62
     9
370
    -2
100
AcDbLine
 10
192.4977445514771
 20
239.8031603333203
 30
0.0
 11
210.5249246504676
 21
239.8031603333203
 31
0.0
  0
LINE
  5
58B
330
589
100
AcDbEntity
  8
0
 62
     9
370
    -2
100
AcDbLine
 10
192.4977445514771
 20
139.2406603333202
 30
0.0
 11
210.5249246504676
 21
139.2406603333202
 31
0.0
  0
LINE
  5
58C
330
589
100
AcDbEntity
  8
0
 62
     9
370
    -2
100
AcDbLine
 10
210.3449246504677
 20
239.8031603333203
 30
0.0
 11
210.3449246504676
 21
139.2406603333202
 31
0.0
  0
INSERT
  5
58D
330
589
100
AcDbEntity
  8
0
 62
     9
370
    -2
100
AcDbBlockReference
  2
_Oblique
 10
210.3449246504677
 20
239.8031603333203
 30
0.0
 41
6.0
 42
6.0
 43
6.0
 50
90.0
  0
INSERT
  5
58E
330
589
100
AcDbEntity
  8
0
 62
     9
370
    -2
100
AcDbBlockReference
  2
_Oblique
 10
210.3449246504676
 20
139.2406603333202
 30
0.0
 41
6.0
 42
6.0
 43
6.0
 50
270.0
  0
MTEXT
  5
58F
330
589
100
AcDbEntity
  8
0
370
    40
100
AcDbMText
 10
202.3449246504676
 20
189.5219103333203
 30
0.0
 40
10.0
 41
0.0
 71
     5
 72
     1
  1
\A1;101
 11
0.0000000000000001
 21
1.0
 31
0.0
 73
     1
 44
1.0
1001
ACAD
1000
MTEXTBEGIN
1070
    73
1070
     1
1070
    44
1040
1.0
1070
    74
1070
     0
1000
MTEXTEND
  0
POINT
  5
590
330
589
100
AcDbEntity
  8
Defpoints
 62
     0
100
AcDbPoint
 10
192.4352445514771
 20
239.8031603333203
 30
0.0
  0
POINT
  5
591
330
589
100
AcDbEntity
  8
Defpoints
 62
     0
100
AcDbPoint
 10
192.4352445514771
 20
139.2406603333202
 30
0.0
  0
POINT
  5
592
330
589
100
AcDbEntity
  8
Defpoints
 62
     0
100
AcDbPoint
 10
210.3449246504676
 20
139.2406603333202
 30
0.0
  0
ENDBLK
  5
594
330
589
100
AcDbEntity
  8
0
100
AcDbBlockEnd
  0
BLOCK
  5
59F
330
595
100
AcDbEntity
  8
0
100
AcDbBlockBegin
  2
*D12
 70
     1
 10
0.0
 20
0.0
 30
0.0
  3
*D12
  1

  0
LINE
  5
596
330
595
100
AcDbEntity
  8
0
 62
     9
370
    -2
100
AcDbLine
 10
183.7477445514771
 20
251.9906603333203
 30
0.0
 11
229.1467442517731
 21
251.9906603333203
 31
0.0
  0
LINE
  5
597
330
595
100
AcDbEntity
  8
0
 62
     9
370
    -2
100
AcDbLine
 10
183.7477445514771
 20
126.9906603333202
 30
0.0
 11
229.1467442517731
 21
126.9906603333202
 31
0.0
  0
LINE
  5
598
330
595
100
AcDbEntity
  8
0
 62
     9
370
    -2
100
AcDbLine
 10
228.9667442517731
 20
251.9906603333203
 30
0.0
 11
228.9667442517731
 21
126.9906603333202
 31
0.0
  0
INSERT
  5
599
330
595
100
AcDbEntity
  8
0
 62
     9
370
    -2
100
AcDbBlockReference
  2
_Oblique
 10
228.9667442517731
 20
251.9906603333203
 30
0.0
 41
6.0
 42
6.0
 43
6.0
 50
90.0
  0
INSERT
  5
59A
330
595
100
AcDbEntity
  8
0
 62
     9
370
    -2
100
AcDbBlockReference
  2
_Oblique
 10
228.9667442517731
 20
126.9906603333202
 30
0.0
 41
6.0
 42
6.0
 43
6.0
 50
270.0
  0
MTEXT
  5
59B
330
595
100
AcDbEntity
  8
0
370
    40
100
AcDbMText
 10
220.966744251773
 20
189.4906603333203
 30
0.0
 40
10.0
 41
0.0
 71
     5
 72
     1
  1
\A1;125
 11
0.0000000000000001
 21
1.0
 31
0.0
 73
     1
 44
1.0
1001
ACAD
1000
MTEXTBEGIN
1070
    73
1070
     1
1070
    44
1040
1.0
1070
    74
1070
     0
1000
MTEXTEND
  0
POINT
  5
59C
330
595
100
AcDbEntity
  8
Defpoints
 62
     0
100
AcDbPoint
 10
183.6852445514771
 20
251.9906603333203
 30
0.0
  0
POINT
  5
59D
330
595
100
AcDbEntity
  8
Defpoints
 62
     0
100
AcDbPoint
 10
183.6852445514771
 20
126.9906603333202
 30
0.0
  0
POINT
  5
59E
330
595
100
AcDbEntity
  8
Defpoints
 62
     0
100
AcDbPoint
 10
228.9667442517731
 20
126.9906603333202
 30
0.0
  0
ENDBLK
  5
5A0
330
595
100
AcDbEntity
  8
0
100
AcDbBlockEnd
  0
BLOCK
  5
5AB
330
5A1
100
AcDbEntity
  8
0
100
AcDbBlockBegin
  2
*D13
 70
     1
 10
0.0
 20
0.0
 30
0.0
  3
*D13
  1

  0
LINE
  5
5A2
330
5A1
100
AcDbEntity
  8
0
 62
     9
370
    -2
100
AcDbLine
 10
81.68524455147709
 20
251.9946740947882
 30
0.0
 11
81.68524455147709
 21
261.9218550044429
 31
0.0
  0
LINE
  5
5A3
330
5A1
100
AcDbEntity
  8
0
 62
     9
370
    -2
100
AcDbLine
 10
183.6852445514771
 20
251.9946740947882
 30
0.0
 11
183.6852445514771
 21
261.9218550044429
 31
0.0
  0
LINE
  5
5A4
330
5A1
100
AcDbEntity
  8
0
 62
     9
370
    -2
100
AcDbLine
 10
81.68524455147709
 20
261.7418550044429
 30
0.0
 11
183.6852445514771
 21
261.7418550044429
 31
0.0
  0
INSERT
  5
5A5
330
5A1
100
AcDbEntity
  8
0
 62
     9
370
    -2
100
AcDbBlockReference
  2
_Oblique
 10
81.68524455147709
 20
261.7418550044429
 30
0.0
 41
6.0
 42
6.0
 43
6.0
 50
180.0
  0
INSERT
  5
5A6
330
5A1
100
AcDbEntity
  8
0
 62
     9
370
    -2
100
AcDbBlockReference
  2
_Oblique
 10
183.6852445514771
 20
261.7418550044429
 30
0.0
 41
6.0
 42
6.0
 43
6.0
  0
MTEXT
  5
5A7
330
5A1
100
AcDbEntity
  8
0
370
    40
100
AcDbMText
 10
132.6852445514771
 20
269.7418550044428
 30
0.0
 40
10.0
 41
0.0
 71
     5
 72
     1
  1
\A1;102
 73
     1
 44
1.0
1001
ACAD
1000
MTEXTBEGIN
1070
    73
1070
     1
1070
    44
1040
1.0
1070
    74
1070
     0
1000
MTEXTEND
  0
POINT
  5
5A8
330
5A1
100
AcDbEntity
  8
Defpoints
 62
     0
100
AcDbPoint
 10
81.68524455147709
 20
251.9321740947882
 30
0.0
  0
POINT
  5
5A9
330
5A1
100
AcDbEntity
  8
Defpoints
 62
     0
100
AcDbPoint
 10
183.6852445514771
 20
251.9321740947882
 30
0.0
  0
POINT
  5
5AA
330
5A1
100
AcDbEntity
  8
Defpoints
 62
     0
100
AcDbPoint
 10
183.6852445514771
 20
261.7418550044429
 30
0.0
  0
ENDBLK
  5
5AC
330
5A1
100
AcDbEntity
  8
0
100
AcDbBlockEnd
  0
BLOCK
  5
5B7
330
5AD
100
AcDbEntity
  8
0
100
AcDbBlockBegin
  2
*D14
 70
     1
 10
0.0
 20
0.0
 30
0.0
  3
*D14
  1

  0
LINE
  5
5AE
330
5AD
100
AcDbEntity
  8
0
 62
     9
370
    -2
100
AcDbLine
 10
73.93524455147709
 20
239.8031603333203
 30
0.0
 11
73.93524455147709
 21
277.3901310841624
 31
0.0
  0
LINE
  5
5AF
330
5AD
100
AcDbEntity
  8
0
 62
     9
370
    -2
100
AcDbLine
 10
192.4352445514771
 20
239.8031603333203
 30
0.0
 11
192.4352445514771
 21
277.3901310841624
 31
0.0
  0
LINE
  5
5B0
330
5AD
100
AcDbEntity
  8
0
 62
     9
370
    -2
100
AcDbLine
 10
73.93524455147709
 20
277.2101310841624
 30
0.0
 11
192.4352445514771
 21
277.2101310841624
 31
0.0
  0
INSERT
  5
5B1
330
5AD
100
AcDbEntity
  8
0
 62
     9
370
    -2
100
AcDbBlockReference
  2
_Oblique
 10
73.93524455147709
 20
277.2101310841624
 30
0.0
 41
6.0
 42
6.0
 43
6.0
 50
180.0
  0
INSERT
  5
5B2
330
5AD
100
AcDbEntity
  8
0
 62
     9
370
    -2
100
AcDbBlockReference
  2
_Oblique
 10
192.4352445514771
 20
277.2101310841624
 30
0.0
 41
6.0
 42
6.0
 43
6.0
  0
MTEXT
  5
5B3
330
5AD
100
AcDbEntity
  8
0
370
    40
100
AcDbMText
 10
133.1852445514771
 20
285.2101310841624
 30
0.0
 40
10.0
 41
0.0
 71
     5
 72
     1
  1
\A1;119
 73
     1
 44
1.0
1001
ACAD
1000
MTEXTBEGIN
1070
    73
1070
     1
1070
    44
1040
1.0
1070
    74
1070
     0
1000
MTEXTEND
  0
POINT
  5
5B4
330
5AD
100
AcDbEntity
  8
Defpoints
 62
     0
100
AcDbPoint
 10
73.93524455147709
 20
239.7406603333203
 30
0.0
  0
POINT
  5
5B5
330
5AD
100
AcDbEntity
  8
Defpoints
 62
     0
100
AcDbPoint
 10
192.4352445514771
 20
239.7406603333203
 30
0.0
  0
POINT
  5
5B6
330
5AD
100
AcDbEntity
  8
Defpoints
 62
     0
100
AcDbPoint
 10
192.4352445514771
 20
277.2101310841624
 30
0.0
  0
ENDBLK
  5
5B8
330
5AD
100
AcDbEntity
  8
0
100
AcDbBlockEnd
  0
BLOCK
  5
5C3
330
5B9
100
AcDbEntity
  8
0
100
AcDbBlockBegin
  2
*D15
 70
     1
 10
0.0
 20
0.0
 30
0.0
  3
*D15
  1

  0
LINE
  5
5BA
330
5B9
100
AcDbEntity
  8
0
 62
     9
370
    -2
100
AcDbLine
 10
73.93524455147709
 20
77.52682082907753
 30
0.0
 11
73.93524455147709
 21
89.33331969842098
 31
0.0
  0
LINE
  5
5BB
330
5B9
100
AcDbEntity
  8
0
 62
     9
370
    -2
100
AcDbLine
 10
192.4352445497527
 20
77.52682082907753
 30
0.0
 11
192.4352445497527
 21
89.33331969842098
 31
0.0
  0
LINE
  5
5BC
330
5B9
100
AcDbEntity
  8
0
 62
     9
370
    -2
100
AcDbLine
 10
73.93524455147709
 20
89.15331969842098
 30
0.0
 11
192.4352445497527
 21
89.15331969842098
 31
0.0
  0
INSERT
  5
5BD
330
5B9
100
AcDbEntity
  8
0
 62
     9
370
    -2
100
AcDbBlockReference
  2
_Oblique
 10
73.93524455147709
 20
89.15331969842098
 30
0.0
 41
6.0
 42
6.0
 43
6.0
 50
180.0
  0
INSERT
  5
5BE
330
5B9
100
AcDbEntity
  8
0
 62
     9
370
    -2
100
AcDbBlockReference
  2
_Oblique
 10
192.4352445497527
 20
89.15331969842098
 30
0.0
 41
6.0
 42
6.0
 43
6.0
  0
MTEXT
  5
5BF
330
5B9
100
AcDbEntity
  8
0
370
    40
100
AcDbMText
 10
133.1852445506149
 20
97.15331969842097
 30
0.0
 40
10.0
 41
0.0
 71
     5
 72
     1
  1
\A1;119
 73
     1
 44
1.0
1001
ACAD
1000
MTEXTBEGIN
1070
    73
1070
     1
1070
    44
1040
1.0
1070
    74
1070
     0
1000
MTEXTEND
  0
POINT
  5
5C0
330
5B9
100
AcDbEntity
  8
Defpoints
 62
     0
100
AcDbPoint
 10
73.93524455147709
 20
77.46432082907753
 30
0.0
  0
POINT
  5
5C1
330
5B9
100
AcDbEntity
  8
Defpoints
 62
     0
100
AcDbPoint
 10
192.4352445497527
 20
77.46432082907753
 30
0.0
  0
POINT
  5
5C2
330
5B9
100
AcDbEntity
  8
Defpoints
 62
     0
100
AcDbPoint
 10
192.4352445497527
 20
89.15331969842098
 30
0.0
  0
ENDBLK
  5
5C4
330
5B9
100
AcDbEntity
  8
0
100
AcDbBlockEnd
  0
BLOCK
  5
5CF
330
5C5
100
AcDbEntity
  8
0
100
AcDbBlockBegin
  2
*D16
 70
     1
 10
0.0
 20
0.0
 30
0.0
  3
*D16
  1

  0
LINE
  5
5C6
330
5C5
100
AcDbEntity
  8
0
 62
     9
370
    -2
100
AcDbLine
 10
74.87274455147721
 20
78.46432082907753
 30
0.0
 11
61.45187410815553
 21
78.46432082907753
 31
0.0
  0
LINE
  5
5C7
330
5C5
100
AcDbEntity
  8
0
 62
     9
370
    -2
100
AcDbLine
 10
73.8727445514771
 20
23.46432082907765
 30
0.0
 11
61.45187410815552
 21
23.46432082907766
 31
0.0
  0
LINE
  5
5C8
330
5C5
100
AcDbEntity
  8
0
 62
     9
370
    -2
100
AcDbLine
 10
61.63187410815552
 20
78.46432082907753
 30
0.0
 11
61.63187410815552
 21
23.46432082907766
 31
0.0
  0
INSERT
  5
5C9
330
5C5
100
AcDbEntity
  8
0
 62
     9
370
    -2
100
AcDbBlockReference
  2
_Oblique
 10
61.63187410815552
 20
78.46432082907753
 30
0.0
 41
6.0
 42
6.0
 43
6.0
 50
90.0
  0
INSERT
  5
5CA
330
5C5
100
AcDbEntity
  8
0
 62
     9
370
    -2
100
AcDbBlockReference
  2
_Oblique
 10
61.63187410815552
 20
23.46432082907766
 30
0.0
 41
6.0
 42
6.0
 43
6.0
 50
270.0
  0
MTEXT
  5
5CB
330
5C5
100
AcDbEntity
  8
0
370
    40
100
AcDbMText
 10
53.63187410815552
 20
50.9643208290776
 30
0.0
 40
10.0
 41
0.0
 71
     5
 72
     1
  1
\A1;55
 11
0.0000000000000001
 21
1.0
 31
0.0
 73
     1
 44
1.0
1001
ACAD
1000
MTEXTBEGIN
1070
    73
1070
     1
1070
    44
1040
1.0
1070
    74
1070
     0
1000
MTEXTEND
  0
POINT
  5
5CC
330
5C5
100
AcDbEntity
  8
Defpoints
 62
     0
100
AcDbPoint
 10
74.93524455147721
 20
78.46432082907753
 30
0.0
  0
POINT
  5
5CD
330
5C5
100
AcDbEntity
  8
Defpoints
 62
     0
100
AcDbPoint
 10
73.93524455147709
 20
23.46432082907765
 30
0.0
  0
POINT
  5
5CE
330
5C5
100
AcDbEntity
  8
Defpoints
 62
     0
100
AcDbPoint
 10
61.63187410815552
 20
23.46432082907766
 30
0.0
  0
ENDBLK
  5
5D0
330
5C5
100
AcDbEntity
  8
0
100
AcDbBlockEnd
  0
BLOCK
  5
5DB
330
5D1
100
AcDbEntity
  8
0
100
AcDbBlockBegin
  2
*D17
 70
     1
 10
0.0
 20
0.0
 30
0.0
  3
*D17
  1

  0
LINE
  5
5D2
330
5D1
100
AcDbEntity
  8
0
 62
     9
370
    -2
100
AcDbLine
 10
217.8238234446736
 20
49.24025753605244
 30
0.0
 11
217.8238234446736
 21
92.33331969842087
 31
0.0
  0
LINE
  5
5D3
330
5D1
100
AcDbEntity
  8
0
 62
     9
370
    -2
100
AcDbLine
 10
341.8238234446736
 20
49.24025753605244
 30
0.0
 11
341.8238234446736
 21
92.33331969842087
 31
0.0
  0
LINE
  5
5D4
330
5D1
100
AcDbEntity
  8
0
 62
     9
370
    -2
100
AcDbLine
 10
217.8238234446736
 20
92.15331969842086
 30
0.0
 11
341.8238234446736
 21
92.15331969842086
 31
0.0
  0
INSERT
  5
5D5
330
5D1
100
AcDbEntity
  8
0
 62
     9
370
    -2
100
AcDbBlockReference
  2
_Oblique
 10
217.8238234446736
 20
92.15331969842086
 30
0.0
 41
6.0
 42
6.0
 43
6.0
 50
180.0
  0
INSERT
  5
5D6
330
5D1
100
AcDbEntity
  8
0
 62
     9
370
    -2
100
AcDbBlockReference
  2
_Oblique
 10
341.8238234446736
 20
92.15331969842086
 30
0.0
 41
6.0
 42
6.0
 43
6.0
  0
MTEXT
  5
5D7
330
5D1
100
AcDbEntity
  8
0
370
    40
100
AcDbMText
 10
279.8238234446736
 20
100.1533196984208
 30
0.0
 40
10.0
 41
0.0
 71
     5
 72
     1
  1
\A1;124
 73
     1
 44
1.0
1001
ACAD
1000
MTEXTBEGIN
1070
    73
1070
     1
1070
    44
1040
1.0
1070
    74
1070
     0
1000
MTEXTEND
  0
POINT
  5
5D8
330
5D1
100
AcDbEntity
  8
Defpoints
 62
     0
100
AcDbPoint
 10
217.8238234446736
 20
49.17775753605244
 30
0.0
  0
POINT
  5
5D9
330
5D1
100
AcDbEntity
  8
Defpoints
 62
     0
100
AcDbPoint
 10
341.8238234446736
 20
49.17775753605244
 30
0.0
  0
POINT
  5
5DA
330
5D1
100
AcDbEntity
  8
Defpoints
 62
     0
100
AcDbPoint
 10
341.8238234446736
 20
92.15331969842086
 30
0.0
  0
ENDBLK
  5
5DC
330
5D1
100
AcDbEntity
  8
0
100
AcDbBlockEnd
  0
BLOCK
  5
5E7
330
5DD
100
AcDbEntity
  8
0
100
AcDbBlockBegin
  2
*D18
 70
     1
 10
0.0
 20
0.0
 30
0.0
  3
*D18
  1

  0
LINE
  5
5E9
330
5DD
100
AcDbEntity
  8
0
 62
     9
370
    -2
100
AcDbLine
 10
307.8863234446736
 20
78.46432082907752
 30
0.0
 11
367.2398837983808
 21
78.4643208290775
 31
0.0
  0
LINE
  5
5EA
330
5DD
100
AcDbEntity
  8
0
 62
     9
370
    -2
100
AcDbLine
 10
329.8863234446736
 20
23.46432082907758
 30
0.0
 11
367.2398837983808
 21
23.46432082907757
 31
0.0
  0
LINE
  5
5EB
330
5DD
100
AcDbEntity
  8
0
 62
     9
370
    -2
100
AcDbLine
 10
367.0598837983808
 20
78.4643208290775
 30
0.0
 11
367.0598837983808
 21
23.46432082907757
 31
0.0
  0
INSERT
  5
5EC
330
5DD
100
AcDbEntity
  8
0
 62
     9
370
    -2
100
AcDbBlockReference
  2
_Oblique
 10
367.0598837983808
 20
78.4643208290775
 30
0.0
 41
6.0
 42
6.0
 43
6.0
 50
90.0
  0
INSERT
  5
5ED
330
5DD
100
AcDbEntity
  8
0
 62
     9
370
    -2
100
AcDbBlockReference
  2
_Oblique
 10
367.0598837983808
 20
23.46432082907757
 30
0.0
 41
6.0
 42
6.0
 43
6.0
 50
270.0
  0
MTEXT
  5
5EE
330
5DD
100
AcDbEntity
  8
0
370
    40
100
AcDbMText
 10
359.0598837983808
 20
50.9643208290776
 30
0.0
 40
10.0
 41
0.0
 71
     5
 72
     1
  1
\A1;55
 11
0.0000000000000001
 21
1.0
 31
0.0
 73
     1
 44
1.0
1001
ACAD
1000
MTEXTBEGIN
1070
    73
1070
     1
1070
    44
1040
1.0
1070
    74
1070
     0
1000
MTEXTEND
  0
POINT
  5
5EF
330
5DD
100
AcDbEntity
  8
Defpoints
 62
     0
100
AcDbPoint
 10
307.8238234446736
 20
78.46432082907752
 30
0.0
  0
POINT
  5
5F0
330
5DD
100
AcDbEntity
  8
Defpoints
 62
     0
100
AcDbPoint
 10
329.8238234446736
 20
23.46432082907758
 30
0.0
  0
POINT
  5
5F1
330
5DD
100
AcDbEntity
  8
Defpoints
 62
     0
100
AcDbPoint
 10
367.0598837983808
 20
23.46432082907757
 30
0.0
  0
ENDBLK
  5
5E8
330
5DD
100
AcDbEntity
  8
0
100
AcDbBlockEnd
  0
ENDSEC
  0
SECTION
  2
ENTITIES
  0
LWPOLYLINE
  5
359
330
1F
100
AcDbEntity
  8
0
100
AcDbPolyline
 90
        2
 70
     0
 43
0.0
 10
73.93524455147709
 20
139.2406603333202
 10
73.93524455147709
 20
239.7406603333203
  0
LWPOLYLINE
  5
35A
330
1F
100
AcDbEntity
  8
0
100
AcDbPolyline
 90
        2
 70
     0
 43
0.0
 10
192.4352445514771
 20
239.7406603333203
 10
192.4352445514771
 20
139.2406603333202
  0
LWPOLYLINE
  5
35B
102
{ACAD_REACTORS
330
56E
102
}
330
1F
100
AcDbEntity
  8
0
 62
     4
100
AcDbPolyline
 90
        3
 70
     0
 43
0.0
 10
81.68524455147709
 20
239.5330915259809
 10
81.68524455147709
 20
251.9321740947882
 10
91.88524455147714
 20
251.9321740947882
  0
LWPOLYLINE
  5
35C
102
{ACAD_REACTORS
330
56E
102
}
330
1F
100
AcDbEntity
  8
0
 62
     4
100
AcDbPolyline
 90
        3
 70
     0
 43
0.0
 10
102.085244551477
 20
251.9321740947882
 10
183.6852445514771
 20
251.9321740947882
 10
183.6852445514771
 20
239.5330915259809
  0
LWPOLYLINE
  5
35D
330
1F
100
AcDbEntity
  8
0
 62
     4
100
AcDbPolyline
 90
        3
 70
     0
 43
0.0
 10
81.68524455147709
 20
239.5330915259809
 10
81.68524455147709
 20
240.2349263883662
 10
91.88524455147714
 20
240.2349263883662
  0
LWPOLYLINE
  5
35E
330
1F
100
AcDbEntity
  8
0
 62
     4
100
AcDbPolyline
 90
        3
 70
     0
 43
0.0
 10
102.085244551477
 20
240.2349263883662
 10
183.6852445514771
 20
240.2349263883662
 10
183.6852445514771
 20
239.5330915259809
  0
LWPOLYLINE
  5
35F
330
1F
100
AcDbEntity
  8
0
100
AcDbPolyline
 90
        2
 70
     0
 43
0.0
 10
73.93524455147709
 20
149.4906603333202
 10
73.93524455147709
 20
229.4906603333203
  0
LWPOLYLINE
  5
360
330
1F
100
AcDbEntity
  8
0
100
AcDbPolyline
 90
        2
 70
     0
 43
0.0
 10
80.39099580535591
 20
229.4906603333203
 10
185.3909958053559
 20
229.4906603333203
  0
LWPOLYLINE
  5
361
330
1F
100
AcDbEntity
  8
0
100
AcDbPolyline
 90
        2
 70
     0
 43
0.0
 10
192.4352445514771
 20
229.4906603333203
 10
192.4352445514771
 20
149.4906603333202
  0
LWPOLYLINE
  5
362
330
1F
100
AcDbEntity
  8
0
100
AcDbPolyline
 90
        2
 70
     0
 43
0.0
 10
175.5857336243307
 20
149.4906603333202
 10
172.5857336243307
 20
149.4906603333202
  0
LWPOLYLINE
  5
363
330
1F
100
AcDbEntity
  8
0
100
AcDbPolyline
 90
        2
 70
     0
 43
0.0
 10
169.5857336243307
 20
149.4906603333202
 10
166.5857336243307
 20
149.4906603333202
  0
LWPOLYLINE
  5
364
330
1F
100
AcDbEntity
  8
0
100
AcDbPolyline
 90
        2
 70
     0
 43
0.0
 10
163.5857336243307
 20
149.4906603333202
 10
160.5857336243307
 20
149.4906603333202
  0
LWPOLYLINE
  5
365
330
1F
100
AcDbEntity
  8
0
100
AcDbPolyline
 90
        2
 70
     0
 43
0.0
 10
157.5857336243307
 20
149.4906603333202
 10
154.5857336243306
 20
149.4906603333202
  0
LWPOLYLINE
  5
366
330
1F
100
AcDbEntity
  8
0
100
AcDbPolyline
 90
        2
 70
     0
 43
0.0
 10
151.5857336243307
 20
149.4906603333202
 10
148.5857336243307
 20
149.4906603333202
  0
LWPOLYLINE
  5
367
330
1F
100
AcDbEntity
  8
0
100
AcDbPolyline
 90
        2
 70
     0
 43
0.0
 10
145.5857336243307
 20
149.4906603333202
 10
142.5857336243307
 20
149.4906603333202
  0
LWPOLYLINE
  5
368
330
1F
100
AcDbEntity
  8
0
100
AcDbPolyline
 90
        2
 70
     0
 43
0.0
 10
139.5857336243307
 20
149.4906603333202
 10
136.5857336243307
 20
149.4906603333202
  0
LWPOLYLINE
  5
369
330
1F
100
AcDbEntity
  8
0
100
AcDbPolyline
 90
        2
 70
     0
 43
0.0
 10
133.5857336243307
 20
149.4906603333202
 10
130.5857336243307
 20
149.4906603333202
  0
LWPOLYLINE
  5
36A
330
1F
100
AcDbEntity
  8
0
100
AcDbPolyline
 90
        2
 70
     0
 43
0.0
 10
127.5857336243307
 20
149.4906603333202
 10
124.5857336243307
 20
149.4906603333202
  0
LWPOLYLINE
  5
36B
330
1F
100
AcDbEntity
  8
0
100
AcDbPolyline
 90
        2
 70
     0
 43
0.0
 10
121.5857336243307
 20
149.4906603333202
 10
118.5857336243307
 20
149.4906603333202
  0
LWPOLYLINE
  5
36C
330
1F
100
AcDbEntity
  8
0
100
AcDbPolyline
 90
        2
 70
     0
 43
0.0
 10
115.5857336243307
 20
149.4906603333202
 10
112.5857336243307
 20
149.4906603333202
  0
LWPOLYLINE
  5
36D
330
1F
100
AcDbEntity
  8
0
100
AcDbPolyline
 90
        2
 70
     0
 43
0.0
 10
109.5857336243307
 20
149.4906603333202
 10
106.5857336243307
 20
149.4906603333202
  0
LWPOLYLINE
  5
36E
330
1F
100
AcDbEntity
  8
0
100
AcDbPolyline
 90
        2
 70
     0
 43
0.0
 10
103.5857336243307
 20
149.4906603333202
 10
100.5857336243307
 20
149.4906603333202
  0
LWPOLYLINE
  5
36F
330
1F
100
AcDbEntity
  8
0
100
AcDbPolyline
 90
        2
 70
     0
 43
0.0
 10
97.58573362433068
 20
149.4906603333202
 10
94.58573362433069
 20
149.4906603333202
  0
LWPOLYLINE
  5
370
330
1F
100
AcDbEntity
  8
0
100
AcDbPolyline
 90
        2
 70
     0
 43
0.0
 10
91.58573362433068
 20
149.4906603333202
 10
88.58573362433068
 20
149.4906603333202
  0
LWPOLYLINE
  5
371
330
1F
100
AcDbEntity
  8
0
100
AcDbPolyline
 90
        2
 70
     0
 43
0.0
 10
85.58573362433069
 20
149.4906603333202
 10
82.58573362433068
 20
149.4906603333202
  0
LWPOLYLINE
  5
372
330
1F
100
AcDbEntity
  8
0
100
AcDbPolyline
 90
        2
 70
     0
 43
0.0
 10
89.39099580535591
 20
149.4906603333202
 10
86.39099580535591
 20
149.4906603333202
  0
LWPOLYLINE
  5
373
330
1F
100
AcDbEntity
  8
0
100
AcDbPolyline
 90
        2
 70
     0
 43
0.0
 10
83.39099580535592
 20
149.4906603333202
 10
80.39099580535591
 20
149.4906603333202
  0
LWPOLYLINE
  5
374
102
{ACAD_REACTORS
330
567
330
571
102
}
330
1F
100
AcDbEntity
  8
0
100
AcDbPolyline
 90
        4
 70
     1
 43
0.0
 10
73.93524455147709
 20
139.2406603333202
 10
73.93524455147709
 20
239.7406603333203
 10
192.4352445514771
 20
239.7406603333203
 10
192.4352445514771
 20
139.2406603333202
  0
LWPOLYLINE
  5
375
330
1F
100
AcDbEntity
  8
0
100
AcDbPolyline
 90
        4
 70
     1
 43
0.0
 10
73.93524455147709
 20
159.9906603333202
 10
73.93524455147709
 20
218.9906603333203
 10
192.4352445514771
 20
218.9906603333203
 10
192.4352445514771
 20
159.9906603333202
  0
LWPOLYLINE
  5
376
330
1F
100
AcDbEntity
  8
0
 62
     4
100
AcDbPolyline
 90
        4
 70
     0
 43
0.0
 10
102.085244551477
 20
251.9906603333203
 10
183.6852445514771
 20
251.9906603333203
 10
183.6852445514771
 20
244.5044218012102
 10
102.085244551477
 20
244.5044218012102
  0
LWPOLYLINE
  5
377
330
1F
100
AcDbEntity
  8
0
 62
     4
100
AcDbPolyline
 90
        4
 70
     0
 43
0.0
 10
91.88524455147714
 20
244.5044218012102
 10
81.68524455147709
 20
244.5044218012102
 10
81.68524455147709
 20
251.9906603333203
 10
91.88524455147714
 20
251.9906603333203
  0
LWPOLYLINE
  5
378
330
1F
100
AcDbEntity
  8
0
 62
     4
100
AcDbPolyline
 90
        4
 70
     1
 43
0.0
 10
81.68524455147709
 20
244.5044218012102
 10
81.68524455147709
 20
251.9906603333203
 10
86.78524455147712
 20
251.9906603333203
 10
86.78524455147712
 20
244.5044218012102
  0
CIRCLE
  5
379
330
1F
100
AcDbEntity
  8
0
 62
     4
100
AcDbCircle
 10
84.23524455147717
 20
248.2182979479993
 30
0.0
 40
1.871559633027521
  0
LWPOLYLINE
  5
37A
330
1F
100
AcDbEntity
  8
0
 62
     4
100
AcDbPolyline
 90
        4
 70
     1
 43
0.0
 10
85.26977722282365
 20
249.6475718102732
 10
85.75502828483568
 20
249.1145897672643
 10
83.20071188013068
 20
246.7890240857253
 10
82.71546081811854
 20
247.3220061287342
  0
LWPOLYLINE
  5
37B
330
1F
100
AcDbEntity
  8
0
 62
     4
100
AcDbPolyline
 90
        4
 70
     1
 43
0.0
 10
86.78524455147712
 20
244.5044218012102
 10
86.78524455147712
 20
251.9906603333203
 10
91.88524455147714
 20
251.9906603333203
 10
91.88524455147714
 20
244.5044218012102
  0
CIRCLE
  5
37C
330
1F
100
AcDbEntity
  8
0
 62
     4
100
AcDbCircle
 10
89.33524455147708
 20
248.2182979479993
 30
0.0
 40
1.871559633027521
  0
LWPOLYLINE
  5
37D
330
1F
100
AcDbEntity
  8
0
 62
     4
100
AcDbPolyline
 90
        4
 70
     1
 43
0.0
 10
90.36977722282356
 20
249.6475718102732
 10
90.85502828483569
 20
249.1145897672643
 10
88.30071188013059
 20
246.7890240857253
 10
87.81546081811857
 20
247.3220061287342
  0
LWPOLYLINE
  5
37E
330
1F
100
AcDbEntity
  8
0
 62
     4
100
AcDbPolyline
 90
        2
 70
     0
 43
0.0
 10
91.88524455147714
 20
244.5044218012102
 10
91.88524455147714
 20
251.9906603333203
  0
LWPOLYLINE
  5
37F
330
1F
100
AcDbEntity
  8
0
 62
     4
100
AcDbPolyline
 90
        2
 70
     0
 43
0.0
 10
102.085244551477
 20
251.9906603333203
 10
102.085244551477
 20
244.5044218012102
  0
LWPOLYLINE
  5
380
330
1F
100
AcDbEntity
  8
0
 62
     4
100
AcDbPolyline
 90
        4
 70
     1
 43
0.0
 10
102.085244551477
 20
244.5044218012102
 10
102.085244551477
 20
251.9906603333203
 10
107.1852445514771
 20
251.9906603333203
 10
107.1852445514771
 20
244.5044218012102
  0
CIRCLE
  5
381
330
1F
100
AcDbEntity
  8
0
 62
     4
100
AcDbCircle
 10
104.635244551477
 20
248.2182979479993
 30
0.0
 40
1.871559633027521
  0
LWPOLYLINE
  5
382
330
1F
100
AcDbEntity
  8
0
 62
     4
100
AcDbPolyline
 90
        4
 70
     1
 43
0.0
 10
105.6697772228236
 20
249.6475718102732
 10
106.1550282848356
 20
249.1145897672643
 10
103.6007118801306
 20
246.7890240857253
 10
103.1154608181186
 20
247.3220061287342
  0
LWPOLYLINE
  5
383
330
1F
100
AcDbEntity
  8
0
 62
     4
100
AcDbPolyline
 90
        4
 70
     1
 43
0.0
 10
107.1852445514771
 20
244.5044218012102
 10
107.1852445514771
 20
251.9906603333203
 10
112.285244551477
 20
251.9906603333203
 10
112.285244551477
 20
244.5044218012102
  0
CIRCLE
  5
384
330
1F
100
AcDbEntity
  8
0
 62
     4
100
AcDbCircle
 10
109.735244551477
 20
248.2182979479993
 30
0.0
 40
1.871559633027521
  0
LWPOLYLINE
  5
385
330
1F
100
AcDbEntity
  8
0
 62
     4
100
AcDbPolyline
 90
        4
 70
     1
 43
0.0
 10
110.7697772228236
 20
249.6475718102732
 10
111.2550282848356
 20
249.1145897672643
 10
108.7007118801307
 20
246.7890240857253
 10
108.2154608181185
 20
247.3220061287342
  0
LWPOLYLINE
  5
386
330
1F
100
AcDbEntity
  8
0
 62
     4
100
AcDbPolyline
 90
        4
 70
     1
 43
0.0
 10
112.285244551477
 20
244.5044218012102
 10
112.285244551477
 20
251.9906603333203
 10
117.385244551477
 20
251.9906603333203
 10
117.385244551477
 20
244.5044218012102
  0
CIRCLE
  5
387
330
1F
100
AcDbEntity
  8
0
 62
     4
100
AcDbCircle
 10
114.835244551477
 20
248.2182979479993
 30
0.0
 40
1.871559633027521
  0
LWPOLYLINE
  5
388
330
1F
100
AcDbEntity
  8
0
 62
     4
100
AcDbPolyline
 90
        4
 70
     1
 43
0.0
 10
115.8697772228235
 20
249.6475718102732
 10
116.3550282848357
 20
249.1145897672643
 10
113.8007118801306
 20
246.7890240857253
 10
113.3154608181185
 20
247.3220061287342
  0
LWPOLYLINE
  5
389
330
1F
100
AcDbEntity
  8
0
 62
     4
100
AcDbPolyline
 90
        4
 70
     1
 43
0.0
 10
117.385244551477
 20
244.5044218012102
 10
117.385244551477
 20
251.9906603333203
 10
122.485244551477
 20
251.9906603333203
 10
122.485244551477
 20
244.5044218012102
  0
CIRCLE
  5
38A
330
1F
100
AcDbEntity
  8
0
 62
     4
100
AcDbCircle
 10
119.9352445514771
 20
248.2182979479993
 30
0.0
 40
1.871559633027521
  0
LWPOLYLINE
  5
38B
330
1F
100
AcDbEntity
  8
0
 62
     4
100
AcDbPolyline
 90
        4
 70
     1
 43
0.0
 10
120.9697772228236
 20
249.6475718102732
 10
121.4550282848357
 20
249.1145897672643
 10
118.9007118801306
 20
246.7890240857253
 10
118.4154608181186
 20
247.3220061287342
  0
LWPOLYLINE
  5
38C
330
1F
100
AcDbEntity
  8
0
 62
     4
100
AcDbPolyline
 90
        4
 70
     1
 43
0.0
 10
122.485244551477
 20
244.5044218012102
 10
122.485244551477
 20
251.9906603333203
 10
127.5852445514771
 20
251.9906603333203
 10
127.5852445514771
 20
244.5044218012102
  0
CIRCLE
  5
38D
330
1F
100
AcDbEntity
  8
0
 62
     4
100
AcDbCircle
 10
125.035244551477
 20
248.2182979479993
 30
0.0
 40
1.871559633027521
  0
LWPOLYLINE
  5
38E
330
1F
100
AcDbEntity
  8
0
 62
     4
100
AcDbPolyline
 90
        4
 70
     1
 43
0.0
 10
126.0697772228236
 20
249.6475718102732
 10
126.5550282848356
 20
249.1145897672643
 10
124.0007118801306
 20
246.7890240857253
 10
123.5154608181185
 20
247.3220061287342
  0
LWPOLYLINE
  5
38F
330
1F
100
AcDbEntity
  8
0
 62
     4
100
AcDbPolyline
 90
        4
 70
     1
 43
0.0
 10
127.5852445514771
 20
244.5044218012102
 10
127.5852445514771
 20
251.9906603333203
 10
132.6852445514771
 20
251.9906603333203
 10
132.6852445514771
 20
244.5044218012102
  0
CIRCLE
  5
390
330
1F
100
AcDbEntity
  8
0
 62
     4
100
AcDbCircle
 10
130.135244551477
 20
248.2182979479993
 30
0.0
 40
1.871559633027521
  0
LWPOLYLINE
  5
391
330
1F
100
AcDbEntity
  8
0
 62
     4
100
AcDbPolyline
 90
        4
 70
     1
 43
0.0
 10
131.1697772228236
 20
249.6475718102732
 10
131.6550282848356
 20
249.1145897672643
 10
129.1007118801306
 20
246.7890240857253
 10
128.6154608181186
 20
247.3220061287342
  0
LWPOLYLINE
  5
392
330
1F
100
AcDbEntity
  8
0
 62
     4
100
AcDbPolyline
 90
        4
 70
     1
 43
0.0
 10
132.6852445514771
 20
244.5044218012102
 10
132.6852445514771
 20
251.9906603333203
 10
137.785244551477
 20
251.9906603333203
 10
137.785244551477
 20
244.5044218012102
  0
CIRCLE
  5
393
330
1F
100
AcDbEntity
  8
0
 62
     4
100
AcDbCircle
 10
135.235244551477
 20
248.2182979479993
 30
0.0
 40
1.871559633027521
  0
LWPOLYLINE
  5
394
330
1F
100
AcDbEntity
  8
0
 62
     4
100
AcDbPolyline
 90
        4
 70
     1
 43
0.0
 10
136.2697772228236
 20
249.6475718102732
 10
136.7550282848357
 20
249.1145897672643
 10
134.2007118801307
 20
246.7890240857253
 10
133.7154608181185
 20
247.3220061287342
  0
LWPOLYLINE
  5
395
330
1F
100
AcDbEntity
  8
0
 62
     4
100
AcDbPolyline
 90
        4
 70
     1
 43
0.0
 10
137.7852445514771
 20
244.5044218012102
 10
137.7852445514771
 20
251.9906603333203
 10
142.8852445514771
 20
251.9906603333203
 10
142.8852445514771
 20
244.5044218012102
  0
CIRCLE
  5
396
330
1F
100
AcDbEntity
  8
0
 62
     4
100
AcDbCircle
 10
140.335244551477
 20
248.2182979479993
 30
0.0
 40
1.871559633027521
  0
LWPOLYLINE
  5
397
330
1F
100
AcDbEntity
  8
0
 62
     4
100
AcDbPolyline
 90
        4
 70
     1
 43
0.0
 10
141.3697772228235
 20
249.6475718102732
 10
141.8550282848357
 20
249.1145897672643
 10
139.3007118801306
 20
246.7890240857253
 10
138.8154608181185
 20
247.3220061287342
  0
LWPOLYLINE
  5
398
330
1F
100
AcDbEntity
  8
0
 62
     4
100
AcDbPolyline
 90
        4
 70
     1
 43
0.0
 10
142.8852445514771
 20
244.5044218012102
 10
142.8852445514771
 20
251.9906603333203
 10
147.985244551477
 20
251.9906603333203
 10
147.985244551477
 20
244.5044218012102
  0
CIRCLE
  5
399
330
1F
100
AcDbEntity
  8
0
 62
     4
100
AcDbCircle
 10
145.4352445514771
 20
248.2182979479993
 30
0.0
 40
1.871559633027521
  0
LWPOLYLINE
  5
39A
330
1F
100
AcDbEntity
  8
0
 62
     4
100
AcDbPolyline
 90
        4
 70
     1
 43
0.0
 10
146.4697772228236
 20
249.6475718102732
 10
146.9550282848356
 20
249.1145897672643
 10
144.4007118801306
 20
246.7890240857253
 10
143.9154608181186
 20
247.3220061287342
  0
LWPOLYLINE
  5
39B
330
1F
100
AcDbEntity
  8
0
 62
     4
100
AcDbPolyline
 90
        4
 70
     1
 43
0.0
 10
147.985244551477
 20
244.5044218012102
 10
147.985244551477
 20
251.9906603333203
 10
153.085244551477
 20
251.9906603333203
 10
153.085244551477
 20
244.5044218012102
  0
CIRCLE
  5
39C
330
1F
100
AcDbEntity
  8
0
 62
     4
100
AcDbCircle
 10
150.535244551477
 20
248.2182979479993
 30
0.0
 40
1.871559633027521
  0
LWPOLYLINE
  5
39D
330
1F
100
AcDbEntity
  8
0
 62
     4
100
AcDbPolyline
 90
        4
 70
     1
 43
0.0
 10
151.5697772228236
 20
249.6475718102732
 10
152.0550282848356
 20
249.1145897672643
 10
149.5007118801306
 20
246.7890240857253
 10
149.0154608181185
 20
247.3220061287342
  0
LWPOLYLINE
  5
39E
330
1F
100
AcDbEntity
  8
0
 62
     4
100
AcDbPolyline
 90
        4
 70
     1
 43
0.0
 10
153.085244551477
 20
244.5044218012102
 10
153.085244551477
 20
251.9906603333203
 10
158.1852445514771
 20
251.9906603333203
 10
158.1852445514771
 20
244.5044218012102
  0
CIRCLE
  5
39F
330
1F
100
AcDbEntity
  8
0
 62
     4
100
AcDbCircle
 10
155.6352445514771
 20
248.2182979479993
 30
0.0
 40
1.871559633027521
  0
LWPOLYLINE
  5
3A0
330
1F
100
AcDbEntity
  8
0
 62
     4
100
AcDbPolyline
 90
        4
 70
     1
 43
0.0
 10
156.6697772228235
 20
249.6475718102732
 10
157.1550282848356
 20
249.1145897672643
 10
154.6007118801305
 20
246.7890240857253
 10
154.1154608181185
 20
247.3220061287342
  0
LWPOLYLINE
  5
3A1
330
1F
100
AcDbEntity
  8
0
 62
     4
100
AcDbPolyline
 90
        4
 70
     1
 43
0.0
 10
158.1852445514771
 20
244.5044218012102
 10
158.1852445514771
 20
251.9906603333203
 10
163.285244551477
 20
251.9906603333203
 10
163.285244551477
 20
244.5044218012102
  0
CIRCLE
  5
3A2
330
1F
100
AcDbEntity
  8
0
 62
     4
100
AcDbCircle
 10
160.735244551477
 20
248.2182979479993
 30
0.0
 40
1.871559633027521
  0
LWPOLYLINE
  5
3A3
330
1F
100
AcDbEntity
  8
0
 62
     4
100
AcDbPolyline
 90
        4
 70
     1
 43
0.0
 10
161.7697772228235
 20
249.6475718102732
 10
162.2550282848355
 20
249.1145897672643
 10
159.7007118801306
 20
246.7890240857253
 10
159.2154608181185
 20
247.3220061287342
  0
LWPOLYLINE
  5
3A4
330
1F
100
AcDbEntity
  8
0
 62
     4
100
AcDbPolyline
 90
        4
 70
     1
 43
0.0
 10
163.285244551477
 20
244.5044218012102
 10
163.285244551477
 20
251.9906603333203
 10
168.3852445514771
 20
251.9906603333203
 10
168.3852445514771
 20
244.5044218012102
  0
CIRCLE
  5
3A5
330
1F
100
AcDbEntity
  8
0
 62
     4
100
AcDbCircle
 10
165.835244551477
 20
248.2182979479993
 30
0.0
 40
1.871559633027521
  0
LWPOLYLINE
  5
3A6
330
1F
100
AcDbEntity
  8
0
 62
     4
100
AcDbPolyline
 90
        4
 70
     1
 43
0.0
 10
166.8697772228235
 20
249.6475718102732
 10
167.3550282848357
 20
249.1145897672643
 10
164.8007118801306
 20
246.7890240857253
 10
164.3154608181184
 20
247.3220061287342
  0
LWPOLYLINE
  5
3A7
330
1F
100
AcDbEntity
  8
0
 62
     4
100
AcDbPolyline
 90
        4
 70
     1
 43
0.0
 10
168.3852445514771
 20
244.5044218012102
 10
168.3852445514771
 20
251.9906603333203
 10
173.485244551477
 20
251.9906603333203
 10
173.485244551477
 20
244.5044218012102
  0
CIRCLE
  5
3A8
330
1F
100
AcDbEntity
  8
0
 62
     4
100
AcDbCircle
 10
170.9352445514771
 20
248.2182979479993
 30
0.0
 40
1.871559633027521
  0
LWPOLYLINE
  5
3A9
330
1F
100
AcDbEntity
  8
0
 62
     4
100
AcDbPolyline
 90
        4
 70
     1
 43
0.0
 10
171.9697772228236
 20
249.6475718102732
 10
172.4550282848356
 20
249.1145897672643
 10
169.9007118801306
 20
246.7890240857253
 10
169.4154608181184
 20
247.3220061287342
  0
LWPOLYLINE
  5
3AA
330
1F
100
AcDbEntity
  8
0
 62
     4
100
AcDbPolyline
 90
        4
 70
     1
 43
0.0
 10
173.485244551477
 20
244.5044218012102
 10
173.485244551477
 20
251.9906603333203
 10
178.5852445514771
 20
251.9906603333203
 10
178.5852445514771
 20
244.5044218012102
  0
CIRCLE
  5
3AB
330
1F
100
AcDbEntity
  8
0
 62
     4
100
AcDbCircle
 10
176.0352445514771
 20
248.2182979479993
 30
0.0
 40
1.871559633027521
  0
LWPOLYLINE
  5
3AC
330
1F
100
AcDbEntity
  8
0
 62
     4
100
AcDbPolyline
 90
        4
 70
     1
 43
0.0
 10
177.0697772228236
 20
249.6475718102732
 10
177.5550282848356
 20
249.1145897672643
 10
175.0007118801306
 20
246.7890240857253
 10
174.5154608181185
 20
247.3220061287342
  0
LWPOLYLINE
  5
3AD
330
1F
100
AcDbEntity
  8
0
 62
     4
100
AcDbPolyline
 90
        4
 70
     1
 43
0.0
 10
178.5852445514771
 20
244.5044218012102
 10
178.5852445514771
 20
251.9906603333203
 10
183.6852445514771
 20
251.9906603333203
 10
183.6852445514771
 20
244.5044218012102
  0
CIRCLE
  5
3AE
330
1F
100
AcDbEntity
  8
0
 62
     4
100
AcDbCircle
 10
181.1352445514771
 20
248.2182979479993
 30
0.0
 40
1.871559633027521
  0
LWPOLYLINE
  5
3AF
330
1F
100
AcDbEntity
  8
0
 62
     4
100
AcDbPolyline
 90
        4
 70
     1
 43
0.0
 10
182.1697772228235
 20
249.6475718102732
 10
182.6550282848356
 20
249.1145897672643
 10
180.1007118801305
 20
246.7890240857253
 10
179.6154608181185
 20
247.3220061287342
  0
LWPOLYLINE
  5
3B0
330
1F
100
AcDbEntity
  8
0
100
AcDbPolyline
 90
        4
 70
     1
 43
0.0
 10
80.39099580535591
 20
149.4906603333202
 10
80.39099580535591
 20
152.4906603333202
 10
83.39099580535592
 20
152.4906603333202
 10
83.39099580535592
 20
149.4906603333202
  0
LWPOLYLINE
  5
3B1
330
1F
100
AcDbEntity
  8
0
100
AcDbPolyline
 90
        4
 70
     0
 43
0.0
 10
83.39099580535592
 20
149.4906603333202
 10
83.39099580535592
 20
152.4906603333202
 10
86.39099580535591
 20
152.4906603333202
 10
86.39099580535591
 20
149.4906603333202
  0
LWPOLYLINE
  5
3B2
330
1F
100
AcDbEntity
  8
0
100
AcDbPolyline
 90
        4
 70
     1
 43
0.0
 10
86.39099580535591
 20
149.4906603333202
 10
86.39099580535591
 20
152.4906603333202
 10
89.39099580535591
 20
152.4906603333202
 10
89.39099580535591
 20
149.4906603333202
  0
LWPOLYLINE
  5
3B3
330
1F
100
AcDbEntity
  8
0
100
AcDbPolyline
 90
        4
 70
     0
 43
0.0
 10
89.39099580535591
 20
149.4906603333202
 10
89.39099580535591
 20
152.4906603333202
 10
92.39099580535592
 20
152.4906603333202
 10
92.39099580535592
 20
149.4906603333202
  0
LWPOLYLINE
  5
3B4
330
1F
100
AcDbEntity
  8
0
100
AcDbPolyline
 90
        4
 70
     1
 43
0.0
 10
92.39099580535592
 20
149.4906603333202
 10
92.39099580535592
 20
152.4906603333202
 10
95.39099580535591
 20
152.4906603333202
 10
95.39099580535591
 20
149.4906603333202
  0
LWPOLYLINE
  5
3B5
330
1F
100
AcDbEntity
  8
0
100
AcDbPolyline
 90
        4
 70
     0
 43
0.0
 10
95.39099580535591
 20
149.4906603333202
 10
95.39099580535591
 20
152.4906603333202
 10
98.39099580535592
 20
152.4906603333202
 10
98.39099580535592
 20
149.4906603333202
  0
LWPOLYLINE
  5
3B6
330
1F
100
AcDbEntity
  8
0
100
AcDbPolyline
 90
        4
 70
     1
 43
0.0
 10
98.39099580535592
 20
149.4906603333202
 10
98.39099580535592
 20
152.4906603333202
 10
101.3909958053559
 20
152.4906603333202
 10
101.3909958053559
 20
149.4906603333202
  0
LWPOLYLINE
  5
3B7
330
1F
100
AcDbEntity
  8
0
100
AcDbPolyline
 90
        4
 70
     0
 43
0.0
 10
101.3909958053559
 20
149.4906603333202
 10
101.3909958053559
 20
152.4906603333202
 10
104.3909958053559
 20
152.4906603333202
 10
104.3909958053559
 20
149.4906603333202
  0
LWPOLYLINE
  5
3B8
330
1F
100
AcDbEntity
  8
0
100
AcDbPolyline
 90
        4
 70
     1
 43
0.0
 10
104.3909958053559
 20
149.4906603333202
 10
104.3909958053559
 20
152.4906603333202
 10
107.3909958053559
 20
152.4906603333202
 10
107.3909958053559
 20
149.4906603333202
  0
LWPOLYLINE
  5
3B9
330
1F
100
AcDbEntity
  8
0
100
AcDbPolyline
 90
        4
 70
     0
 43
0.0
 10
107.3909958053559
 20
149.4906603333202
 10
107.3909958053559
 20
152.4906603333202
 10
110.3909958053559
 20
152.4906603333202
 10
110.3909958053559
 20
149.4906603333202
  0
LWPOLYLINE
  5
3BA
330
1F
100
AcDbEntity
  8
0
100
AcDbPolyline
 90
        4
 70
     1
 43
0.0
 10
110.3909958053559
 20
149.4906603333202
 10
110.3909958053559
 20
152.4906603333202
 10
113.3909958053559
 20
152.4906603333202
 10
113.3909958053559
 20
149.4906603333202
  0
LWPOLYLINE
  5
3BB
330
1F
100
AcDbEntity
  8
0
100
AcDbPolyline
 90
        4
 70
     0
 43
0.0
 10
113.3909958053559
 20
149.4906603333202
 10
113.3909958053559
 20
152.4906603333202
 10
116.3909958053559
 20
152.4906603333202
 10
116.3909958053559
 20
149.4906603333202
  0
LWPOLYLINE
  5
3BC
330
1F
100
AcDbEntity
  8
0
100
AcDbPolyline
 90
        4
 70
     1
 43
0.0
 10
116.3909958053559
 20
149.4906603333202
 10
116.3909958053559
 20
152.4906603333202
 10
119.3909958053559
 20
152.4906603333202
 10
119.3909958053559
 20
149.4906603333202
  0
LWPOLYLINE
  5
3BD
330
1F
100
AcDbEntity
  8
0
100
AcDbPolyline
 90
        4
 70
     0
 43
0.0
 10
119.3909958053559
 20
149.4906603333202
 10
119.3909958053559
 20
152.4906603333202
 10
122.3909958053559
 20
152.4906603333202
 10
122.3909958053559
 20
149.4906603333202
  0
LWPOLYLINE
  5
3BE
330
1F
100
AcDbEntity
  8
0
100
AcDbPolyline
 90
        4
 70
     1
 43
0.0
 10
122.3909958053559
 20
149.4906603333202
 10
122.3909958053559
 20
152.4906603333202
 10
125.3909958053559
 20
152.4906603333202
 10
125.3909958053559
 20
149.4906603333202
  0
LWPOLYLINE
  5
3BF
330
1F
100
AcDbEntity
  8
0
100
AcDbPolyline
 90
        4
 70
     0
 43
0.0
 10
125.3909958053559
 20
149.4906603333202
 10
125.3909958053559
 20
152.4906603333202
 10
128.3909958053559
 20
152.4906603333202
 10
128.3909958053559
 20
149.4906603333202
  0
LWPOLYLINE
  5
3C0
330
1F
100
AcDbEntity
  8
0
100
AcDbPolyline
 90
        4
 70
     1
 43
0.0
 10
128.3909958053559
 20
149.4906603333202
 10
128.3909958053559
 20
152.4906603333202
 10
131.3909958053559
 20
152.4906603333202
 10
131.3909958053559
 20
149.4906603333202
  0
LWPOLYLINE
  5
3C1
330
1F
100
AcDbEntity
  8
0
100
AcDbPolyline
 90
        4
 70
     0
 43
0.0
 10
131.3909958053559
 20
149.4906603333202
 10
131.3909958053559
 20
152.4906603333202
 10
134.3909958053559
 20
152.4906603333202
 10
134.3909958053559
 20
149.4906603333202
  0
LWPOLYLINE
  5
3C2
330
1F
100
AcDbEntity
  8
0
100
AcDbPolyline
 90
        4
 70
     1
 43
0.0
 10
134.3909958053559
 20
149.4906603333202
 10
134.3909958053559
 20
152.4906603333202
 10
137.3909958053559
 20
152.4906603333202
 10
137.3909958053559
 20
149.4906603333202
  0
LWPOLYLINE
  5
3C3
330
1F
100
AcDbEntity
  8
0
100
AcDbPolyline
 90
        4
 70
     0
 43
0.0
 10
137.3909958053559
 20
149.4906603333202
 10
137.3909958053559
 20
152.4906603333202
 10
140.3909958053559
 20
152.4906603333202
 10
140.3909958053559
 20
149.4906603333202
  0
LWPOLYLINE
  5
3C4
330
1F
100
AcDbEntity
  8
0
100
AcDbPolyline
 90
        4
 70
     1
 43
0.0
 10
140.3909958053559
 20
149.4906603333202
 10
140.3909958053559
 20
152.4906603333202
 10
143.3909958053559
 20
152.4906603333202
 10
143.3909958053559
 20
149.4906603333202
  0
LWPOLYLINE
  5
3C5
330
1F
100
AcDbEntity
  8
0
100
AcDbPolyline
 90
        4
 70
     0
 43
0.0
 10
143.3909958053559
 20
149.4906603333202
 10
143.3909958053559
 20
152.4906603333202
 10
146.3909958053559
 20
152.4906603333202
 10
146.3909958053559
 20
149.4906603333202
  0
LWPOLYLINE
  5
3C6
330
1F
100
AcDbEntity
  8
0
100
AcDbPolyline
 90
        4
 70
     1
 43
0.0
 10
146.3909958053559
 20
149.4906603333202
 10
146.3909958053559
 20
152.4906603333202
 10
149.3909958053559
 20
152.4906603333202
 10
149.3909958053559
 20
149.4906603333202
  0
LWPOLYLINE
  5
3C7
330
1F
100
AcDbEntity
  8
0
100
AcDbPolyline
 90
        4
 70
     0
 43
0.0
 10
149.3909958053559
 20
149.4906603333202
 10
149.3909958053559
 20
152.4906603333202
 10
152.3909958053559
 20
152.4906603333202
 10
152.3909958053559
 20
149.4906603333202
  0
LWPOLYLINE
  5
3C8
330
1F
100
AcDbEntity
  8
0
100
AcDbPolyline
 90
        4
 70
     1
 43
0.0
 10
152.3909958053559
 20
149.4906603333202
 10
152.3909958053559
 20
152.4906603333202
 10
155.3909958053559
 20
152.4906603333202
 10
155.3909958053559
 20
149.4906603333202
  0
LWPOLYLINE
  5
3C9
330
1F
100
AcDbEntity
  8
0
100
AcDbPolyline
 90
        4
 70
     0
 43
0.0
 10
155.3909958053559
 20
149.4906603333202
 10
155.3909958053559
 20
152.4906603333202
 10
158.3909958053559
 20
152.4906603333202
 10
158.3909958053559
 20
149.4906603333202
  0
LWPOLYLINE
  5
3CA
330
1F
100
AcDbEntity
  8
0
100
AcDbPolyline
 90
        4
 70
     1
 43
0.0
 10
158.3909958053559
 20
149.4906603333202
 10
158.3909958053559
 20
152.4906603333202
 10
161.3909958053559
 20
152.4906603333202
 10
161.3909958053559
 20
149.4906603333202
  0
LWPOLYLINE
  5
3CB
330
1F
100
AcDbEntity
  8
0
100
AcDbPolyline
 90
        4
 70
     0
 43
0.0
 10
161.3909958053559
 20
149.4906603333202
 10
161.3909958053559
 20
152.4906603333202
 10
164.3909958053559
 20
152.4906603333202
 10
164.3909958053559
 20
149.4906603333202
  0
LWPOLYLINE
  5
3CC
330
1F
100
AcDbEntity
  8
0
100
AcDbPolyline
 90
        4
 70
     1
 43
0.0
 10
164.3909958053559
 20
149.4906603333202
 10
164.3909958053559
 20
152.4906603333202
 10
167.3909958053559
 20
152.4906603333202
 10
167.3909958053559
 20
149.4906603333202
  0
LWPOLYLINE
  5
3CD
330
1F
100
AcDbEntity
  8
0
100
AcDbPolyline
 90
        4
 70
     0
 43
0.0
 10
167.3909958053559
 20
149.4906603333202
 10
167.3909958053559
 20
152.4906603333202
 10
170.3909958053559
 20
152.4906603333202
 10
170.3909958053559
 20
149.4906603333202
  0
LWPOLYLINE
  5
3CE
330
1F
100
AcDbEntity
  8
0
100
AcDbPolyline
 90
        4
 70
     1
 43
0.0
 10
170.3909958053559
 20
149.4906603333202
 10
170.3909958053559
 20
152.4906603333202
 10
173.3909958053559
 20
152.4906603333202
 10
173.3909958053559
 20
149.4906603333202
  0
LWPOLYLINE
  5
3CF
330
1F
100
AcDbEntity
  8
0
100
AcDbPolyline
 90
        4
 70
     0
 43
0.0
 10
173.3909958053559
 20
149.4906603333202
 10
173.3909958053559
 20
152.4906603333202
 10
176.3909958053559
 20
152.4906603333202
 10
176.3909958053559
 20
149.4906603333202
  0
LWPOLYLINE
  5
3D0
330
1F
100
AcDbEntity
  8
0
100
AcDbPolyline
 90
        4
 70
     1
 43
0.0
 10
176.3909958053559
 20
149.4906603333202
 10
176.3909958053559
 20
152.4906603333202
 10
179.3909958053559
 20
152.4906603333202
 10
179.3909958053559
 20
149.4906603333202
  0
LWPOLYLINE
  5
3D1
330
1F
100
AcDbEntity
  8
0
100
AcDbPolyline
 90
        4
 70
     0
 43
0.0
 10
179.3909958053559
 20
149.4906603333202
 10
179.3909958053559
 20
152.4906603333202
 10
182.3909958053559
 20
152.4906603333202
 10
182.3909958053559
 20
149.4906603333202
  0
LWPOLYLINE
  5
3D2
330
1F
100
AcDbEntity
  8
0
100
AcDbPolyline
 90
        4
 70
     1
 43
0.0
 10
182.3909958053559
 20
149.4906603333202
 10
182.3909958053559
 20
152.4906603333202
 10
185.3909958053559
 20
152.4906603333202
 10
185.3909958053559
 20
149.4906603333202
  0
LINE
  5
3D3
330
1F
100
AcDbEntity
  8
0
100
AcDbLine
 10
82.2289980139312
 20
152.4906603333202
 30
0.0
 11
73.93524455147709
 21
152.4906603333202
 31
0.0
  0
LINE
  5
3D4
330
1F
100
AcDbEntity
  8
0
100
AcDbLine
 10
185.3909958053559
 20
152.4906603333202
 30
0.0
 11
192.4352445514771
 21
152.4906603333202
 31
0.0
  0
LWPOLYLINE
  5
3D5
330
1F
100
AcDbEntity
  8
0
100
AcDbPolyline
 90
        2
 70
     0
 43
0.0
 10
185.3909958053559
 20
229.4906603333203
 10
182.3909958053559
 20
229.4906603333203
  0
LWPOLYLINE
  5
3D6
330
1F
100
AcDbEntity
  8
0
100
AcDbPolyline
 90
        2
 70
     0
 43
0.0
 10
179.3909958053559
 20
229.4906603333203
 10
176.3909958053559
 20
229.4906603333203
  0
LWPOLYLINE
  5
3D7
330
1F
100
AcDbEntity
  8
0
100
AcDbPolyline
 90
        2
 70
     0
 43
0.0
 10
173.3909958053559
 20
229.4906603333203
 10
170.3909958053559
 20
229.4906603333203
  0
LWPOLYLINE
  5
3D8
330
1F
100
AcDbEntity
  8
0
100
AcDbPolyline
 90
        2
 70
     0
 43
0.0
 10
167.3909958053559
 20
229.4906603333203
 10
164.3909958053559
 20
229.4906603333203
  0
LWPOLYLINE
  5
3D9
330
1F
100
AcDbEntity
  8
0
100
AcDbPolyline
 90
        2
 70
     0
 43
0.0
 10
161.3909958053559
 20
229.4906603333203
 10
158.3909958053559
 20
229.4906603333203
  0
LWPOLYLINE
  5
3DA
330
1F
100
AcDbEntity
  8
0
100
AcDbPolyline
 90
        2
 70
     0
 43
0.0
 10
155.3909958053559
 20
229.4906603333203
 10
152.3909958053559
 20
229.4906603333203
  0
LWPOLYLINE
  5
3DB
330
1F
100
AcDbEntity
  8
0
100
AcDbPolyline
 90
        2
 70
     0
 43
0.0
 10
149.3909958053559
 20
229.4906603333203
 10
146.3909958053559
 20
229.4906603333203
  0
LWPOLYLINE
  5
3DC
330
1F
100
AcDbEntity
  8
0
100
AcDbPolyline
 90
        2
 70
     0
 43
0.0
 10
143.3909958053559
 20
229.4906603333203
 10
140.3909958053559
 20
229.4906603333203
  0
LWPOLYLINE
  5
3DD
330
1F
100
AcDbEntity
  8
0
100
AcDbPolyline
 90
        2
 70
     0
 43
0.0
 10
137.3909958053559
 20
229.4906603333203
 10
134.3909958053559
 20
229.4906603333203
  0
LWPOLYLINE
  5
3DE
330
1F
100
AcDbEntity
  8
0
100
AcDbPolyline
 90
        2
 70
     0
 43
0.0
 10
131.3909958053559
 20
229.4906603333203
 10
128.3909958053559
 20
229.4906603333203
  0
LWPOLYLINE
  5
3DF
330
1F
100
AcDbEntity
  8
0
100
AcDbPolyline
 90
        2
 70
     0
 43
0.0
 10
125.3909958053559
 20
229.4906603333203
 10
122.3909958053559
 20
229.4906603333203
  0
LWPOLYLINE
  5
3E0
330
1F
100
AcDbEntity
  8
0
100
AcDbPolyline
 90
        2
 70
     0
 43
0.0
 10
119.3909958053559
 20
229.4906603333203
 10
116.3909958053559
 20
229.4906603333203
  0
LWPOLYLINE
  5
3E1
330
1F
100
AcDbEntity
  8
0
100
AcDbPolyline
 90
        2
 70
     0
 43
0.0
 10
113.3909958053559
 20
229.4906603333203
 10
110.3909958053559
 20
229.4906603333203
  0
LWPOLYLINE
  5
3E2
330
1F
100
AcDbEntity
  8
0
100
AcDbPolyline
 90
        2
 70
     0
 43
0.0
 10
107.3909958053559
 20
229.4906603333203
 10
104.3909958053559
 20
229.4906603333203
  0
LWPOLYLINE
  5
3E3
330
1F
100
AcDbEntity
  8
0
100
AcDbPolyline
 90
        2
 70
     0
 43
0.0
 10
101.3909958053559
 20
229.4906603333203
 10
98.39099580535592
 20
229.4906603333203
  0
LWPOLYLINE
  5
3E4
330
1F
100
AcDbEntity
  8
0
100
AcDbPolyline
 90
        2
 70
     0
 43
0.0
 10
95.39099580535591
 20
229.4906603333203
 10
92.39099580535592
 20
229.4906603333203
  0
LWPOLYLINE
  5
3E5
330
1F
100
AcDbEntity
  8
0
100
AcDbPolyline
 90
        2
 70
     0
 43
0.0
 10
89.39099580535591
 20
229.4906603333203
 10
86.39099580535591
 20
229.4906603333203
  0
LWPOLYLINE
  5
3E6
330
1F
100
AcDbEntity
  8
0
100
AcDbPolyline
 90
        2
 70
     0
 43
0.0
 10
83.39099580535592
 20
229.4906603333203
 10
80.39099580535591
 20
229.4906603333203
  0
LWPOLYLINE
  5
3E7
330
1F
100
AcDbEntity
  8
0
100
AcDbPolyline
 90
        4
 70
     1
 43
0.0
 10
80.39099580535591
 20
229.4906603333203
 10
80.39099580535591
 20
226.4906603333203
 10
83.39099580535592
 20
226.4906603333203
 10
83.39099580535592
 20
229.4906603333203
  0
LWPOLYLINE
  5
3E8
330
1F
100
AcDbEntity
  8
0
100
AcDbPolyline
 90
        4
 70
     0
 43
0.0
 10
83.39099580535592
 20
229.4906603333203
 10
83.39099580535592
 20
226.4906603333203
 10
86.39099580535591
 20
226.4906603333203
 10
86.39099580535591
 20
229.4906603333203
  0
LWPOLYLINE
  5
3E9
330
1F
100
AcDbEntity
  8
0
100
AcDbPolyline
 90
        4
 70
     1
 43
0.0
 10
86.39099580535591
 20
229.4906603333203
 10
86.39099580535591
 20
226.4906603333203
 10
89.39099580535591
 20
226.4906603333203
 10
89.39099580535591
 20
229.4906603333203
  0
LWPOLYLINE
  5
3EA
330
1F
100
AcDbEntity
  8
0
100
AcDbPolyline
 90
        4
 70
     0
 43
0.0
 10
89.39099580535591
 20
229.4906603333203
 10
89.39099580535591
 20
226.4906603333203
 10
92.39099580535592
 20
226.4906603333203
 10
92.39099580535592
 20
229.4906603333203
  0
LWPOLYLINE
  5
3EB
330
1F
100
AcDbEntity
  8
0
100
AcDbPolyline
 90
        4
 70
     1
 43
0.0
 10
92.39099580535592
 20
229.4906603333203
 10
92.39099580535592
 20
226.4906603333203
 10
95.39099580535591
 20
226.4906603333203
 10
95.39099580535591
 20
229.4906603333203
  0
LWPOLYLINE
  5
3EC
330
1F
100
AcDbEntity
  8
0
100
AcDbPolyline
 90
        4
 70
     0
 43
0.0
 10
95.39099580535591
 20
229.4906603333203
 10
95.39099580535591
 20
226.4906603333203
 10
98.39099580535592
 20
226.4906603333203
 10
98.39099580535592
 20
229.4906603333203
  0
LWPOLYLINE
  5
3ED
330
1F
100
AcDbEntity
  8
0
100
AcDbPolyline
 90
        4
 70
     1
 43
0.0
 10
98.39099580535592
 20
229.4906603333203
 10
98.39099580535592
 20
226.4906603333203
 10
101.3909958053559
 20
226.4906603333203
 10
101.3909958053559
 20
229.4906603333203
  0
LWPOLYLINE
  5
3EE
330
1F
100
AcDbEntity
  8
0
100
AcDbPolyline
 90
        4
 70
     0
 43
0.0
 10
101.3909958053559
 20
229.4906603333203
 10
101.3909958053559
 20
226.4906603333203
 10
104.3909958053559
 20
226.4906603333203
 10
104.3909958053559
 20
229.4906603333203
  0
LWPOLYLINE
  5
3EF
330
1F
100
AcDbEntity
  8
0
100
AcDbPolyline
 90
        4
 70
     1
 43
0.0
 10
104.3909958053559
 20
229.4906603333203
 10
104.3909958053559
 20
226.4906603333203
 10
107.3909958053559
 20
226.4906603333203
 10
107.3909958053559
 20
229.4906603333203
  0
LWPOLYLINE
  5
3F0
330
1F
100
AcDbEntity
  8
0
100
AcDbPolyline
 90
        4
 70
     0
 43
0.0
 10
107.3909958053559
 20
229.4906603333203
 10
107.3909958053559
 20
226.4906603333203
 10
110.3909958053559
 20
226.4906603333203
 10
110.3909958053559
 20
229.4906603333203
  0
LWPOLYLINE
  5
3F1
330
1F
100
AcDbEntity
  8
0
100
AcDbPolyline
 90
        4
 70
     1
 43
0.0
 10
110.3909958053559
 20
229.4906603333203
 10
110.3909958053559
 20
226.4906603333203
 10
113.3909958053559
 20
226.4906603333203
 10
113.3909958053559
 20
229.4906603333203
  0
LWPOLYLINE
  5
3F2
330
1F
100
AcDbEntity
  8
0
100
AcDbPolyline
 90
        4
 70
     0
 43
0.0
 10
113.3909958053559
 20
229.4906603333203
 10
113.3909958053559
 20
226.4906603333203
 10
116.3909958053559
 20
226.4906603333203
 10
116.3909958053559
 20
229.4906603333203
  0
LWPOLYLINE
  5
3F3
330
1F
100
AcDbEntity
  8
0
100
AcDbPolyline
 90
        4
 70
     1
 43
0.0
 10
116.3909958053559
 20
229.4906603333203
 10
116.3909958053559
 20
226.4906603333203
 10
119.3909958053559
 20
226.4906603333203
 10
119.3909958053559
 20
229.4906603333203
  0
LWPOLYLINE
  5
3F4
330
1F
100
AcDbEntity
  8
0
100
AcDbPolyline
 90
        4
 70
     0
 43
0.0
 10
119.3909958053559
 20
229.4906603333203
 10
119.3909958053559
 20
226.4906603333203
 10
122.3909958053559
 20
226.4906603333203
 10
122.3909958053559
 20
229.4906603333203
  0
LWPOLYLINE
  5
3F5
330
1F
100
AcDbEntity
  8
0
100
AcDbPolyline
 90
        4
 70
     1
 43
0.0
 10
122.3909958053559
 20
229.4906603333203
 10
122.3909958053559
 20
226.4906603333203
 10
125.3909958053559
 20
226.4906603333203
 10
125.3909958053559
 20
229.4906603333203
  0
LWPOLYLINE
  5
3F6
330
1F
100
AcDbEntity
  8
0
100
AcDbPolyline
 90
        4
 70
     0
 43
0.0
 10
125.3909958053559
 20
229.4906603333203
 10
125.3909958053559
 20
226.4906603333203
 10
128.3909958053559
 20
226.4906603333203
 10
128.3909958053559
 20
229.4906603333203
  0
LWPOLYLINE
  5
3F7
330
1F
100
AcDbEntity
  8
0
100
AcDbPolyline
 90
        4
 70
     1
 43
0.0
 10
128.3909958053559
 20
229.4906603333203
 10
128.3909958053559
 20
226.4906603333203
 10
131.3909958053559
 20
226.4906603333203
 10
131.3909958053559
 20
229.4906603333203
  0
LWPOLYLINE
  5
3F8
330
1F
100
AcDbEntity
  8
0
100
AcDbPolyline
 90
        4
 70
     0
 43
0.0
 10
131.3909958053559
 20
229.4906603333203
 10
131.3909958053559
 20
226.4906603333203
 10
134.3909958053559
 20
226.4906603333203
 10
134.3909958053559
 20
229.4906603333203
  0
LWPOLYLINE
  5
3F9
330
1F
100
AcDbEntity
  8
0
100
AcDbPolyline
 90
        4
 70
     1
 43
0.0
 10
134.3909958053559
 20
229.4906603333203
 10
134.3909958053559
 20
226.4906603333203
 10
137.3909958053559
 20
226.4906603333203
 10
137.3909958053559
 20
229.4906603333203
  0
LWPOLYLINE
  5
3FA
330
1F
100
AcDbEntity
  8
0
100
AcDbPolyline
 90
        4
 70
     0
 43
0.0
 10
137.3909958053559
 20
229.4906603333203
 10
137.3909958053559
 20
226.4906603333203
 10
140.3909958053559
 20
226.4906603333203
 10
140.3909958053559
 20
229.4906603333203
  0
LWPOLYLINE
  5
3FB
330
1F
100
AcDbEntity
  8
0
100
AcDbPolyline
 90
        4
 70
     1
 43
0.0
 10
140.3909958053559
 20
229.4906603333203
 10
140.3909958053559
 20
226.4906603333203
 10
143.3909958053559
 20
226.4906603333203
 10
143.3909958053559
 20
229.4906603333203
  0
LWPOLYLINE
  5
3FC
330
1F
100
AcDbEntity
  8
0
100
AcDbPolyline
 90
        4
 70
     0
 43
0.0
 10
143.3909958053559
 20
229.4906603333203
 10
143.3909958053559
 20
226.4906603333203
 10
146.3909958053559
 20
226.4906603333203
 10
146.3909958053559
 20
229.4906603333203
  0
LWPOLYLINE
  5
3FD
330
1F
100
AcDbEntity
  8
0
100
AcDbPolyline
 90
        4
 70
     1
 43
0.0
 10
146.3909958053559
 20
229.4906603333203
 10
146.3909958053559
 20
226.4906603333203
 10
149.3909958053559
 20
226.4906603333203
 10
149.3909958053559
 20
229.4906603333203
  0
LWPOLYLINE
  5
3FE
330
1F
100
AcDbEntity
  8
0
100
AcDbPolyline
 90
        4
 70
     0
 43
0.0
 10
149.3909958053559
 20
229.4906603333203
 10
149.3909958053559
 20
226.4906603333203
 10
152.3909958053559
 20
226.4906603333203
 10
152.3909958053559
 20
229.4906603333203
  0
LWPOLYLINE
  5
3FF
330
1F
100
AcDbEntity
  8
0
100
AcDbPolyline
 90
        4
 70
     1
 43
0.0
 10
152.3909958053559
 20
229.4906603333203
 10
152.3909958053559
 20
226.4906603333203
 10
155.3909958053559
 20
226.4906603333203
 10
155.3909958053559
 20
229.4906603333203
  0
LWPOLYLINE
  5
400
330
1F
100
AcDbEntity
  8
0
100
AcDbPolyline
 90
        4
 70
     0
 43
0.0
 10
155.3909958053559
 20
229.4906603333203
 10
155.3909958053559
 20
226.4906603333203
 10
158.3909958053559
 20
226.4906603333203
 10
158.3909958053559
 20
229.4906603333203
  0
LWPOLYLINE
  5
401
330
1F
100
AcDbEntity
  8
0
100
AcDbPolyline
 90
        4
 70
     1
 43
0.0
 10
158.3909958053559
 20
229.4906603333203
 10
158.3909958053559
 20
226.4906603333203
 10
161.3909958053559
 20
226.4906603333203
 10
161.3909958053559
 20
229.4906603333203
  0
LWPOLYLINE
  5
402
330
1F
100
AcDbEntity
  8
0
100
AcDbPolyline
 90
        4
 70
     0
 43
0.0
 10
161.3909958053559
 20
229.4906603333203
 10
161.3909958053559
 20
226.4906603333203
 10
164.3909958053559
 20
226.4906603333203
 10
164.3909958053559
 20
229.4906603333203
  0
LWPOLYLINE
  5
403
330
1F
100
AcDbEntity
  8
0
100
AcDbPolyline
 90
        4
 70
     1
 43
0.0
 10
164.3909958053559
 20
229.4906603333203
 10
164.3909958053559
 20
226.4906603333203
 10
167.3909958053559
 20
226.4906603333203
 10
167.3909958053559
 20
229.4906603333203
  0
LWPOLYLINE
  5
404
330
1F
100
AcDbEntity
  8
0
100
AcDbPolyline
 90
        4
 70
     0
 43
0.0
 10
167.3909958053559
 20
229.4906603333203
 10
167.3909958053559
 20
226.4906603333203
 10
170.3909958053559
 20
226.4906603333203
 10
170.3909958053559
 20
229.4906603333203
  0
LWPOLYLINE
  5
405
330
1F
100
AcDbEntity
  8
0
100
AcDbPolyline
 90
        4
 70
     1
 43
0.0
 10
170.3909958053559
 20
229.4906603333203
 10
170.3909958053559
 20
226.4906603333203
 10
173.3909958053559
 20
226.4906603333203
 10
173.3909958053559
 20
229.4906603333203
  0
LWPOLYLINE
  5
406
330
1F
100
AcDbEntity
  8
0
100
AcDbPolyline
 90
        4
 70
     0
 43
0.0
 10
173.3909958053559
 20
229.4906603333203
 10
173.3909958053559
 20
226.4906603333203
 10
176.3909958053559
 20
226.4906603333203
 10
176.3909958053559
 20
229.4906603333203
  0
LWPOLYLINE
  5
407
330
1F
100
AcDbEntity
  8
0
100
AcDbPolyline
 90
        4
 70
     1
 43
0.0
 10
176.3909958053559
 20
229.4906603333203
 10
176.3909958053559
 20
226.4906603333203
 10
179.3909958053559
 20
226.4906603333203
 10
179.3909958053559
 20
229.4906603333203
  0
LWPOLYLINE
  5
408
330
1F
100
AcDbEntity
  8
0
100
AcDbPolyline
 90
        4
 70
     0
 43
0.0
 10
179.3909958053559
 20
229.4906603333203
 10
179.3909958053559
 20
226.4906603333203
 10
182.3909958053559
 20
226.4906603333203
 10
182.3909958053559
 20
229.4906603333203
  0
LWPOLYLINE
  5
409
330
1F
100
AcDbEntity
  8
0
100
AcDbPolyline
 90
        4
 70
     1
 43
0.0
 10
182.3909958053559
 20
229.4906603333203
 10
182.3909958053559
 20
226.4906603333203
 10
185.3909958053559
 20
226.4906603333203
 10
185.3909958053559
 20
229.4906603333203
  0
LINE
  5
40A
330
1F
100
AcDbEntity
  8
0
100
AcDbLine
 10
80.39099580535591
 20
226.4906603333203
 30
0.0
 11
73.93524455147709
 21
226.4906603333203
 31
0.0
  0
LINE
  5
40B
330
1F
100
AcDbEntity
  8
0
100
AcDbLine
 10
185.3909958053559
 20
226.4906603333203
 30
0.0
 11
192.4352445514771
 21
226.4906603333203
 31
0.0
  0
MTEXT
  5
40C
330
1F
100
AcDbEntity
  8
0
100
AcDbMText
 10
85.97107436794713
 20
202.139189071683
 30
0.0
 40
7.0
 41
117.0266261906474
 71
     1
 72
     5
  1
{\fTimes New Roman|b0|i0|c0|p18;PNTECH CONTROLS}
 73
     1
 44
1.0
1001
ACAD
1000
MTEXTBEGIN
1070
    73
1070
     1
1070
    44
1040
1.0
1070
    74
1070
     0
1000
MTEXTEND
  0
MTEXT
  5
40D
330
1F
100
AcDbEntity
  8
0
100
AcDbMText
 10
145.6957959470231
 20
172.6170201474298
 30
0.0
 40
4.5
 41
44.79584331544697
 71
     1
 72
     5
  1
{\fTimes New Roman|b0|i0|c0|p18;EXP-8UI8AO}
 73
     1
 44
1.0
1001
ACAD
1000
MTEXTBEGIN
1070
    73
1070
     1
1070
    44
1040
1.0
1070
    74
1070
     0
1000
MTEXTEND
  0
MTEXT
  5
40E
330
1F
100
AcDbEntity
  8
0
100
AcDbMText
 10
83.3365748295616
 20
139.2406603333202
 30
0.0
 40
2.339449156700929
 41
16.38732070717815
 71
     1
 72
     5
  1
{\fTimes New Roman|b0|i0|c0|p18;NET +}
 11
0.0000000000000001
 21
1.0
 31
0.0
 73
     1
 44
1.0
1001
ACAD
1000
MTEXTBEGIN
1070
    73
1070
     1
1070
    44
1040
1.0
1070
    74
1070
     0
1000
MTEXTEND
  0
MTEXT
  5
40F
330
1F
100
AcDbEntity
  8
0
100
AcDbMText
 10
88.43657399116963
 20
139.2406603333202
 30
0.0
 40
2.339449156700929
 41
16.38732070717815
 71
     1
 72
     5
  1
{\fTimes New Roman|b0|i0|c0|p18;NET-}
 11
0.0000000000000001
 21
1.0
 31
0.0
 73
     1
 44
1.0
1001
ACAD
1000
MTEXTBEGIN
1070
    73
1070
     1
1070
    44
1040
1.0
1070
    74
1070
     0
1000
MTEXTEND
  0
MTEXT
  5
410
330
1F
100
AcDbEntity
  8
0
100
AcDbMText
 10
93.53657315277766
 20
139.2406603333202
 30
0.0
 40
2.339449156700929
 41
16.38732070717815
 71
     1
 72
     5
  1
{\fTimes New Roman|b0|i0|c0|p18;A +}
 11
0.0000000000000001
 21
1.0
 31
0.0
 73
     1
 44
1.0
1001
ACAD
1000
MTEXTBEGIN
1070
    73
1070
     1
1070
    44
1040
1.0
1070
    74
1070
     0
1000
MTEXTEND
  0
MTEXT
  5
411
330
1F
100
AcDbEntity
  8
0
100
AcDbMText
 10
98.63657231438569
 20
139.2406603333202
 30
0.0
 40
2.339449156700929
 41
16.38732070717815
 71
     1
 72
     5
  1
{\fTimes New Roman|b0|i0|c0|p18;B -}
 11
0.0000000000000001
 21
1.0
 31
0.0
 73
     1
 44
1.0
1001
ACAD
1000
MTEXTBEGIN
1070
    73
1070
     1
1070
    44
1040
1.0
1070
    74
1070
     0
1000
MTEXTEND
  0
MTEXT
  5
412
330
1F
100
AcDbEntity
  8
0
100
AcDbMText
 10
103.7365714759937
 20
139.2406603333202
 30
0.0
 40
2.339449156700929
 41
16.38732070717815
 71
     1
 72
     5
  1
{\fTimes New Roman|b0|i0|c0|p18;GND}
 11
0.0000000000000001
 21
1.0
 31
0.0
 73
     1
 44
1.0
1001
ACAD
1000
MTEXTBEGIN
1070
    73
1070
     1
1070
    44
1040
1.0
1070
    74
1070
     0
1000
MTEXTEND
  0
MTEXT
  5
413
330
1F
100
AcDbEntity
  8
0
100
AcDbMText
 10
113.9365697992097
 20
139.2406603333202
 30
0.0
 40
2.339449156700929
 41
16.38732070717815
 71
     1
 72
     5
  1
{\fTimes New Roman|b0|i0|c0|p18;24V OUT}
 11
0.0000000000000001
 21
1.0
 31
0.0
 73
     1
 44
1.0
1001
ACAD
1000
MTEXTBEGIN
1070
    73
1070
     1
1070
    44
1040
1.0
1070
    74
1070
     0
1000
MTEXTEND
  0
MTEXT
  5
414
330
1F
100
AcDbEntity
  8
0
100
AcDbMText
 10
119.0365689608178
 20
139.2406603333202
 30
0.0
 40
2.339449156700929
 41
16.38732070717815
 71
     1
 72
     5
  1
{\fTimes New Roman|b0|i0|c0|p18;UI 01}
 11
0.0000000000000001
 21
1.0
 31
0.0
 73
     1
 44
1.0
1001
ACAD
1000
MTEXTBEGIN
1070
    73
1070
     1
1070
    44
1040
1.0
1070
    74
1070
     0
1000
MTEXTEND
  0
MTEXT
  5
415
330
1F
100
AcDbEntity
  8
0
100
AcDbMText
 10
124.1365681224258
 20
139.2406603333202
 30
0.0
 40
2.339449156700929
 41
16.38732070717815
 71
     1
 72
     5
  1
{\fTimes New Roman|b0|i0|c0|p18;UI 02}
 11
0.0000000000000001
 21
1.0
 31
0.0
 73
     1
 44
1.0
1001
ACAD
1000
MTEXTBEGIN
1070
    73
1070
     1
1070
    44
1040
1.0
1070
    74
1070
     0
1000
MTEXTEND
  0
MTEXT
  5
416
330
1F
100
AcDbEntity
  8
0
100
AcDbMText
 10
129.2365672840338
 20
139.2406603333202
 30
0.0
 40
2.339449156700929
 41
16.38732070717815
 71
     1
 72
     5
  1
{\fTimes New Roman|b0|i0|c0|p18;UI 04}
 11
0.0000000000000001
 21
1.0
 31
0.0
 73
     1
 44
1.0
1001
ACAD
1000
MTEXTBEGIN
1070
    73
1070
     1
1070
    44
1040
1.0
1070
    74
1070
     0
1000
MTEXTEND
  0
MTEXT
  5
417
330
1F
100
AcDbEntity
  8
0
100
AcDbMText
 10
139.4365656072499
 20
139.2406603333202
 30
0.0
 40
2.339449156700929
 41
16.38732070717815
 71
     1
 72
     5
  1
{\fTimes New Roman|b0|i0|c0|p18;UI 03}
 11
0.0000000000000001
 21
1.0
 31
0.0
 73
     1
 44
1.0
1001
ACAD
1000
MTEXTBEGIN
1070
    73
1070
     1
1070
    44
1040
1.0
1070
    74
1070
     0
1000
MTEXTEND
  0
MTEXT
  5
418
330
1F
100
AcDbEntity
  8
0
100
AcDbMText
 10
149.6365639304659
 20
139.2406603333202
 30
0.0
 40
2.339449156700929
 41
16.38732070717815
 71
     1
 72
     5
  1
{\fTimes New Roman|b0|i0|c0|p18;GND}
 11
0.0000000000000001
 21
1.0
 31
0.0
 73
     1
 44
1.0
1001
ACAD
1000
MTEXTBEGIN
1070
    73
1070
     1
1070
    44
1040
1.0
1070
    74
1070
     0
1000
MTEXTEND
  0
MTEXT
  5
419
330
1F
100
AcDbEntity
  8
0
100
AcDbMText
 10
154.7365630920739
 20
139.2406603333202
 30
0.0
 40
2.339449156700929
 41
16.38732070717815
 71
     1
 72
     5
  1
{\fTimes New Roman|b0|i0|c0|p18;UI 05}
 11
0.0000000000000001
 21
1.0
 31
0.0
 73
     1
 44
1.0
1001
ACAD
1000
MTEXTBEGIN
1070
    73
1070
     1
1070
    44
1040
1.0
1070
    74
1070
     0
1000
MTEXTEND
  0
MTEXT
  5
41A
330
1F
100
AcDbEntity
  8
0
100
AcDbMText
 10
159.836562253682
 20
139.2406603333202
 30
0.0
 40
2.339449156700929
 41
16.38732070717815
 71
     1
 72
     5
  1
{\fTimes New Roman|b0|i0|c0|p18;UI 06}
 11
0.0000000000000001
 21
1.0
 31
0.0
 73
     1
 44
1.0
1001
ACAD
1000
MTEXTBEGIN
1070
    73
1070
     1
1070
    44
1040
1.0
1070
    74
1070
     0
1000
MTEXTEND
  0
MTEXT
  5
41B
330
1F
100
AcDbEntity
  8
0
100
AcDbMText
 10
164.93656141529
 20
139.2406603333202
 30
0.0
 40
2.339449156700929
 41
16.38732070717815
 71
     1
 72
     5
  1
{\fTimes New Roman|b0|i0|c0|p18;GND}
 11
0.0000000000000001
 21
1.0
 31
0.0
 73
     1
 44
1.0
1001
ACAD
1000
MTEXTBEGIN
1070
    73
1070
     1
1070
    44
1040
1.0
1070
    74
1070
     0
1000
MTEXTEND
  0
MTEXT
  5
41C
330
1F
100
AcDbEntity
  8
0
100
AcDbMText
 10
170.036560576898
 20
139.2406603333202
 30
0.0
 40
2.339449156700929
 41
16.38732070717815
 71
     1
 72
     5
  1
{\fTimes New Roman|b0|i0|c0|p18;UI 07}
 11
0.0000000000000001
 21
1.0
 31
0.0
 73
     1
 44
1.0
1001
ACAD
1000
MTEXTBEGIN
1070
    73
1070
     1
1070
    44
1040
1.0
1070
    74
1070
     0
1000
MTEXTEND
  0
MTEXT
  5
41D
330
1F
100
AcDbEntity
  8
0
100
AcDbMText
 10
175.136559738506
 20
139.2406603333202
 30
0.0
 40
2.339449156700929
 41
16.38732070717815
 71
     1
 72
     5
  1
{\fTimes New Roman|b0|i0|c0|p18;UI 08}
 11
0.0000000000000001
 21
1.0
 31
0.0
 73
     1
 44
1.0
1001
ACAD
1000
MTEXTBEGIN
1070
    73
1070
     1
1070
    44
1040
1.0
1070
    74
1070
     0
1000
MTEXTEND
  0
MTEXT
  5
41E
330
1F
100
AcDbEntity
  8
0
100
AcDbMText
 10
180.236558900114
 20
139.2406603333202
 30
0.0
 40
2.339449156700929
 41
16.38732070717815
 71
     1
 72
     5
  1
{\fTimes New Roman|b0|i0|c0|p18;GND}
 11
0.0000000000000001
 21
1.0
 31
0.0
 73
     1
 44
1.0
1001
ACAD
1000
MTEXTBEGIN
1070
    73
1070
     1
1070
    44
1040
1.0
1070
    74
1070
     0
1000
MTEXTEND
  0
MTEXT
  5
41F
330
1F
100
AcDbEntity
  8
0
100
AcDbMText
 10
83.3006734159529
 20
229.8844725020845
 30
0.0
 40
2.339449541284402
 41
20.96115204163199
 71
     1
 72
     5
  1
{\fTimes New Roman|b0|i0|c0|p18;24V}
 11
0.0000000000000001
 21
1.0
 31
0.0
 73
     1
 44
1.0
1001
ACAD
1000
MTEXTBEGIN
1070
    73
1070
     1
1070
    44
1040
1.0
1070
    74
1070
     0
1000
MTEXTEND
  0
MTEXT
  5
420
330
1F
100
AcDbEntity
  8
0
100
AcDbMText
 10
88.40067341595281
 20
229.8844725020845
 30
0.0
 40
2.339449541284402
 41
16.38732340109979
 71
     1
 72
     5
  1
{\fTimes New Roman|b0|i0|c0|p18;GND }
 11
0.0000000000000001
 21
1.0
 31
0.0
 73
     1
 44
1.0
1001
ACAD
1000
MTEXTBEGIN
1070
    73
1070
     1
1070
    44
1040
1.0
1070
    74
1070
     0
1000
MTEXTEND
  0
MTEXT
  5
421
330
1F
100
AcDbEntity
  8
0
100
AcDbMText
 10
103.7006734159529
 20
229.8844725020845
 30
0.0
 40
2.339449541284402
 41
16.38732340109979
 71
     1
 72
     5
  1
{\fTimes New Roman|b0|i0|c0|p18;AO 01}
 11
0.0000000000000001
 21
1.0
 31
0.0
 73
     1
 44
1.0
1001
ACAD
1000
MTEXTBEGIN
1070
    73
1070
     1
1070
    44
1040
1.0
1070
    74
1070
     0
1000
MTEXTEND
  0
MTEXT
  5
422
330
1F
100
AcDbEntity
  8
0
100
AcDbMText
 10
113.9006734159528
 20
229.8844725020845
 30
0.0
 40
2.339449541284402
 41
16.38732340109979
 71
     1
 72
     5
  1
{\fTimes New Roman|b0|i0|c0|p18;AO 02}
 11
0.0000000000000001
 21
1.0
 31
0.0
 73
     1
 44
1.0
1001
ACAD
1000
MTEXTBEGIN
1070
    73
1070
     1
1070
    44
1040
1.0
1070
    74
1070
     0
1000
MTEXTEND
  0
MTEXT
  5
423
330
1F
100
AcDbEntity
  8
0
100
AcDbMText
 10
124.1006734159528
 20
229.8844725020845
 30
0.0
 40
2.339449541284402
 41
16.38732340109979
 71
     1
 72
     5
  1
{\fTimes New Roman|b0|i0|c0|p18;AO 03}
 11
0.0000000000000001
 21
1.0
 31
0.0
 73
     1
 44
1.0
1001
ACAD
1000
MTEXTBEGIN
1070
    73
1070
     1
1070
    44
1040
1.0
1070
    74
1070
     0
1000
MTEXTEND
  0
MTEXT
  5
424
330
1F
100
AcDbEntity
  8
0
100
AcDbMText
 10
134.3006734159528
 20
229.8844725020845
 30
0.0
 40
2.339449541284402
 41
16.38732340109979
 71
     1
 72
     5
  1
{\fTimes New Roman|b0|i0|c0|p18;AO 04}
 11
0.0000000000000001
 21
1.0
 31
0.0
 73
     1
 44
1.0
1001
ACAD
1000
MTEXTBEGIN
1070
    73
1070
     1
1070
    44
1040
1.0
1070
    74
1070
     0
1000
MTEXTEND
  0
MTEXT
  5
425
330
1F
100
AcDbEntity
  8
0
100
AcDbMText
 10
144.5006734159528
 20
229.8844725020845
 30
0.0
 40
2.339449541284402
 41
16.38732340109979
 71
     1
 72
     5
  1
{\fTimes New Roman|b0|i0|c0|p18;AO 05}
 11
0.0000000000000001
 21
1.0
 31
0.0
 73
     1
 44
1.0
1001
ACAD
1000
MTEXTBEGIN
1070
    73
1070
     1
1070
    44
1040
1.0
1070
    74
1070
     0
1000
MTEXTEND
  0
MTEXT
  5
426
330
1F
100
AcDbEntity
  8
0
100
AcDbMText
 10
154.7006734159527
 20
229.8844725020845
 30
0.0
 40
2.339449541284402
 41
16.38732340109979
 71
     1
 72
     5
  1
{\fTimes New Roman|b0|i0|c0|p18;AO 06}
 11
0.0000000000000001
 21
1.0
 31
0.0
 73
     1
 44
1.0
1001
ACAD
1000
MTEXTBEGIN
1070
    73
1070
     1
1070
    44
1040
1.0
1070
    74
1070
     0
1000
MTEXTEND
  0
MTEXT
  5
427
330
1F
100
AcDbEntity
  8
0
100
AcDbMText
 10
164.9006734159527
 20
229.8844725020845
 30
0.0
 40
2.339449541284402
 41
16.38732340109979
 71
     1
 72
     5
  1
{\fTimes New Roman|b0|i0|c0|p18;AO 07}
 11
0.0000000000000001
 21
1.0
 31
0.0
 73
     1
 44
1.0
1001
ACAD
1000
MTEXTBEGIN
1070
    73
1070
     1
1070
    44
1040
1.0
1070
    74
1070
     0
1000
MTEXTEND
  0
MTEXT
  5
428
330
1F
100
AcDbEntity
  8
0
100
AcDbMText
 10
175.1006734159527
 20
229.8844725020845
 30
0.0
 40
2.339449541284402
 41
16.38732340109979
 71
     1
 72
     5
  1
{\fTimes New Roman|b0|i0|c0|p18;AO 08}
 11
0.0000000000000001
 21
1.0
 31
0.0
 73
     1
 44
1.0
1001
ACAD
1000
MTEXTBEGIN
1070
    73
1070
     1
1070
    44
1040
1.0
1070
    74
1070
     0
1000
MTEXTEND
  0
LWPOLYLINE
  5
429
330
1F
100
AcDbEntity
  8
0
 62
     4
100
AcDbPolyline
 90
        3
 70
     0
 43
0.0
 10
81.68524455147709
 20
238.7406603333203
 10
81.68524455147709
 20
251.9906603333203
 10
91.88524455147714
 20
251.9906603333203
  0
LWPOLYLINE
  5
42A
102
{ACAD_REACTORS
330
56B
102
}
330
1F
100
AcDbEntity
  8
0
 62
     4
100
AcDbPolyline
 90
        3
 70
     0
 43
0.0
 10
102.085244551477
 20
251.9906603333203
 10
183.6852445514771
 20
251.9906603333203
 10
183.6852445514771
 20
238.7406603333203
  0
LWPOLYLINE
  5
42B
330
1F
100
AcDbEntity
  8
0
 62
     4
100
AcDbPolyline
 90
        4
 70
     0
 43
0.0
 10
81.68524455147709
 20
139.2406603333202
 10
81.68524455147709
 20
127.0491465718524
 10
183.6852445514771
 20
127.0491465718524
 10
183.6852445514771
 20
139.2406603333202
  0
LWPOLYLINE
  5
42C
330
1F
100
AcDbEntity
  8
0
 62
     4
100
AcDbPolyline
 90
        4
 70
     0
 43
0.0
 10
81.68524455147709
 20
139.2406603333202
 10
81.68524455147709
 20
138.7463942782743
 10
183.6852445514771
 20
138.7463942782743
 10
183.6852445514771
 20
139.2406603333202
  0
LWPOLYLINE
  5
42D
330
1F
100
AcDbEntity
  8
0
 62
     4
100
AcDbPolyline
 90
        4
 70
     1
 43
0.0
 10
81.68524455147709
 20
134.4768988654303
 10
81.68524455147709
 20
126.9906603333202
 10
183.6852445514771
 20
126.9906603333202
 10
183.6852445514771
 20
134.4768988654303
  0
LWPOLYLINE
  5
42E
330
1F
100
AcDbEntity
  8
0
 62
     4
100
AcDbPolyline
 90
        4
 70
     1
 43
0.0
 10
81.68524455147709
 20
134.4768988654303
 10
81.68524455147709
 20
126.9906603333202
 10
86.78524455147712
 20
126.9906603333202
 10
86.78524455147712
 20
134.4768988654303
  0
CIRCLE
  5
42F
330
1F
100
AcDbEntity
  8
0
 62
     4
100
AcDbCircle
 10
84.23524455147717
 20
130.7630227186413
 30
0.0
 40
1.871559633027521
  0
LWPOLYLINE
  5
430
330
1F
100
AcDbEntity
  8
0
 62
     4
100
AcDbPolyline
 90
        4
 70
     1
 43
0.0
 10
85.26977722282365
 20
129.3337488563673
 10
85.75502828483568
 20
129.8667308993764
 10
83.20071188013068
 20
132.1922965809152
 10
82.71546081811854
 20
131.6593145379064
  0
LWPOLYLINE
  5
431
330
1F
100
AcDbEntity
  8
0
 62
     4
100
AcDbPolyline
 90
        4
 70
     1
 43
0.0
 10
86.78524455147712
 20
134.4768988654303
 10
86.78524455147712
 20
126.9906603333202
 10
91.88524455147714
 20
126.9906603333202
 10
91.88524455147714
 20
134.4768988654303
  0
CIRCLE
  5
432
330
1F
100
AcDbEntity
  8
0
 62
     4
100
AcDbCircle
 10
89.33524455147708
 20
130.7630227186413
 30
0.0
 40
1.871559633027521
  0
LWPOLYLINE
  5
433
330
1F
100
AcDbEntity
  8
0
 62
     4
100
AcDbPolyline
 90
        4
 70
     1
 43
0.0
 10
90.36977722282356
 20
129.3337488563673
 10
90.85502828483569
 20
129.8667308993764
 10
88.30071188013059
 20
132.1922965809152
 10
87.81546081811857
 20
131.6593145379064
  0
LWPOLYLINE
  5
434
330
1F
100
AcDbEntity
  8
0
 62
     4
100
AcDbPolyline
 90
        4
 70
     1
 43
0.0
 10
91.88524455147714
 20
134.4768988654303
 10
91.88524455147714
 20
126.9906603333202
 10
96.98524455147705
 20
126.9906603333202
 10
96.98524455147705
 20
134.4768988654303
  0
CIRCLE
  5
435
330
1F
100
AcDbEntity
  8
0
 62
     4
100
AcDbCircle
 10
94.43524455147709
 20
130.7630227186413
 30
0.0
 40
1.871559633027521
  0
LWPOLYLINE
  5
436
330
1F
100
AcDbEntity
  8
0
 62
     4
100
AcDbPolyline
 90
        4
 70
     1
 43
0.0
 10
95.46977722282358
 20
129.3337488563673
 10
95.95502828483573
 20
129.8667308993764
 10
93.40071188013061
 20
132.1922965809152
 10
92.91546081811858
 20
131.6593145379064
  0
LWPOLYLINE
  5
437
330
1F
100
AcDbEntity
  8
0
 62
     4
100
AcDbPolyline
 90
        4
 70
     1
 43
0.0
 10
96.98524455147705
 20
134.4768988654303
 10
96.98524455147705
 20
126.9906603333202
 10
102.085244551477
 20
126.9906603333202
 10
102.085244551477
 20
134.4768988654303
  0
CIRCLE
  5
438
330
1F
100
AcDbEntity
  8
0
 62
     4
100
AcDbCircle
 10
99.53524455147713
 20
130.7630227186413
 30
0.0
 40
1.871559633027521
  0
LWPOLYLINE
  5
439
330
1F
100
AcDbEntity
  8
0
 62
     4
100
AcDbPolyline
 90
        4
 70
     1
 43
0.0
 10
100.5697772228236
 20
129.3337488563673
 10
101.0550282848357
 20
129.8667308993764
 10
98.50071188013064
 20
132.1922965809152
 10
98.01546081811849
 20
131.6593145379064
  0
LWPOLYLINE
  5
43A
330
1F
100
AcDbEntity
  8
0
 62
     4
100
AcDbPolyline
 90
        4
 70
     1
 43
0.0
 10
102.085244551477
 20
134.4768988654303
 10
102.085244551477
 20
126.9906603333202
 10
107.1852445514771
 20
126.9906603333202
 10
107.1852445514771
 20
134.4768988654303
  0
CIRCLE
  5
43B
330
1F
100
AcDbEntity
  8
0
 62
     4
100
AcDbCircle
 10
104.635244551477
 20
130.7630227186413
 30
0.0
 40
1.871559633027521
  0
LWPOLYLINE
  5
43C
330
1F
100
AcDbEntity
  8
0
 62
     4
100
AcDbPolyline
 90
        4
 70
     1
 43
0.0
 10
105.6697772228236
 20
129.3337488563673
 10
106.1550282848356
 20
129.8667308993764
 10
103.6007118801306
 20
132.1922965809152
 10
103.1154608181186
 20
131.6593145379064
  0
LWPOLYLINE
  5
43D
330
1F
100
AcDbEntity
  8
0
 62
     4
100
AcDbPolyline
 90
        4
 70
     1
 43
0.0
 10
107.1852445514771
 20
134.4768988654303
 10
107.1852445514771
 20
126.9906603333202
 10
112.285244551477
 20
126.9906603333202
 10
112.285244551477
 20
134.4768988654303
  0
CIRCLE
  5
43E
330
1F
100
AcDbEntity
  8
0
 62
     4
100
AcDbCircle
 10
109.735244551477
 20
130.7630227186413
 30
0.0
 40
1.871559633027521
  0
LWPOLYLINE
  5
43F
330
1F
100
AcDbEntity
  8
0
 62
     4
100
AcDbPolyline
 90
        4
 70
     1
 43
0.0
 10
110.7697772228236
 20
129.3337488563673
 10
111.2550282848356
 20
129.8667308993764
 10
108.7007118801307
 20
132.1922965809152
 10
108.2154608181185
 20
131.6593145379064
  0
LWPOLYLINE
  5
440
330
1F
100
AcDbEntity
  8
0
 62
     4
100
AcDbPolyline
 90
        4
 70
     1
 43
0.0
 10
112.285244551477
 20
134.4768988654303
 10
112.285244551477
 20
126.9906603333202
 10
117.385244551477
 20
126.9906603333202
 10
117.385244551477
 20
134.4768988654303
  0
CIRCLE
  5
441
330
1F
100
AcDbEntity
  8
0
 62
     4
100
AcDbCircle
 10
114.835244551477
 20
130.7630227186413
 30
0.0
 40
1.871559633027521
  0
LWPOLYLINE
  5
442
330
1F
100
AcDbEntity
  8
0
 62
     4
100
AcDbPolyline
 90
        4
 70
     1
 43
0.0
 10
115.8697772228235
 20
129.3337488563673
 10
116.3550282848357
 20
129.8667308993764
 10
113.8007118801306
 20
132.1922965809152
 10
113.3154608181185
 20
131.6593145379064
  0
LWPOLYLINE
  5
443
330
1F
100
AcDbEntity
  8
0
 62
     4
100
AcDbPolyline
 90
        4
 70
     1
 43
0.0
 10
117.385244551477
 20
134.4768988654303
 10
117.385244551477
 20
126.9906603333202
 10
122.485244551477
 20
126.9906603333202
 10
122.485244551477
 20
134.4768988654303
  0
CIRCLE
  5
444
330
1F
100
AcDbEntity
  8
0
 62
     4
100
AcDbCircle
 10
119.9352445514771
 20
130.7630227186413
 30
0.0
 40
1.871559633027521
  0
LWPOLYLINE
  5
445
330
1F
100
AcDbEntity
  8
0
 62
     4
100
AcDbPolyline
 90
        4
 70
     1
 43
0.0
 10
120.9697772228236
 20
129.3337488563673
 10
121.4550282848357
 20
129.8667308993764
 10
118.9007118801306
 20
132.1922965809152
 10
118.4154608181186
 20
131.6593145379064
  0
LWPOLYLINE
  5
446
330
1F
100
AcDbEntity
  8
0
 62
     4
100
AcDbPolyline
 90
        4
 70
     1
 43
0.0
 10
122.485244551477
 20
134.4768988654303
 10
122.485244551477
 20
126.9906603333202
 10
127.5852445514771
 20
126.9906603333202
 10
127.5852445514771
 20
134.4768988654303
  0
CIRCLE
  5
447
330
1F
100
AcDbEntity
  8
0
 62
     4
100
AcDbCircle
 10
125.035244551477
 20
130.7630227186413
 30
0.0
 40
1.871559633027521
  0
LWPOLYLINE
  5
448
330
1F
100
AcDbEntity
  8
0
 62
     4
100
AcDbPolyline
 90
        4
 70
     1
 43
0.0
 10
126.0697772228236
 20
129.3337488563673
 10
126.5550282848356
 20
129.8667308993764
 10
124.0007118801306
 20
132.1922965809152
 10
123.5154608181185
 20
131.6593145379064
  0
LWPOLYLINE
  5
449
330
1F
100
AcDbEntity
  8
0
 62
     4
100
AcDbPolyline
 90
        4
 70
     1
 43
0.0
 10
127.5852445514771
 20
134.4768988654303
 10
127.5852445514771
 20
126.9906603333202
 10
132.6852445514771
 20
126.9906603333202
 10
132.6852445514771
 20
134.4768988654303
  0
CIRCLE
  5
44A
330
1F
100
AcDbEntity
  8
0
 62
     4
100
AcDbCircle
 10
130.135244551477
 20
130.7630227186413
 30
0.0
 40
1.871559633027521
  0
LWPOLYLINE
  5
44B
330
1F
100
AcDbEntity
  8
0
 62
     4
100
AcDbPolyline
 90
        4
 70
     1
 43
0.0
 10
131.1697772228236
 20
129.3337488563673
 10
131.6550282848356
 20
129.8667308993764
 10
129.1007118801306
 20
132.1922965809152
 10
128.6154608181186
 20
131.6593145379064
  0
LWPOLYLINE
  5
44C
330
1F
100
AcDbEntity
  8
0
 62
     4
100
AcDbPolyline
 90
        4
 70
     1
 43
0.0
 10
132.6852445514771
 20
134.4768988654303
 10
132.6852445514771
 20
126.9906603333202
 10
137.785244551477
 20
126.9906603333202
 10
137.785244551477
 20
134.4768988654303
  0
CIRCLE
  5
44D
330
1F
100
AcDbEntity
  8
0
 62
     4
100
AcDbCircle
 10
135.235244551477
 20
130.7630227186413
 30
0.0
 40
1.871559633027521
  0
LWPOLYLINE
  5
44E
330
1F
100
AcDbEntity
  8
0
 62
     4
100
AcDbPolyline
 90
        4
 70
     1
 43
0.0
 10
136.2697772228236
 20
129.3337488563673
 10
136.7550282848357
 20
129.8667308993764
 10
134.2007118801307
 20
132.1922965809152
 10
133.7154608181185
 20
131.6593145379064
  0
LWPOLYLINE
  5
44F
330
1F
100
AcDbEntity
  8
0
 62
     4
100
AcDbPolyline
 90
        4
 70
     1
 43
0.0
 10
137.7852445514771
 20
134.4768988654303
 10
137.7852445514771
 20
126.9906603333202
 10
142.8852445514771
 20
126.9906603333202
 10
142.8852445514771
 20
134.4768988654303
  0
CIRCLE
  5
450
330
1F
100
AcDbEntity
  8
0
 62
     4
100
AcDbCircle
 10
140.335244551477
 20
130.7630227186413
 30
0.0
 40
1.871559633027521
  0
LWPOLYLINE
  5
451
330
1F
100
AcDbEntity
  8
0
 62
     4
100
AcDbPolyline
 90
        4
 70
     1
 43
0.0
 10
141.3697772228235
 20
129.3337488563673
 10
141.8550282848357
 20
129.8667308993764
 10
139.3007118801306
 20
132.1922965809152
 10
138.8154608181185
 20
131.6593145379064
  0
LWPOLYLINE
  5
452
330
1F
100
AcDbEntity
  8
0
 62
     4
100
AcDbPolyline
 90
        4
 70
     1
 43
0.0
 10
142.8852445514771
 20
134.4768988654303
 10
142.8852445514771
 20
126.9906603333202
 10
147.985244551477
 20
126.9906603333202
 10
147.985244551477
 20
134.4768988654303
  0
CIRCLE
  5
453
330
1F
100
AcDbEntity
  8
0
 62
     4
100
AcDbCircle
 10
145.4352445514771
 20
130.7630227186413
 30
0.0
 40
1.871559633027521
  0
LWPOLYLINE
  5
454
330
1F
100
AcDbEntity
  8
0
 62
     4
100
AcDbPolyline
 90
        4
 70
     1
 43
0.0
 10
146.4697772228236
 20
129.3337488563673
 10
146.9550282848356
 20
129.8667308993764
 10
144.4007118801306
 20
132.1922965809152
 10
143.9154608181186
 20
131.6593145379064
  0
LWPOLYLINE
  5
455
330
1F
100
AcDbEntity
  8
0
 62
     4
100
AcDbPolyline
 90
        4
 70
     1
 43
0.0
 10
147.985244551477
 20
134.4768988654303
 10
147.985244551477
 20
126.9906603333202
 10
153.085244551477
 20
126.9906603333202
 10
153.085244551477
 20
134.4768988654303
  0
CIRCLE
  5
456
330
1F
100
AcDbEntity
  8
0
 62
     4
100
AcDbCircle
 10
150.535244551477
 20
130.7630227186413
 30
0.0
 40
1.871559633027521
  0
LWPOLYLINE
  5
457
330
1F
100
AcDbEntity
  8
0
 62
     4
100
AcDbPolyline
 90
        4
 70
     1
 43
0.0
 10
151.5697772228236
 20
129.3337488563673
 10
152.0550282848356
 20
129.8667308993764
 10
149.5007118801306
 20
132.1922965809152
 10
149.0154608181185
 20
131.6593145379064
  0
LWPOLYLINE
  5
458
330
1F
100
AcDbEntity
  8
0
 62
     4
100
AcDbPolyline
 90
        4
 70
     1
 43
0.0
 10
153.085244551477
 20
134.4768988654303
 10
153.085244551477
 20
126.9906603333202
 10
158.1852445514771
 20
126.9906603333202
 10
158.1852445514771
 20
134.4768988654303
  0
CIRCLE
  5
459
330
1F
100
AcDbEntity
  8
0
 62
     4
100
AcDbCircle
 10
155.6352445514771
 20
130.7630227186413
 30
0.0
 40
1.871559633027521
  0
LWPOLYLINE
  5
45A
330
1F
100
AcDbEntity
  8
0
 62
     4
100
AcDbPolyline
 90
        4
 70
     1
 43
0.0
 10
156.6697772228235
 20
129.3337488563673
 10
157.1550282848356
 20
129.8667308993764
 10
154.6007118801305
 20
132.1922965809152
 10
154.1154608181185
 20
131.6593145379064
  0
LWPOLYLINE
  5
45B
330
1F
100
AcDbEntity
  8
0
 62
     4
100
AcDbPolyline
 90
        4
 70
     1
 43
0.0
 10
158.1852445514771
 20
134.4768988654303
 10
158.1852445514771
 20
126.9906603333202
 10
163.285244551477
 20
126.9906603333202
 10
163.285244551477
 20
134.4768988654303
  0
CIRCLE
  5
45C
330
1F
100
AcDbEntity
  8
0
 62
     4
100
AcDbCircle
 10
160.735244551477
 20
130.7630227186413
 30
0.0
 40
1.871559633027521
  0
LWPOLYLINE
  5
45D
330
1F
100
AcDbEntity
  8
0
 62
     4
100
AcDbPolyline
 90
        4
 70
     1
 43
0.0
 10
161.7697772228235
 20
129.3337488563673
 10
162.2550282848355
 20
129.8667308993764
 10
159.7007118801306
 20
132.1922965809152
 10
159.2154608181185
 20
131.6593145379064
  0
LWPOLYLINE
  5
45E
330
1F
100
AcDbEntity
  8
0
 62
     4
100
AcDbPolyline
 90
        4
 70
     1
 43
0.0
 10
163.285244551477
 20
134.4768988654303
 10
163.285244551477
 20
126.9906603333202
 10
168.3852445514771
 20
126.9906603333202
 10
168.3852445514771
 20
134.4768988654303
  0
CIRCLE
  5
45F
330
1F
100
AcDbEntity
  8
0
 62
     4
100
AcDbCircle
 10
165.835244551477
 20
130.7630227186413
 30
0.0
 40
1.871559633027521
  0
LWPOLYLINE
  5
460
330
1F
100
AcDbEntity
  8
0
 62
     4
100
AcDbPolyline
 90
        4
 70
     1
 43
0.0
 10
166.8697772228235
 20
129.3337488563673
 10
167.3550282848357
 20
129.8667308993764
 10
164.8007118801306
 20
132.1922965809152
 10
164.3154608181184
 20
131.6593145379064
  0
LWPOLYLINE
  5
461
330
1F
100
AcDbEntity
  8
0
 62
     4
100
AcDbPolyline
 90
        4
 70
     1
 43
0.0
 10
168.3852445514771
 20
134.4768988654303
 10
168.3852445514771
 20
126.9906603333202
 10
173.485244551477
 20
126.9906603333202
 10
173.485244551477
 20
134.4768988654303
  0
CIRCLE
  5
462
330
1F
100
AcDbEntity
  8
0
 62
     4
100
AcDbCircle
 10
170.9352445514771
 20
130.7630227186413
 30
0.0
 40
1.871559633027521
  0
LWPOLYLINE
  5
463
330
1F
100
AcDbEntity
  8
0
 62
     4
100
AcDbPolyline
 90
        4
 70
     1
 43
0.0
 10
171.9697772228236
 20
129.3337488563673
 10
172.4550282848356
 20
129.8667308993764
 10
169.9007118801306
 20
132.1922965809152
 10
169.4154608181184
 20
131.6593145379064
  0
LWPOLYLINE
  5
464
330
1F
100
AcDbEntity
  8
0
 62
     4
100
AcDbPolyline
 90
        4
 70
     1
 43
0.0
 10
173.485244551477
 20
134.4768988654303
 10
173.485244551477
 20
126.9906603333202
 10
178.5852445514771
 20
126.9906603333202
 10
178.5852445514771
 20
134.4768988654303
  0
CIRCLE
  5
465
330
1F
100
AcDbEntity
  8
0
 62
     4
100
AcDbCircle
 10
176.0352445514771
 20
130.7630227186413
 30
0.0
 40
1.871559633027521
  0
LWPOLYLINE
  5
466
330
1F
100
AcDbEntity
  8
0
 62
     4
100
AcDbPolyline
 90
        4
 70
     1
 43
0.0
 10
177.0697772228236
 20
129.3337488563673
 10
177.5550282848356
 20
129.8667308993764
 10
175.0007118801306
 20
132.1922965809152
 10
174.5154608181185
 20
131.6593145379064
  0
LWPOLYLINE
  5
467
330
1F
100
AcDbEntity
  8
0
 62
     4
100
AcDbPolyline
 90
        4
 70
     1
 43
0.0
 10
178.5852445514771
 20
134.4768988654303
 10
178.5852445514771
 20
126.9906603333202
 10
183.6852445514771
 20
126.9906603333202
 10
183.6852445514771
 20
134.4768988654303
  0
CIRCLE
  5
468
330
1F
100
AcDbEntity
  8
0
 62
     4
100
AcDbCircle
 10
181.1352445514771
 20
130.7630227186413
 30
0.0
 40
1.871559633027521
  0
LWPOLYLINE
  5
469
330
1F
100
AcDbEntity
  8
0
 62
     4
100
AcDbPolyline
 90
        4
 70
     1
 43
0.0
 10
182.1697772228235
 20
129.3337488563673
 10
182.6550282848356
 20
129.8667308993764
 10
180.1007118801305
 20
132.1922965809152
 10
179.6154608181185
 20
131.6593145379064
  0
LWPOLYLINE
  5
46A
102
{ACAD_REACTORS
330
56B
102
}
330
1F
100
AcDbEntity
  8
0
 62
     4
100
AcDbPolyline
 90
        4
 70
     0
 43
0.0
 10
81.68524455147709
 20
139.2406603333202
 10
81.68524455147709
 20
126.9906603333202
 10
183.6852445514771
 20
126.9906603333202
 10
183.6852445514771
 20
139.2406603333202
  0
HATCH
  5
46B
330
1F
100
AcDbEntity
  8
0
 62
     5
370
    40
100
AcDbHatch
 10
0.0
 20
0.0
 30
0.0
210
0.0
220
0.0
230
1.0
  2
SOLID
 70
     1
 71
     1
 91
        1
 92
        1
 93
        4
 72
     1
 10
85.45774513334626
 20
193.5377769136591
 11
183.0203102237755
 21
193.5377769136591
 72
     1
 10
183.0203102237755
 20
193.5377769136591
 11
183.0203102237755
 21
192.8274421094777
 72
     1
 10
183.0203102237755
 20
192.8274421094778
 11
85.45774513334626
 21
192.8274421094778
 72
     1
 10
85.45774513334626
 20
192.8274421094778
 11
85.45774513334626
 21
193.5377769136591
 97
        1
330
46C
 75
     0
 76
     1
 98
        1
 10
830.5239780579652
 20
227.7694328280038
1001
ACAD
1010
0.0
1020
0.0
1030
0.0
  0
LWPOLYLINE
  5
46C
102
{ACAD_REACTORS
330
46B
102
}
330
1F
100
AcDbEntity
  8
0
370
    40
100
AcDbPolyline
 90
        4
 70
     1
 43
0.0
 10
85.45774513334626
 20
193.5377769136591
 10
183.0203102237755
 20
193.5377769136591
 10
183.0203102237755
 20
192.8274421094778
 10
85.45774513334626
 20
192.8274421094778
  0
MTEXT
  5
46D
330
1F
100
AcDbEntity
  8
0
100
AcDbMText
 10
108.7682085210769
 20
139.2406603333202
 30
0.0
 40
2.339449156700929
 41
18.96420977881478
 71
     1
 72
     5
  1
{\fTimes New Roman|b0|i0|c0|p18;GND}
 11
0.0000000000000001
 21
1.0
 31
0.0
 73
     1
 44
1.0
1001
ACAD
1000
MTEXTBEGIN
1070
    73
1070
     1
1070
    44
1040
1.0
1070
    74
1070
     0
1000
MTEXTEND
  0
MTEXT
  5
46E
330
1F
100
AcDbEntity
  8
0
100
AcDbMText
 10
134.2012801940484
 20
139.2406603333202
 30
0.0
 40
2.339449156700929
 41
18.96420977881478
 71
     1
 72
     5
  1
{\fTimes New Roman|b0|i0|c0|p18;GND}
 11
0.0000000000000001
 21
1.0
 31
0.0
 73
     1
 44
1.0
1001
ACAD
1000
MTEXTBEGIN
1070
    73
1070
     1
1070
    44
1040
1.0
1070
    74
1070
     0
1000
MTEXTEND
  0
MTEXT
  5
46F
330
1F
100
AcDbEntity
  8
0
100
AcDbMText
 10
144.6214293767302
 20
139.2406603333202
 30
0.0
 40
2.339449156700929
 41
16.38732070717815
 71
     1
 72
     5
  1
{\fTimes New Roman|b0|i0|c0|p18;UI 04}
 11
0.0000000000000001
 21
1.0
 31
0.0
 73
     1
 44
1.0
1001
ACAD
1000
MTEXTBEGIN
1070
    73
1070
     1
1070
    44
1040
1.0
1070
    74
1070
     0
1000
MTEXTEND
  0
LINE
  5
470
102
{ACAD_REACTORS
330
574
102
}
330
1F
100
AcDbEntity
  8
0
100
AcDbLine
 10
73.93524455147709
 20
77.46432082907765
 30
0.0
 11
73.93524455147709
 21
72.46432082907753
 31
0.0
  0
LINE
  5
471
330
1F
100
AcDbEntity
  8
0
100
AcDbLine
 10
73.93524455147709
 20
71.46432082907754
 30
0.0
 11
73.93524455147709
 21
28.46432082907765
 31
0.0
  0
LINE
  5
472
330
1F
100
AcDbEntity
  8
0
100
AcDbLine
 10
73.93524455147709
 20
28.46432082907765
 30
0.0
 11
122.5790333287062
 21
28.46432082907765
 31
0.0
  0
LINE
  5
473
330
1F
100
AcDbEntity
  8
0
100
AcDbLine
 10
143.7914557725235
 20
28.46432082907765
 30
0.0
 11
192.4352445497527
 21
28.46432082907765
 31
0.0
  0
LINE
  5
474
102
{ACAD_REACTORS
330
574
102
}
330
1F
100
AcDbEntity
  8
0
100
AcDbLine
 10
192.4352445497527
 20
28.46432082907765
 30
0.0
 11
192.4352445497527
 21
77.46432082907765
 31
0.0
  0
LINE
  5
475
102
{ACAD_REACTORS
330
577
102
}
330
1F
100
AcDbEntity
  8
0
100
AcDbLine
 10
191.4352445497528
 20
78.46432082907753
 30
0.0
 11
74.93524455147721
 21
78.46432082907753
 31
0.0
  0
LINE
  5
476
330
1F
100
AcDbEntity
  8
0
100
AcDbLine
 10
73.93524455147709
 20
72.46432082907753
 30
0.0
 11
192.4352445497527
 21
72.46432082907753
 31
0.0
  0
LINE
  5
477
330
1F
100
AcDbEntity
  8
0
100
AcDbLine
 10
73.93524455147709
 20
52.46432082907753
 30
0.0
 11
192.4352445497527
 21
52.46432082907753
 31
0.0
  0
LINE
  5
478
330
1F
100
AcDbEntity
  8
0
100
AcDbLine
 10
73.93524455147709
 20
52.46432082907753
 30
0.0
 11
73.93524455147709
 21
32.46432082907765
 31
0.0
  0
LINE
  5
479
330
1F
100
AcDbEntity
  8
0
100
AcDbLine
 10
73.93524455147709
 20
32.46432082907765
 30
0.0
 11
192.4352445497527
 21
32.46432082907765
 31
0.0
  0
LINE
  5
47A
330
1F
100
AcDbEntity
  8
0
100
AcDbLine
 10
73.93524455147709
 20
28.46432082907765
 30
0.0
 11
73.93524455147709
 21
23.46432082907765
 31
0.0
  0
LINE
  5
47B
102
{ACAD_REACTORS
330
577
102
}
330
1F
100
AcDbEntity
  8
0
100
AcDbLine
 10
73.93524455147709
 20
23.46432082907765
 30
0.0
 11
192.4352445497527
 21
23.46432082907765
 31
0.0
  0
LINE
  5
47C
330
1F
100
AcDbEntity
  8
0
100
AcDbLine
 10
192.4352445497527
 20
23.46432082907765
 30
0.0
 11
192.4352445497527
 21
28.46432082907765
 31
0.0
  0
LINE
  5
47D
330
1F
100
AcDbEntity
  8
0
100
AcDbLine
 10
73.93524455147709
 20
72.46432082907753
 30
0.0
 11
83.9352445514771
 21
72.46432082907753
 31
0.0
  0
LINE
  5
47E
330
1F
100
AcDbEntity
  8
0
100
AcDbLine
 10
73.93524455147709
 20
72.46432082907753
 30
0.0
 11
78.93524455147709
 21
72.46432082907753
 31
0.0
  0
LINE
  5
47F
330
1F
100
AcDbEntity
  8
0
100
AcDbLine
 10
82.18524455061489
 20
72.46432082907753
 30
0.0
 11
82.18524455061489
 21
52.46432082907753
 31
0.0
  0
LWPOLYLINE
  5
480
330
1F
100
AcDbEntity
  8
0
100
AcDbPolyline
 90
        4
 70
     1
 43
0.0
 10
82.18524455061489
 20
52.46432082907753
 10
84.1852445506149
 20
52.46432082907753
 10
84.1852445506149
 20
72.46432082907753
 10
82.18524455061489
 20
72.46432082907753
  0
LWPOLYLINE
  5
481
330
1F
100
AcDbEntity
  8
0
100
AcDbPolyline
 90
        4
 70
     1
 43
0.0
 10
84.1852445506149
 20
52.46432082907753
 10
86.18524455061489
 20
52.46432082907753
 10
86.18524455061489
 20
72.46432082907753
 10
84.1852445506149
 20
72.46432082907753
  0
LWPOLYLINE
  5
482
330
1F
100
AcDbEntity
  8
0
100
AcDbPolyline
 90
        4
 70
     1
 43
0.0
 10
86.18524455061489
 20
52.46432082907753
 10
88.1852445506149
 20
52.46432082907753
 10
88.1852445506149
 20
72.46432082907753
 10
86.18524455061489
 20
72.46432082907753
  0
LWPOLYLINE
  5
483
330
1F
100
AcDbEntity
  8
0
100
AcDbPolyline
 90
        4
 70
     1
 43
0.0
 10
88.1852445506149
 20
52.46432082907753
 10
90.1852445506149
 20
52.46432082907753
 10
90.1852445506149
 20
72.46432082907753
 10
88.1852445506149
 20
72.46432082907753
  0
LWPOLYLINE
  5
484
330
1F
100
AcDbEntity
  8
0
100
AcDbPolyline
 90
        4
 70
     1
 43
0.0
 10
90.1852445506149
 20
52.46432082907753
 10
92.18524455061489
 20
52.46432082907753
 10
92.18524455061489
 20
72.46432082907753
 10
90.1852445506149
 20
72.46432082907753
  0
LWPOLYLINE
  5
485
330
1F
100
AcDbEntity
  8
0
100
AcDbPolyline
 90
        4
 70
     1
 43
0.0
 10
92.18524455061489
 20
52.46432082907753
 10
94.1852445506149
 20
52.46432082907753
 10
94.1852445506149
 20
72.46432082907753
 10
92.18524455061489
 20
72.46432082907753
  0
LWPOLYLINE
  5
486
330
1F
100
AcDbEntity
  8
0
100
AcDbPolyline
 90
        4
 70
     1
 43
0.0
 10
94.1852445506149
 20
52.46432082907753
 10
96.18524455061489
 20
52.46432082907753
 10
96.18524455061489
 20
72.46432082907753
 10
94.1852445506149
 20
72.46432082907753
  0
LWPOLYLINE
  5
487
330
1F
100
AcDbEntity
  8
0
100
AcDbPolyline
 90
        4
 70
     1
 43
0.0
 10
96.18524455061489
 20
52.46432082907753
 10
98.1852445506149
 20
52.46432082907753
 10
98.1852445506149
 20
72.46432082907753
 10
96.18524455061489
 20
72.46432082907753
  0
LWPOLYLINE
  5
488
330
1F
100
AcDbEntity
  8
0
100
AcDbPolyline
 90
        4
 70
     1
 43
0.0
 10
98.1852445506149
 20
52.46432082907753
 10
100.1852445506149
 20
52.46432082907753
 10
100.1852445506149
 20
72.46432082907753
 10
98.1852445506149
 20
72.46432082907753
  0
LWPOLYLINE
  5
489
330
1F
100
AcDbEntity
  8
0
100
AcDbPolyline
 90
        4
 70
     1
 43
0.0
 10
100.1852445506149
 20
52.46432082907753
 10
102.1852445506149
 20
52.46432082907753
 10
102.1852445506149
 20
72.46432082907753
 10
100.1852445506149
 20
72.46432082907753
  0
LWPOLYLINE
  5
48A
330
1F
100
AcDbEntity
  8
0
100
AcDbPolyline
 90
        4
 70
     1
 43
0.0
 10
102.1852445506149
 20
52.46432082907753
 10
104.1852445506149
 20
52.46432082907753
 10
104.1852445506149
 20
72.46432082907753
 10
102.1852445506149
 20
72.46432082907753
  0
LWPOLYLINE
  5
48B
330
1F
100
AcDbEntity
  8
0
100
AcDbPolyline
 90
        4
 70
     1
 43
0.0
 10
104.1852445506149
 20
52.46432082907753
 10
106.1852445506149
 20
52.46432082907753
 10
106.1852445506149
 20
72.46432082907753
 10
104.1852445506149
 20
72.46432082907753
  0
LWPOLYLINE
  5
48C
330
1F
100
AcDbEntity
  8
0
100
AcDbPolyline
 90
        4
 70
     1
 43
0.0
 10
106.1852445506149
 20
52.46432082907753
 10
108.1852445506149
 20
52.46432082907753
 10
108.1852445506149
 20
72.46432082907753
 10
106.1852445506149
 20
72.46432082907753
  0
LWPOLYLINE
  5
48D
330
1F
100
AcDbEntity
  8
0
100
AcDbPolyline
 90
        4
 70
     1
 43
0.0
 10
108.1852445506149
 20
52.46432082907753
 10
110.1852445506149
 20
52.46432082907753
 10
110.1852445506149
 20
72.46432082907753
 10
108.1852445506149
 20
72.46432082907753
  0
LWPOLYLINE
  5
48E
330
1F
100
AcDbEntity
  8
0
100
AcDbPolyline
 90
        4
 70
     1
 43
0.0
 10
110.1852445506149
 20
52.46432082907753
 10
112.1852445506149
 20
52.46432082907753
 10
112.1852445506149
 20
72.46432082907753
 10
110.1852445506149
 20
72.46432082907753
  0
LWPOLYLINE
  5
48F
330
1F
100
AcDbEntity
  8
0
100
AcDbPolyline
 90
        4
 70
     1
 43
0.0
 10
112.1852445506149
 20
52.46432082907753
 10
114.1852445506149
 20
52.46432082907753
 10
114.1852445506149
 20
72.46432082907753
 10
112.1852445506149
 20
72.46432082907753
  0
LWPOLYLINE
  5
490
330
1F
100
AcDbEntity
  8
0
100
AcDbPolyline
 90
        4
 70
     1
 43
0.0
 10
114.1852445506149
 20
52.46432082907753
 10
116.1852445506149
 20
52.46432082907753
 10
116.1852445506149
 20
72.46432082907753
 10
114.1852445506149
 20
72.46432082907753
  0
LWPOLYLINE
  5
491
330
1F
100
AcDbEntity
  8
0
100
AcDbPolyline
 90
        4
 70
     1
 43
0.0
 10
116.1852445506149
 20
52.46432082907753
 10
118.1852445506149
 20
52.46432082907753
 10
118.1852445506149
 20
72.46432082907753
 10
116.1852445506149
 20
72.46432082907753
  0
LWPOLYLINE
  5
492
330
1F
100
AcDbEntity
  8
0
100
AcDbPolyline
 90
        4
 70
     1
 43
0.0
 10
118.1852445506149
 20
52.46432082907753
 10
120.1852445506149
 20
52.46432082907753
 10
120.1852445506149
 20
72.46432082907753
 10
118.1852445506149
 20
72.46432082907753
  0
LWPOLYLINE
  5
493
330
1F
100
AcDbEntity
  8
0
100
AcDbPolyline
 90
        4
 70
     1
 43
0.0
 10
120.1852445506149
 20
52.46432082907753
 10
122.1852445506149
 20
52.46432082907753
 10
122.1852445506149
 20
72.46432082907753
 10
120.1852445506149
 20
72.46432082907753
  0
LWPOLYLINE
  5
494
330
1F
100
AcDbEntity
  8
0
100
AcDbPolyline
 90
        4
 70
     1
 43
0.0
 10
122.1852445506149
 20
52.46432082907753
 10
124.1852445506149
 20
52.46432082907753
 10
124.1852445506149
 20
72.46432082907753
 10
122.1852445506149
 20
72.46432082907753
  0
LWPOLYLINE
  5
495
330
1F
100
AcDbEntity
  8
0
100
AcDbPolyline
 90
        4
 70
     1
 43
0.0
 10
124.1852445506149
 20
52.46432082907753
 10
126.1852445506149
 20
52.46432082907753
 10
126.1852445506149
 20
72.46432082907753
 10
124.1852445506149
 20
72.46432082907753
  0
LWPOLYLINE
  5
496
330
1F
100
AcDbEntity
  8
0
100
AcDbPolyline
 90
        4
 70
     1
 43
0.0
 10
126.1852445506149
 20
52.46432082907753
 10
128.1852445506149
 20
52.46432082907753
 10
128.1852445506149
 20
72.46432082907753
 10
126.1852445506149
 20
72.46432082907753
  0
LWPOLYLINE
  5
497
330
1F
100
AcDbEntity
  8
0
100
AcDbPolyline
 90
        4
 70
     1
 43
0.0
 10
128.1852445506149
 20
52.46432082907753
 10
130.1852445506149
 20
52.46432082907753
 10
130.1852445506149
 20
72.46432082907753
 10
128.1852445506149
 20
72.46432082907753
  0
LWPOLYLINE
  5
498
330
1F
100
AcDbEntity
  8
0
100
AcDbPolyline
 90
        4
 70
     1
 43
0.0
 10
130.1852445506149
 20
52.46432082907753
 10
132.1852445506149
 20
52.46432082907753
 10
132.1852445506149
 20
72.46432082907753
 10
130.1852445506149
 20
72.46432082907753
  0
LWPOLYLINE
  5
499
330
1F
100
AcDbEntity
  8
0
100
AcDbPolyline
 90
        4
 70
     1
 43
0.0
 10
132.1852445506149
 20
52.46432082907753
 10
134.1852445506149
 20
52.46432082907753
 10
134.1852445506149
 20
72.46432082907753
 10
132.1852445506149
 20
72.46432082907753
  0
LWPOLYLINE
  5
49A
330
1F
100
AcDbEntity
  8
0
100
AcDbPolyline
 90
        4
 70
     1
 43
0.0
 10
134.1852445506149
 20
52.46432082907753
 10
136.1852445506149
 20
52.46432082907753
 10
136.1852445506149
 20
72.46432082907753
 10
134.1852445506149
 20
72.46432082907753
  0
LWPOLYLINE
  5
49B
330
1F
100
AcDbEntity
  8
0
100
AcDbPolyline
 90
        4
 70
     1
 43
0.0
 10
136.1852445506149
 20
52.46432082907753
 10
138.1852445506149
 20
52.46432082907753
 10
138.1852445506149
 20
72.46432082907753
 10
136.1852445506149
 20
72.46432082907753
  0
LWPOLYLINE
  5
49C
330
1F
100
AcDbEntity
  8
0
100
AcDbPolyline
 90
        4
 70
     1
 43
0.0
 10
138.1852445506149
 20
52.46432082907753
 10
140.1852445506149
 20
52.46432082907753
 10
140.1852445506149
 20
72.46432082907753
 10
138.1852445506149
 20
72.46432082907753
  0
LWPOLYLINE
  5
49D
330
1F
100
AcDbEntity
  8
0
100
AcDbPolyline
 90
        4
 70
     1
 43
0.0
 10
140.1852445506149
 20
52.46432082907753
 10
142.1852445506149
 20
52.46432082907753
 10
142.1852445506149
 20
72.46432082907753
 10
140.1852445506149
 20
72.46432082907753
  0
LWPOLYLINE
  5
49E
330
1F
100
AcDbEntity
  8
0
100
AcDbPolyline
 90
        4
 70
     1
 43
0.0
 10
142.1852445506149
 20
52.46432082907753
 10
144.1852445506149
 20
52.46432082907753
 10
144.1852445506149
 20
72.46432082907753
 10
142.1852445506149
 20
72.46432082907753
  0
LWPOLYLINE
  5
49F
330
1F
100
AcDbEntity
  8
0
100
AcDbPolyline
 90
        4
 70
     1
 43
0.0
 10
144.1852445506149
 20
52.46432082907753
 10
146.1852445506149
 20
52.46432082907753
 10
146.1852445506149
 20
72.46432082907753
 10
144.1852445506149
 20
72.46432082907753
  0
LWPOLYLINE
  5
4A0
330
1F
100
AcDbEntity
  8
0
100
AcDbPolyline
 90
        4
 70
     1
 43
0.0
 10
146.1852445506149
 20
52.46432082907753
 10
148.1852445506149
 20
52.46432082907753
 10
148.1852445506149
 20
72.46432082907753
 10
146.1852445506149
 20
72.46432082907753
  0
LWPOLYLINE
  5
4A1
330
1F
100
AcDbEntity
  8
0
100
AcDbPolyline
 90
        4
 70
     1
 43
0.0
 10
148.1852445506149
 20
52.46432082907753
 10
150.1852445506149
 20
52.46432082907753
 10
150.1852445506149
 20
72.46432082907753
 10
148.1852445506149
 20
72.46432082907753
  0
LWPOLYLINE
  5
4A2
330
1F
100
AcDbEntity
  8
0
100
AcDbPolyline
 90
        4
 70
     1
 43
0.0
 10
150.1852445506149
 20
52.46432082907753
 10
152.1852445506149
 20
52.46432082907753
 10
152.1852445506149
 20
72.46432082907753
 10
150.1852445506149
 20
72.46432082907753
  0
LWPOLYLINE
  5
4A3
330
1F
100
AcDbEntity
  8
0
100
AcDbPolyline
 90
        4
 70
     1
 43
0.0
 10
152.1852445506149
 20
52.46432082907753
 10
154.1852445506149
 20
52.46432082907753
 10
154.1852445506149
 20
72.46432082907753
 10
152.1852445506149
 20
72.46432082907753
  0
LWPOLYLINE
  5
4A4
330
1F
100
AcDbEntity
  8
0
100
AcDbPolyline
 90
        4
 70
     1
 43
0.0
 10
154.1852445506149
 20
52.46432082907753
 10
156.1852445506149
 20
52.46432082907753
 10
156.1852445506149
 20
72.46432082907753
 10
154.1852445506149
 20
72.46432082907753
  0
LWPOLYLINE
  5
4A5
330
1F
100
AcDbEntity
  8
0
100
AcDbPolyline
 90
        4
 70
     1
 43
0.0
 10
156.1852445506149
 20
52.46432082907753
 10
158.1852445506149
 20
52.46432082907753
 10
158.1852445506149
 20
72.46432082907753
 10
156.1852445506149
 20
72.46432082907753
  0
LWPOLYLINE
  5
4A6
330
1F
100
AcDbEntity
  8
0
100
AcDbPolyline
 90
        4
 70
     1
 43
0.0
 10
158.1852445506149
 20
52.46432082907753
 10
160.1852445506149
 20
52.46432082907753
 10
160.1852445506149
 20
72.46432082907753
 10
158.1852445506149
 20
72.46432082907753
  0
LWPOLYLINE
  5
4A7
330
1F
100
AcDbEntity
  8
0
100
AcDbPolyline
 90
        4
 70
     1
 43
0.0
 10
160.1852445506149
 20
52.46432082907753
 10
162.1852445506149
 20
52.46432082907753
 10
162.1852445506149
 20
72.46432082907753
 10
160.1852445506149
 20
72.46432082907753
  0
LWPOLYLINE
  5
4A8
330
1F
100
AcDbEntity
  8
0
100
AcDbPolyline
 90
        4
 70
     1
 43
0.0
 10
162.1852445506149
 20
52.46432082907753
 10
164.1852445506149
 20
52.46432082907753
 10
164.1852445506149
 20
72.46432082907753
 10
162.1852445506149
 20
72.46432082907753
  0
LWPOLYLINE
  5
4A9
330
1F
100
AcDbEntity
  8
0
100
AcDbPolyline
 90
        4
 70
     1
 43
0.0
 10
164.1852445506149
 20
52.46432082907753
 10
166.1852445506149
 20
52.46432082907753
 10
166.1852445506149
 20
72.46432082907753
 10
164.1852445506149
 20
72.46432082907753
  0
LWPOLYLINE
  5
4AA
330
1F
100
AcDbEntity
  8
0
100
AcDbPolyline
 90
        4
 70
     1
 43
0.0
 10
166.1852445506149
 20
52.46432082907753
 10
168.1852445506149
 20
52.46432082907753
 10
168.1852445506149
 20
72.46432082907753
 10
166.1852445506149
 20
72.46432082907753
  0
LWPOLYLINE
  5
4AB
330
1F
100
AcDbEntity
  8
0
100
AcDbPolyline
 90
        4
 70
     1
 43
0.0
 10
168.1852445506149
 20
52.46432082907753
 10
170.1852445506149
 20
52.46432082907753
 10
170.1852445506149
 20
72.46432082907753
 10
168.1852445506149
 20
72.46432082907753
  0
LWPOLYLINE
  5
4AC
330
1F
100
AcDbEntity
  8
0
100
AcDbPolyline
 90
        4
 70
     1
 43
0.0
 10
170.1852445506149
 20
52.46432082907753
 10
172.1852445506149
 20
52.46432082907753
 10
172.1852445506149
 20
72.46432082907753
 10
170.1852445506149
 20
72.46432082907753
  0
LWPOLYLINE
  5
4AD
330
1F
100
AcDbEntity
  8
0
100
AcDbPolyline
 90
        4
 70
     1
 43
0.0
 10
172.1852445506149
 20
52.46432082907753
 10
174.1852445506149
 20
52.46432082907753
 10
174.1852445506149
 20
72.46432082907753
 10
172.1852445506149
 20
72.46432082907753
  0
LWPOLYLINE
  5
4AE
330
1F
100
AcDbEntity
  8
0
100
AcDbPolyline
 90
        4
 70
     1
 43
0.0
 10
174.1852445506149
 20
52.46432082907753
 10
176.1852445506149
 20
52.46432082907753
 10
176.1852445506149
 20
72.46432082907753
 10
174.1852445506149
 20
72.46432082907753
  0
LWPOLYLINE
  5
4AF
330
1F
100
AcDbEntity
  8
0
100
AcDbPolyline
 90
        4
 70
     1
 43
0.0
 10
176.1852445506149
 20
52.46432082907753
 10
178.1852445506149
 20
52.46432082907753
 10
178.1852445506149
 20
72.46432082907753
 10
176.1852445506149
 20
72.46432082907753
  0
LWPOLYLINE
  5
4B0
330
1F
100
AcDbEntity
  8
0
100
AcDbPolyline
 90
        4
 70
     1
 43
0.0
 10
178.1852445506149
 20
52.46432082907753
 10
180.1852445506149
 20
52.46432082907753
 10
180.1852445506149
 20
72.46432082907753
 10
178.1852445506149
 20
72.46432082907753
  0
LWPOLYLINE
  5
4B1
330
1F
100
AcDbEntity
  8
0
100
AcDbPolyline
 90
        4
 70
     1
 43
0.0
 10
180.1852445506149
 20
52.46432082907753
 10
182.1852445506149
 20
52.46432082907753
 10
182.1852445506149
 20
72.46432082907753
 10
180.1852445506149
 20
72.46432082907753
  0
LWPOLYLINE
  5
4B2
330
1F
100
AcDbEntity
  8
0
100
AcDbPolyline
 90
        4
 70
     1
 43
0.0
 10
182.1852445506149
 20
52.46432082907753
 10
184.1852445506149
 20
52.46432082907753
 10
184.1852445506149
 20
72.46432082907753
 10
182.1852445506149
 20
72.46432082907753
  0
LWPOLYLINE
  5
4B3
330
1F
100
AcDbEntity
  8
0
100
AcDbPolyline
 90
        4
 70
     1
 43
0.0
 10
122.5790333287062
 20
29.40362641641397
 10
143.7914557725235
 20
29.40362641641397
 10
143.7914557725235
 20
26.15806601625579
 10
122.5790333287062
 20
26.15806601625579
  0
LWPOLYLINE
  5
4B4
330
1F
100
AcDbEntity
  8
0
100
AcDbPolyline
 90
        4
 70
     1
 43
0.0
 10
130.0539770527678
 20
26.15806601625579
 10
136.2618244744544
 20
26.15806601625579
 10
136.2618244744544
 20
23.46432082907765
 10
130.0539770527678
 20
23.46432082907765
  0
LINE
  5
4B5
330
1F
100
AcDbEntity
  8
0
100
AcDbLine
 10
129.5539770527678
 20
26.15806601625579
 30
0.0
 11
129.5539770527678
 21
23.46432082907765
 31
0.0
  0
LINE
  5
4B6
330
1F
100
AcDbEntity
  8
0
100
AcDbLine
 10
136.2618244744544
 20
26.15806601625579
 30
0.0
 11
136.7618244744544
 21
26.15806601625579
 31
0.0
  0
LINE
  5
4B7
330
1F
100
AcDbEntity
  8
0
100
AcDbLine
 10
136.7618244744544
 20
26.15806601625579
 30
0.0
 11
136.7618244744544
 21
23.46432082907765
 31
0.0
  0
LINE
  5
4B8
330
1F
100
AcDbEntity
  8
0
100
AcDbLine
 10
82.18524455061489
 20
50.46432082907753
 30
0.0
 11
82.18524455061489
 21
32.46432082907765
 31
0.0
  0
LINE
  5
4B9
330
1F
100
AcDbEntity
  8
0
100
AcDbLine
 10
184.1852445506149
 20
50.46432082907753
 30
0.0
 11
184.1852445506149
 21
32.46432082907765
 31
0.0
  0
LINE
  5
4BA
330
1F
100
AcDbEntity
  8
0
100
AcDbLine
 10
184.1852445506149
 20
50.46432082907753
 30
0.0
 11
82.18524455061489
 21
50.46432082907753
 31
0.0
  0
LWPOLYLINE
  5
4BB
330
1F
100
AcDbEntity
  8
0
 62
     4
100
AcDbPolyline
 90
        4
 70
     0
 43
0.0
 10
103.1852445506147
 20
49.17775753605244
 10
83.18524455061478
 20
49.17775753605244
 10
83.18524455061478
 20
33.17775753605244
 10
103.1852445506147
 20
33.17775753605244
  0
LWPOLYLINE
  5
4BC
330
1F
100
AcDbEntity
  8
0
 62
     4
100
AcDbPolyline
 90
        2
 70
     0
 43
0.0
 10
103.1852445506147
 20
34.67775753605244
 10
103.1852445506147
 20
41.17775753605243
  0
LINE
  5
4BD
330
1F
100
AcDbEntity
  8
0
 62
     4
100
AcDbLine
 10
93.18524455061478
 20
34.67775753605244
 30
0.0
 11
93.18524455061478
 21
41.17775753605243
 31
0.0
  0
LINE
  5
4BE
330
1F
100
AcDbEntity
  8
0
 62
     4
100
AcDbLine
 10
103.1852445506147
 20
41.17775753605243
 30
0.0
 11
83.18524455061478
 21
41.17775753605243
 31
0.0
  0
LINE
  5
4BF
330
1F
100
AcDbEntity
  8
0
 62
     4
100
AcDbLine
 10
98.18524455061478
 20
34.67775753605244
 30
0.0
 11
98.18524455061478
 21
41.17775753605243
 31
0.0
  0
LINE
  5
4C0
330
1F
100
AcDbEntity
  8
0
 62
     4
100
AcDbLine
 10
88.18524455061478
 20
34.67775753605244
 30
0.0
 11
88.18524455061478
 21
41.17775753605243
 31
0.0
  0
LINE
  5
4C1
330
1F
100
AcDbEntity
  8
0
 62
     4
100
AcDbLine
 10
103.1852445506147
 20
34.67775753605244
 30
0.0
 11
83.18524455061478
 21
34.67775753605244
 31
0.0
  0
LWPOLYLINE
  5
4C2
330
1F
100
AcDbEntity
  8
0
 62
     4
100
AcDbPolyline
 90
        4
 70
     1
 43
0.0
 10
102.8093450508356
 20
35.65590574772588
 10
98.56061893976274
 20
35.65590574772588
 10
98.56061893976274
 20
40.95045000457045
 10
102.8093450508356
 20
40.95045000457045
  0
LWPOLYLINE
  5
4C3
330
1F
100
AcDbEntity
  8
0
 62
     4
100
AcDbPolyline
 90
        4
 70
     1
 43
0.0
 10
97.80881994020454
 20
35.65590574772588
 10
93.56009382913166
 20
35.65590574772588
 10
93.56009382913166
 20
40.95045000457045
 10
97.80881994020454
 20
40.95045000457045
  0
LWPOLYLINE
  5
4C4
330
1F
100
AcDbEntity
  8
0
 62
     4
100
AcDbPolyline
 90
        4
 70
     1
 43
0.0
 10
92.82092160350075
 20
35.65590574772588
 10
88.57219549242788
 20
35.65590574772588
 10
88.57219549242788
 20
40.95045000457045
 10
92.82092160350075
 20
40.95045000457045
  0
LWPOLYLINE
  5
4C5
330
1F
100
AcDbEntity
  8
0
 62
     4
100
AcDbPolyline
 90
        4
 70
     1
 43
0.0
 10
87.8027542059535
 20
35.65590574772588
 10
83.55402809488063
 20
35.65590574772588
 10
83.55402809488063
 20
40.95045000457045
 10
87.8027542059535
 20
40.95045000457045
  0
LINE
  5
4C6
330
1F
100
AcDbEntity
  8
0
 62
     0
100
AcDbLine
 10
102.8093450508356
 20
39.15427551886338
 30
0.0
 11
98.56061893976274
 21
39.15427551886338
 31
0.0
  0
LINE
  5
4C7
330
1F
100
AcDbEntity
  8
0
 62
     0
100
AcDbLine
 10
97.80881994020454
 20
39.15427551886338
 30
0.0
 11
93.56009382913166
 21
39.15427551886338
 31
0.0
  0
LINE
  5
4C8
330
1F
100
AcDbEntity
  8
0
 62
     0
100
AcDbLine
 10
92.82092160350075
 20
39.15427551886338
 30
0.0
 11
88.57219549242788
 21
39.15427551886338
 31
0.0
  0
LINE
  5
4C9
330
1F
100
AcDbEntity
  8
0
 62
     0
100
AcDbLine
 10
87.8027542059535
 20
39.15427551886338
 30
0.0
 11
83.55402809488063
 21
39.15427551886338
 31
0.0
  0
LINE
  5
4CA
330
1F
100
AcDbEntity
  8
0
 62
     4
100
AcDbLine
 10
103.1852445506147
 20
48.67775753605243
 30
0.0
 11
83.18524455061478
 21
48.67775753605243
 31
0.0
  0
LWPOLYLINE
  5
4CB
330
1F
100
AcDbEntity
  8
0
 62
     4
100
AcDbPolyline
 90
        2
 70
     0
 43
0.0
 10
103.1852445506147
 20
41.17775753605243
 10
103.1852445506147
 20
34.67775753605244
  0
LWPOLYLINE
  5
4CC
330
1F
100
AcDbEntity
  8
0
 62
     4
100
AcDbPolyline
 90
        2
 70
     0
 43
0.0
 10
103.1852445506147
 20
33.17775753605244
 10
123.1852445506148
 20
33.17775753605244
  0
LWPOLYLINE
  5
4CD
330
1F
100
AcDbEntity
  8
0
 62
     4
100
AcDbPolyline
 90
        2
 70
     0
 43
0.0
 10
123.1852445506148
 20
34.67775753605244
 10
123.1852445506148
 20
41.17775753605243
  0
LWPOLYLINE
  5
4CE
330
1F
100
AcDbEntity
  8
0
 62
     4
100
AcDbPolyline
 90
        2
 70
     0
 43
0.0
 10
123.1852445506148
 20
49.17775753605244
 10
103.1852445506147
 20
49.17775753605244
  0
LINE
  5
4CF
330
1F
100
AcDbEntity
  8
0
 62
     4
100
AcDbLine
 10
113.1852445506149
 20
34.67775753605244
 30
0.0
 11
113.1852445506148
 21
41.17775753605243
 31
0.0
  0
LINE
  5
4D0
330
1F
100
AcDbEntity
  8
0
 62
     4
100
AcDbLine
 10
123.1852445506148
 20
41.17775753605243
 30
0.0
 11
103.1852445506147
 21
41.17775753605243
 31
0.0
  0
LINE
  5
4D1
330
1F
100
AcDbEntity
  8
0
 62
     4
100
AcDbLine
 10
118.1852445506148
 20
34.67775753605244
 30
0.0
 11
118.1852445506148
 21
41.17775753605243
 31
0.0
  0
LINE
  5
4D2
330
1F
100
AcDbEntity
  8
0
 62
     4
100
AcDbLine
 10
108.1852445506148
 20
34.67775753605244
 30
0.0
 11
108.1852445506148
 21
41.17775753605243
 31
0.0
  0
LINE
  5
4D3
330
1F
100
AcDbEntity
  8
0
 62
     4
100
AcDbLine
 10
123.1852445506148
 20
34.67775753605244
 30
0.0
 11
103.1852445506147
 21
34.67775753605244
 31
0.0
  0
LWPOLYLINE
  5
4D4
330
1F
100
AcDbEntity
  8
0
 62
     4
100
AcDbPolyline
 90
        4
 70
     1
 43
0.0
 10
122.8093450508357
 20
35.65590574772588
 10
118.5606189397627
 20
35.65590574772588
 10
118.5606189397627
 20
40.95045000457045
 10
122.8093450508357
 20
40.95045000457045
  0
LWPOLYLINE
  5
4D5
330
1F
100
AcDbEntity
  8
0
 62
     4
100
AcDbPolyline
 90
        4
 70
     1
 43
0.0
 10
117.8088199402046
 20
35.65590574772588
 10
113.5600938291316
 20
35.65590574772588
 10
113.5600938291316
 20
40.95045000457045
 10
117.8088199402046
 20
40.95045000457045
  0
LWPOLYLINE
  5
4D6
330
1F
100
AcDbEntity
  8
0
 62
     4
100
AcDbPolyline
 90
        4
 70
     1
 43
0.0
 10
112.8209216035007
 20
35.65590574772588
 10
108.572195492428
 20
35.65590574772588
 10
108.572195492428
 20
40.95045000457045
 10
112.8209216035007
 20
40.95045000457045
  0
LWPOLYLINE
  5
4D7
330
1F
100
AcDbEntity
  8
0
 62
     4
100
AcDbPolyline
 90
        4
 70
     1
 43
0.0
 10
107.8027542059536
 20
35.65590574772588
 10
103.5540280948806
 20
35.65590574772588
 10
103.5540280948806
 20
40.95045000457045
 10
107.8027542059536
 20
40.95045000457045
  0
LINE
  5
4D8
330
1F
100
AcDbEntity
  8
0
 62
     0
100
AcDbLine
 10
122.8093450508357
 20
39.15427551886338
 30
0.0
 11
118.5606189397627
 21
39.15427551886338
 31
0.0
  0
LINE
  5
4D9
330
1F
100
AcDbEntity
  8
0
 62
     0
100
AcDbLine
 10
117.8088199402046
 20
39.15427551886338
 30
0.0
 11
113.5600938291316
 21
39.15427551886338
 31
0.0
  0
LINE
  5
4DA
330
1F
100
AcDbEntity
  8
0
 62
     0
100
AcDbLine
 10
112.8209216035007
 20
39.15427551886338
 30
0.0
 11
108.572195492428
 21
39.15427551886338
 31
0.0
  0
LINE
  5
4DB
330
1F
100
AcDbEntity
  8
0
 62
     0
100
AcDbLine
 10
107.8027542059536
 20
39.15427551886338
 30
0.0
 11
103.5540280948806
 21
39.15427551886338
 31
0.0
  0
LINE
  5
4DC
330
1F
100
AcDbEntity
  8
0
 62
     4
100
AcDbLine
 10
123.1852445506148
 20
48.67775753605243
 30
0.0
 11
103.1852445506147
 21
48.67775753605243
 31
0.0
  0
LWPOLYLINE
  5
4DD
330
1F
100
AcDbEntity
  8
0
 62
     4
100
AcDbPolyline
 90
        2
 70
     0
 43
0.0
 10
123.1852445506148
 20
41.17775753605243
 10
123.1852445506148
 20
34.67775753605244
  0
LWPOLYLINE
  5
4DE
330
1F
100
AcDbEntity
  8
0
 62
     4
100
AcDbPolyline
 90
        2
 70
     0
 43
0.0
 10
123.1852445506148
 20
33.17775753605244
 10
143.1852445506149
 20
33.17775753605244
  0
LWPOLYLINE
  5
4DF
330
1F
100
AcDbEntity
  8
0
 62
     4
100
AcDbPolyline
 90
        2
 70
     0
 43
0.0
 10
143.1852445506149
 20
34.67775753605244
 10
143.1852445506149
 20
41.17775753605243
  0
LWPOLYLINE
  5
4E0
330
1F
100
AcDbEntity
  8
0
 62
     4
100
AcDbPolyline
 90
        2
 70
     0
 43
0.0
 10
143.1852445506149
 20
49.17775753605244
 10
123.1852445506148
 20
49.17775753605244
  0
LINE
  5
4E1
330
1F
100
AcDbEntity
  8
0
 62
     4
100
AcDbLine
 10
133.1852445506149
 20
33.17775753605244
 30
0.0
 11
133.1852445506149
 21
49.17775753605244
 31
0.0
  0
LINE
  5
4E2
330
1F
100
AcDbEntity
  8
0
 62
     4
100
AcDbLine
 10
143.1852445506149
 20
41.17775753605243
 30
0.0
 11
123.1852445506148
 21
41.17775753605243
 31
0.0
  0
LINE
  5
4E3
330
1F
100
AcDbEntity
  8
0
 62
     4
100
AcDbLine
 10
138.1852445506149
 20
34.67775753605244
 30
0.0
 11
138.1852445506149
 21
41.17775753605243
 31
0.0
  0
LINE
  5
4E4
330
1F
100
AcDbEntity
  8
0
 62
     4
100
AcDbLine
 10
128.1852445506149
 20
34.67775753605244
 30
0.0
 11
128.1852445506149
 21
41.17775753605243
 31
0.0
  0
LINE
  5
4E5
330
1F
100
AcDbEntity
  8
0
 62
     4
100
AcDbLine
 10
143.1852445506149
 20
34.67775753605244
 30
0.0
 11
123.1852445506148
 21
34.67775753605244
 31
0.0
  0
LWPOLYLINE
  5
4E6
330
1F
100
AcDbEntity
  8
0
 62
     4
100
AcDbPolyline
 90
        4
 70
     1
 43
0.0
 10
142.8093450508357
 20
35.65590574772588
 10
138.5606189397628
 20
35.65590574772588
 10
138.5606189397628
 20
40.95045000457045
 10
142.8093450508357
 20
40.95045000457045
  0
LWPOLYLINE
  5
4E7
330
1F
100
AcDbEntity
  8
0
 62
     4
100
AcDbPolyline
 90
        4
 70
     1
 43
0.0
 10
137.8088199402046
 20
35.65590574772588
 10
133.5600938291317
 20
35.65590574772588
 10
133.5600938291317
 20
40.95045000457045
 10
137.8088199402046
 20
40.95045000457045
  0
LWPOLYLINE
  5
4E8
330
1F
100
AcDbEntity
  8
0
 62
     4
100
AcDbPolyline
 90
        4
 70
     1
 43
0.0
 10
132.8209216035008
 20
35.65590574772588
 10
128.572195492428
 20
35.65590574772588
 10
128.572195492428
 20
40.95045000457045
 10
132.8209216035008
 20
40.95045000457045
  0
LWPOLYLINE
  5
4E9
330
1F
100
AcDbEntity
  8
0
 62
     4
100
AcDbPolyline
 90
        4
 70
     1
 43
0.0
 10
127.8027542059536
 20
35.65590574772588
 10
123.5540280948806
 20
35.65590574772588
 10
123.5540280948806
 20
40.95045000457045
 10
127.8027542059536
 20
40.95045000457045
  0
LINE
  5
4EA
330
1F
100
AcDbEntity
  8
0
 62
     0
100
AcDbLine
 10
142.8093450508357
 20
39.15427551886338
 30
0.0
 11
138.5606189397628
 21
39.15427551886338
 31
0.0
  0
LINE
  5
4EB
330
1F
100
AcDbEntity
  8
0
 62
     0
100
AcDbLine
 10
137.8088199402046
 20
39.15427551886338
 30
0.0
 11
133.5600938291317
 21
39.15427551886338
 31
0.0
  0
LINE
  5
4EC
330
1F
100
AcDbEntity
  8
0
 62
     0
100
AcDbLine
 10
132.8209216035008
 20
39.15427551886338
 30
0.0
 11
128.572195492428
 21
39.15427551886338
 31
0.0
  0
LINE
  5
4ED
330
1F
100
AcDbEntity
  8
0
 62
     0
100
AcDbLine
 10
127.8027542059536
 20
39.15427551886338
 30
0.0
 11
123.5540280948806
 21
39.15427551886338
 31
0.0
  0
LINE
  5
4EE
330
1F
100
AcDbEntity
  8
0
 62
     4
100
AcDbLine
 10
143.1852445506149
 20
48.67775753605243
 30
0.0
 11
123.1852445506148
 21
48.67775753605243
 31
0.0
  0
LWPOLYLINE
  5
4EF
330
1F
100
AcDbEntity
  8
0
 62
     4
100
AcDbPolyline
 90
        2
 70
     0
 43
0.0
 10
143.1852445506149
 20
41.17775753605243
 10
143.1852445506149
 20
34.67775753605244
  0
LWPOLYLINE
  5
4F0
330
1F
100
AcDbEntity
  8
0
 62
     4
100
AcDbPolyline
 90
        2
 70
     0
 43
0.0
 10
143.1852445506149
 20
33.17775753605244
 10
163.185244550615
 20
33.17775753605244
  0
LWPOLYLINE
  5
4F1
330
1F
100
AcDbEntity
  8
0
 62
     4
100
AcDbPolyline
 90
        2
 70
     0
 43
0.0
 10
163.185244550615
 20
34.67775753605244
 10
163.185244550615
 20
41.17775753605243
  0
LWPOLYLINE
  5
4F2
330
1F
100
AcDbEntity
  8
0
 62
     4
100
AcDbPolyline
 90
        2
 70
     0
 43
0.0
 10
163.185244550615
 20
49.17775753605244
 10
143.1852445506149
 20
49.17775753605244
  0
LINE
  5
4F3
330
1F
100
AcDbEntity
  8
0
 62
     4
100
AcDbLine
 10
153.185244550615
 20
34.67775753605244
 30
0.0
 11
153.185244550615
 21
41.17775753605243
 31
0.0
  0
LINE
  5
4F4
330
1F
100
AcDbEntity
  8
0
 62
     4
100
AcDbLine
 10
163.185244550615
 20
41.17775753605243
 30
0.0
 11
143.1852445506149
 21
41.17775753605243
 31
0.0
  0
LINE
  5
4F5
330
1F
100
AcDbEntity
  8
0
 62
     4
100
AcDbLine
 10
158.185244550615
 20
34.67775753605244
 30
0.0
 11
158.185244550615
 21
41.17775753605243
 31
0.0
  0
LINE
  5
4F6
330
1F
100
AcDbEntity
  8
0
 62
     4
100
AcDbLine
 10
148.185244550615
 20
34.67775753605244
 30
0.0
 11
148.185244550615
 21
41.17775753605243
 31
0.0
  0
LINE
  5
4F7
330
1F
100
AcDbEntity
  8
0
 62
     4
100
AcDbLine
 10
163.185244550615
 20
34.67775753605244
 30
0.0
 11
143.1852445506149
 21
34.67775753605244
 31
0.0
  0
LWPOLYLINE
  5
4F8
330
1F
100
AcDbEntity
  8
0
 62
     4
100
AcDbPolyline
 90
        4
 70
     1
 43
0.0
 10
162.8093450508357
 20
35.65590574772588
 10
158.560618939763
 20
35.65590574772588
 10
158.560618939763
 20
40.95045000457045
 10
162.8093450508357
 20
40.95045000457045
  0
LWPOLYLINE
  5
4F9
330
1F
100
AcDbEntity
  8
0
 62
     4
100
AcDbPolyline
 90
        4
 70
     1
 43
0.0
 10
157.8088199402046
 20
35.65590574772588
 10
153.5600938291319
 20
35.65590574772588
 10
153.5600938291319
 20
40.95045000457045
 10
157.8088199402046
 20
40.95045000457045
  0
LWPOLYLINE
  5
4FA
330
1F
100
AcDbEntity
  8
0
 62
     4
100
AcDbPolyline
 90
        4
 70
     1
 43
0.0
 10
152.8209216035009
 20
35.65590574772588
 10
148.572195492428
 20
35.65590574772588
 10
148.572195492428
 20
40.95045000457045
 10
152.8209216035009
 20
40.95045000457045
  0
LWPOLYLINE
  5
4FB
330
1F
100
AcDbEntity
  8
0
 62
     4
100
AcDbPolyline
 90
        4
 70
     1
 43
0.0
 10
147.8027542059536
 20
35.65590574772588
 10
143.5540280948807
 20
35.65590574772588
 10
143.5540280948807
 20
40.95045000457045
 10
147.8027542059536
 20
40.95045000457045
  0
LINE
  5
4FC
330
1F
100
AcDbEntity
  8
0
 62
     0
100
AcDbLine
 10
162.8093450508357
 20
39.15427551886338
 30
0.0
 11
158.560618939763
 21
39.15427551886338
 31
0.0
  0
LINE
  5
4FD
330
1F
100
AcDbEntity
  8
0
 62
     0
100
AcDbLine
 10
157.8088199402046
 20
39.15427551886338
 30
0.0
 11
153.5600938291319
 21
39.15427551886338
 31
0.0
  0
LINE
  5
4FE
330
1F
100
AcDbEntity
  8
0
 62
     0
100
AcDbLine
 10
152.8209216035009
 20
39.15427551886338
 30
0.0
 11
148.572195492428
 21
39.15427551886338
 31
0.0
  0
LINE
  5
4FF
330
1F
100
AcDbEntity
  8
0
 62
     0
100
AcDbLine
 10
147.8027542059536
 20
39.15427551886338
 30
0.0
 11
143.5540280948807
 21
39.15427551886338
 31
0.0
  0
LINE
  5
500
330
1F
100
AcDbEntity
  8
0
 62
     4
100
AcDbLine
 10
163.185244550615
 20
48.67775753605243
 30
0.0
 11
143.1852445506149
 21
48.67775753605243
 31
0.0
  0
LWPOLYLINE
  5
501
330
1F
100
AcDbEntity
  8
0
 62
     4
100
AcDbPolyline
 90
        2
 70
     0
 43
0.0
 10
163.185244550615
 20
41.17775753605243
 10
163.185244550615
 20
34.67775753605244
  0
LWPOLYLINE
  5
502
330
1F
100
AcDbEntity
  8
0
 62
     4
100
AcDbPolyline
 90
        4
 70
     0
 43
0.0
 10
163.185244550615
 20
33.17775753605244
 10
183.185244550615
 20
33.17775753605244
 10
183.185244550615
 20
49.17775753605244
 10
163.185244550615
 20
49.17775753605244
  0
LINE
  5
503
330
1F
100
AcDbEntity
  8
0
 62
     4
100
AcDbLine
 10
173.185244550615
 20
34.67775753605244
 30
0.0
 11
173.185244550615
 21
41.17775753605243
 31
0.0
  0
LINE
  5
504
330
1F
100
AcDbEntity
  8
0
 62
     4
100
AcDbLine
 10
183.185244550615
 20
41.17775753605243
 30
0.0
 11
163.185244550615
 21
41.17775753605243
 31
0.0
  0
LINE
  5
505
330
1F
100
AcDbEntity
  8
0
 62
     4
100
AcDbLine
 10
178.185244550615
 20
34.67775753605244
 30
0.0
 11
178.185244550615
 21
41.17775753605243
 31
0.0
  0
LINE
  5
506
330
1F
100
AcDbEntity
  8
0
 62
     4
100
AcDbLine
 10
183.185244550615
 20
33.17775753605244
 30
0.0
 11
183.185244550615
 21
34.67775753605244
 31
0.0
  0
LINE
  5
507
330
1F
100
AcDbEntity
  8
0
 62
     4
100
AcDbLine
 10
168.185244550615
 20
34.67775753605244
 30
0.0
 11
168.185244550615
 21
41.17775753605243
 31
0.0
  0
LINE
  5
508
330
1F
100
AcDbEntity
  8
0
 62
     4
100
AcDbLine
 10
183.185244550615
 20
34.67775753605244
 30
0.0
 11
163.185244550615
 21
34.67775753605244
 31
0.0
  0
LWPOLYLINE
  5
509
330
1F
100
AcDbEntity
  8
0
 62
     4
100
AcDbPolyline
 90
        4
 70
     1
 43
0.0
 10
182.8093450508358
 20
35.65590574772588
 10
178.560618939763
 20
35.65590574772588
 10
178.560618939763
 20
40.95045000457045
 10
182.8093450508358
 20
40.95045000457045
  0
LWPOLYLINE
  5
50A
330
1F
100
AcDbEntity
  8
0
 62
     4
100
AcDbPolyline
 90
        4
 70
     1
 43
0.0
 10
177.8088199402047
 20
35.65590574772588
 10
173.5600938291319
 20
35.65590574772588
 10
173.5600938291319
 20
40.95045000457045
 10
177.8088199402047
 20
40.95045000457045
  0
LWPOLYLINE
  5
50B
330
1F
100
AcDbEntity
  8
0
 62
     4
100
AcDbPolyline
 90
        4
 70
     1
 43
0.0
 10
172.8209216035009
 20
35.65590574772588
 10
168.5721954924281
 20
35.65590574772588
 10
168.5721954924281
 20
40.95045000457045
 10
172.8209216035009
 20
40.95045000457045
  0
LWPOLYLINE
  5
50C
330
1F
100
AcDbEntity
  8
0
 62
     4
100
AcDbPolyline
 90
        4
 70
     1
 43
0.0
 10
167.8027542059537
 20
35.65590574772588
 10
163.5540280948808
 20
35.65590574772588
 10
163.5540280948808
 20
40.95045000457045
 10
167.8027542059537
 20
40.95045000457045
  0
LINE
  5
50D
330
1F
100
AcDbEntity
  8
0
 62
     0
100
AcDbLine
 10
182.8093450508358
 20
39.15427551886338
 30
0.0
 11
178.560618939763
 21
39.15427551886338
 31
0.0
  0
LINE
  5
50E
330
1F
100
AcDbEntity
  8
0
 62
     0
100
AcDbLine
 10
177.8088199402047
 20
39.15427551886338
 30
0.0
 11
173.5600938291319
 21
39.15427551886338
 31
0.0
  0
LINE
  5
50F
330
1F
100
AcDbEntity
  8
0
 62
     0
100
AcDbLine
 10
172.8209216035009
 20
39.15427551886338
 30
0.0
 11
168.5721954924281
 21
39.15427551886338
 31
0.0
  0
LINE
  5
510
330
1F
100
AcDbEntity
  8
0
 62
     0
100
AcDbLine
 10
167.8027542059537
 20
39.15427551886338
 30
0.0
 11
163.5540280948808
 21
39.15427551886338
 31
0.0
  0
LINE
  5
511
330
1F
100
AcDbEntity
  8
0
 62
     4
100
AcDbLine
 10
183.185244550615
 20
49.17775753605244
 30
0.0
 11
183.185244550615
 21
48.67775753605243
 31
0.0
  0
LINE
  5
512
330
1F
100
AcDbEntity
  8
0
 62
     4
100
AcDbLine
 10
183.185244550615
 20
48.67775753605243
 30
0.0
 11
163.185244550615
 21
48.67775753605243
 31
0.0
  0
ARC
  5
513
102
{ACAD_REACTORS
330
574
102
}
330
1F
100
AcDbEntity
  8
0
100
AcDbCircle
 10
75.21557463736676
 20
77.18399074318788
 30
0.0
 40
1.310660171779521
100
AcDbArc
 50
102.3501001262042
 51
167.6498998737987
  0
ARC
  5
514
330
1F
100
AcDbEntity
  8
0
100
AcDbCircle
 10
75.21557463736676
 20
71.18399074318787
 30
0.0
 40
1.310660171779521
100
AcDbArc
 50
102.3501001262042
 51
167.6498998737987
  0
LINE
  5
515
330
1F
100
AcDbEntity
  8
0
100
AcDbLine
 10
73.93524455147709
 20
72.46432082907753
 30
0.0
 11
73.93524455147709
 21
71.46432082907754
 31
0.0
  0
ARC
  5
516
330
1F
100
AcDbEntity
  8
0
100
AcDbCircle
 10
75.21557463736676
 20
51.18399074318787
 30
0.0
 40
1.310660171779521
100
AcDbArc
 50
102.3501001262042
 51
167.6498998737987
  0
ARC
  5
517
102
{ACAD_REACTORS
330
574
102
}
330
1F
100
AcDbEntity
  8
0
100
AcDbCircle
 10
191.1605899804586
 20
77.18966625978348
 30
0.0
 40
1.303909277310461
100
AcDbArc
 50
12.15982091124316
 51
77.84017908875684
  0
ARC
  5
518
330
1F
100
AcDbEntity
  8
0
100
AcDbCircle
 10
191.1605899804586
 20
71.18966625978348
 30
0.0
 40
1.303909277310461
100
AcDbArc
 50
12.15982091124316
 51
77.84017908875684
  0
ARC
  5
519
330
1F
100
AcDbEntity
  8
0
100
AcDbCircle
 10
191.1605899804586
 20
51.18966625978348
 30
0.0
 40
1.303909277310461
100
AcDbArc
 50
12.15982091124316
 51
77.84017908875684
  0
LINE
  5
51A
330
1F
100
AcDbEntity
  8
0
100
AcDbLine
 10
229.8238234446736
 20
23.46432082907765
 30
0.0
 11
262.5267227273142
 21
23.46432082907765
 31
0.0
  0
LINE
  5
51B
330
1F
100
AcDbEntity
  8
0
100
AcDbLine
 10
292.4920190769593
 20
23.46432082907765
 30
0.0
 11
329.8238234446736
 21
23.46432082907765
 31
0.0
  0
LINE
  5
51C
102
{ACAD_REACTORS
330
57D
102
}
330
1F
100
AcDbEntity
  8
0
100
AcDbLine
 10
329.8238234446736
 20
23.46432082907765
 30
0.0
 11
329.8238234446736
 21
51.46432082907754
 31
0.0
  0
LINE
  5
51D
330
1F
100
AcDbEntity
  8
0
100
AcDbLine
 10
229.8238234446736
 20
51.46432082907754
 30
0.0
 11
229.8238234446736
 21
23.46432082907765
 31
0.0
  0
LINE
  5
51E
330
1F
100
AcDbEntity
  8
0
100
AcDbLine
 10
229.8238234446736
 20
28.46432082907765
 30
0.0
 11
329.8238234446736
 21
28.46432082907765
 31
0.0
  0
LINE
  5
51F
330
1F
100
AcDbEntity
  8
0
100
AcDbLine
 10
229.8238234446736
 20
32.46432082907765
 30
0.0
 11
329.8238234446736
 21
32.46432082907765
 31
0.0
  0
LINE
  5
520
330
1F
100
AcDbEntity
  8
0
100
AcDbLine
 10
299.8238234446736
 20
28.46432082907765
 30
0.0
 11
279.8238234446736
 21
28.46432082907765
 31
0.0
  0
LINE
  5
521
330
1F
100
AcDbEntity
  8
0
100
AcDbLine
 10
259.8238234446736
 20
28.46432082907765
 30
0.0
 11
259.8238234446736
 21
23.46432082907765
 31
0.0
  0
LINE
  5
522
330
1F
100
AcDbEntity
  8
0
100
AcDbLine
 10
299.8238234446736
 20
28.46432082907765
 30
0.0
 11
299.8238234446736
 21
23.46432082907765
 31
0.0
  0
LINE
  5
523
330
1F
100
AcDbEntity
  8
0
100
AcDbLine
 10
299.8238234446736
 20
26.50973503298061
 30
0.0
 11
292.4920190769593
 21
24.98702793102913
 31
0.0
  0
LINE
  5
524
330
1F
100
AcDbEntity
  8
0
100
AcDbLine
 10
292.4920190769593
 20
24.98702793102913
 30
0.0
 11
292.4920190769593
 21
23.46432082907765
 31
0.0
  0
LINE
  5
525
330
1F
100
AcDbEntity
  8
0
100
AcDbLine
 10
259.8238234446736
 20
23.46432082907765
 30
0.0
 11
262.5267227273141
 21
23.46432082907765
 31
0.0
  0
LINE
  5
526
330
1F
100
AcDbEntity
  8
0
100
AcDbLine
 10
262.5267227273142
 20
23.46432082907765
 30
0.0
 11
267.1238234446736
 21
25.96432082907765
 31
0.0
  0
LINE
  5
527
330
1F
100
AcDbEntity
  8
0
100
AcDbLine
 10
267.1238234446736
 20
25.96432082907765
 30
0.0
 11
267.1238234446736
 21
26.58215987705873
 31
0.0
  0
LINE
  5
528
330
1F
100
AcDbEntity
  8
0
100
AcDbLine
 10
266.2443344076128
 20
27.19999892503981
 30
0.0
 11
259.8238234446736
 21
27.19999892503981
 31
0.0
  0
LINE
  5
529
330
1F
100
AcDbEntity
  8
0
100
AcDbLine
 10
267.1238234446736
 20
26.58215987705873
 30
0.0
 11
266.2443344076127
 21
27.19999892503981
 31
0.0
  0
LWPOLYLINE
  5
52A
330
1F
100
AcDbEntity
  8
0
100
AcDbPolyline
 90
        4
 70
     1
 43
0.0
 10
275.4787725213274
 20
34.11464715673603
 10
283.848761823995
 20
34.11464715673603
 10
283.848761823995
 20
38.44628666274682
 10
275.4787725213274
 20
38.44628666274682
  0
LINE
  5
52B
330
1F
100
AcDbEntity
  8
0
100
AcDbLine
 10
275.4787725213274
 20
37.54755422049922
 30
0.0
 11
283.848761823995
 21
37.54755422049922
 31
0.0
  0
LINE
  5
52C
330
1F
100
AcDbEntity
  8
0
100
AcDbLine
 10
229.8238234446736
 20
32.46432082907765
 30
0.0
 11
229.8238234446736
 21
51.46432082907754
 31
0.0
  0
LINE
  5
52D
330
1F
100
AcDbEntity
  8
0
100
AcDbLine
 10
230.8238234446737
 20
52.46432082907753
 30
0.0
 11
242.8238234446736
 21
52.46432082907753
 31
0.0
  0
LINE
  5
52E
330
1F
100
AcDbEntity
  8
0
100
AcDbLine
 10
316.8238234446736
 20
52.46432082907753
 30
0.0
 11
328.8238234446736
 21
52.46432082907753
 31
0.0
  0
LINE
  5
52F
330
1F
100
AcDbEntity
  8
0
100
AcDbLine
 10
242.7482530209459
 20
72.46432082907765
 30
0.0
 11
250.8238234446736
 21
72.46432082907777
 31
0.0
  0
LINE
  5
530
330
1F
100
AcDbEntity
  8
0
100
AcDbLine
 10
308.8238234446734
 20
72.46432082907765
 30
0.0
 11
316.8238234446735
 21
72.46432082907753
 31
0.0
  0
LINE
  5
531
330
1F
100
AcDbEntity
  8
0
100
AcDbLine
 10
242.8238234446736
 20
52.46432082907753
 30
0.0
 11
242.8238234446736
 21
71.48323706014273
 31
0.0
  0
LINE
  5
532
330
1F
100
AcDbEntity
  8
0
100
AcDbLine
 10
328.8238234446733
 20
52.46432082907753
 30
0.0
 11
316.8238234446736
 21
52.46432082907753
 31
0.0
  0
LINE
  5
533
330
1F
100
AcDbEntity
  8
0
100
AcDbLine
 10
316.8238234446736
 20
52.46432082907753
 30
0.0
 11
316.8238234446735
 21
71.46432082907754
 31
0.0
  0
LINE
  5
534
330
1F
100
AcDbEntity
  8
0
100
AcDbLine
 10
242.8238234446736
 20
72.46432082907753
 30
0.0
 11
250.8238234446736
 21
72.46432082907753
 31
0.0
  0
LINE
  5
535
330
1F
100
AcDbEntity
  8
0
100
AcDbLine
 10
250.8238234446736
 20
72.46432082907753
 30
0.0
 11
250.8238234446736
 21
77.46432082907765
 31
0.0
  0
LINE
  5
536
330
1F
100
AcDbEntity
  8
0
100
AcDbLine
 10
316.8238234446736
 20
72.46432082907753
 30
0.0
 11
308.8238234446736
 21
72.46432082907753
 31
0.0
  0
LINE
  5
537
330
1F
100
AcDbEntity
  8
0
100
AcDbLine
 10
308.8238234446736
 20
72.46432082907753
 30
0.0
 11
308.8238234446736
 21
77.46432082907765
 31
0.0
  0
LINE
  5
538
330
1F
100
AcDbEntity
  8
0
100
AcDbLine
 10
242.8238234446736
 20
72.46432082907753
 30
0.0
 11
242.7482530209457
 21
72.46432082907753
 31
0.0
  0
LINE
  5
539
330
1F
100
AcDbEntity
  8
0
100
AcDbLine
 10
241.8238234446736
 20
71.48323706014273
 30
0.0
 11
241.8238234446736
 21
52.46432082907753
 31
0.0
  0
LINE
  5
53A
330
1F
100
AcDbEntity
  8
0
100
AcDbLine
 10
316.8238234446736
 20
52.46432082907753
 30
0.0
 11
317.8238234446736
 21
52.46432082907753
 31
0.0
  0
LINE
  5
53B
330
1F
100
AcDbEntity
  8
0
100
AcDbLine
 10
317.8238234446736
 20
52.46432082907753
 30
0.0
 11
317.8238234446734
 21
71.46432082907742
 31
0.0
  0
LINE
  5
53C
330
1F
100
AcDbEntity
  8
0
100
AcDbLine
 10
279.8238234446736
 20
78.46432082907753
 30
0.0
 11
277.3238234446736
 21
78.46432082907753
 31
0.0
  0
LINE
  5
53D
330
1F
100
AcDbEntity
  8
0
100
AcDbLine
 10
279.8238234446736
 20
78.46432082907753
 30
0.0
 11
282.3238234446736
 21
78.46432082907753
 31
0.0
  0
LINE
  5
53E
330
1F
100
AcDbEntity
  8
0
100
AcDbLine
 10
278.2294574010497
 20
78.46432082907753
 30
0.0
 11
275.2294574010497
 21
78.46432082907753
 31
0.0
  0
LINE
  5
53F
330
1F
100
AcDbEntity
  8
0
100
AcDbLine
 10
279.8238234446736
 20
78.46432082907753
 30
0.0
 11
282.8238234446736
 21
78.46432082907753
 31
0.0
  0
LINE
  5
540
330
1F
100
AcDbEntity
  8
0
100
AcDbLine
 10
251.8238234446737
 20
78.46432082907753
 30
0.0
 11
278.2294574010497
 21
78.46432082907753
 31
0.0
  0
LINE
  5
541
330
1F
100
AcDbEntity
  8
0
100
AcDbLine
 10
280.8710064664855
 20
78.46432082907753
 30
0.0
 11
307.8238234446735
 21
78.46432082907753
 31
0.0
  0
ARC
  5
542
330
1F
100
AcDbEntity
  8
0
100
AcDbCircle
 10
252.1041535305631
 20
77.18399074318788
 30
0.0
 40
1.310660171779521
100
AcDbArc
 50
102.3501001262042
 51
167.6498998737987
  0
ARC
  5
543
330
1F
100
AcDbEntity
  8
0
100
AcDbCircle
 10
243.1041535305631
 20
71.20290697425307
 30
0.0
 40
1.310660171779521
100
AcDbArc
 50
105.7561011091583
 51
167.6498998737987
  0
ARC
  5
544
330
1F
100
AcDbEntity
  8
0
100
AcDbCircle
 10
231.1041535305631
 20
51.18399074318787
 30
0.0
 40
1.310660171779521
100
AcDbArc
 50
102.3501001262042
 51
167.6498998737987
  0
ARC
  5
545
330
1F
100
AcDbEntity
  8
0
100
AcDbCircle
 10
244.1041535305632
 20
71.20290697425307
 30
0.0
 40
1.310660171779521
100
AcDbArc
 50
105.7561011091583
 51
167.6498998737987
  0
ARC
  5
546
102
{ACAD_REACTORS
330
57D
102
}
330
1F
100
AcDbEntity
  8
0
100
AcDbCircle
 10
307.5491688753795
 20
77.18966625978348
 30
0.0
 40
1.303909277310461
100
AcDbArc
 50
12.15982091124316
 51
77.84017908875684
  0
ARC
  5
547
330
1F
100
AcDbEntity
  8
0
100
AcDbCircle
 10
316.5491688753794
 20
71.18966625978348
 30
0.0
 40
1.303909277310461
100
AcDbArc
 50
12.15982091124316
 51
77.84017908875684
  0
ARC
  5
548
330
1F
100
AcDbEntity
  8
0
100
AcDbCircle
 10
328.5491688753795
 20
51.18966625978348
 30
0.0
 40
1.303909277310461
100
AcDbArc
 50
12.15982091124316
 51
77.84017908875684
  0
ARC
  5
549
330
1F
100
AcDbEntity
  8
0
100
AcDbCircle
 10
315.5491688753795
 20
71.18966625978348
 30
0.0
 40
1.303909277310461
100
AcDbArc
 50
12.15982091124316
 51
77.84017908875684
  0
LINE
  5
54A
330
1F
100
AcDbEntity
  8
0
100
AcDbLine
 10
229.8238234446736
 20
33.17775753605244
 30
0.0
 11
329.8238234446736
 21
33.17775753605244
 31
0.0
  0
LINE
  5
54B
330
1F
100
AcDbEntity
  8
0
 62
     4
100
AcDbLine
 10
329.8238234446736
 20
33.17775753605244
 30
0.0
 11
341.8238234446736
 21
33.17775753605244
 31
0.0
  0
LINE
  5
54C
330
1F
100
AcDbEntity
  8
0
 62
     4
100
AcDbLine
 10
341.8238234446736
 20
33.17775753605244
 30
0.0
 11
341.8238234446736
 21
49.17775753605244
 31
0.0
  0
LINE
  5
54D
330
1F
100
AcDbEntity
  8
0
 62
     4
100
AcDbLine
 10
341.8238234446736
 20
49.17775753605244
 30
0.0
 11
335.3238234446735
 21
49.17775753605244
 31
0.0
  0
LINE
  5
54E
330
1F
100
AcDbEntity
  8
0
 62
     4
100
AcDbLine
 10
333.8238234446736
 20
43.68859267173522
 30
0.0
 11
333.8238234446736
 21
33.17775753605244
 31
0.0
  0
LINE
  5
54F
330
1F
100
AcDbEntity
  8
0
 62
     4
100
AcDbLine
 10
333.8238234446736
 20
41.17775753605243
 30
0.0
 11
329.8238234446736
 21
41.17775753605243
 31
0.0
  0
LINE
  5
550
330
1F
100
AcDbEntity
  8
0
 62
     4
100
AcDbLine
 10
335.3238234446735
 20
49.17775753605244
 30
0.0
 11
333.8238234446736
 21
43.68859267173522
 31
0.0
  0
LINE
  5
551
330
1F
100
AcDbEntity
  8
0
 62
     4
100
AcDbLine
 10
333.8238234446736
 20
42.08344916400662
 30
0.0
 11
331.4995463487167
 21
41.63060335002953
 31
0.0
  0
LINE
  5
552
330
1F
100
AcDbEntity
  8
0
 62
     4
100
AcDbLine
 10
331.4995463487167
 20
41.63060335002953
 30
0.0
 11
331.4995463487167
 21
41.17775753605243
 31
0.0
  0
LINE
  5
553
102
{ACAD_REACTORS
330
57A
102
}
330
1F
100
AcDbEntity
  8
0
 62
     4
100
AcDbLine
 10
341.8238234446736
 20
49.17775753605244
 30
0.0
 11
341.0238234446735
 21
49.17775753605244
 31
0.0
  0
LINE
  5
554
330
1F
100
AcDbEntity
  8
0
 62
     4
100
AcDbLine
 10
229.8238234446736
 20
33.17775753605244
 30
0.0
 11
217.8238234446736
 21
33.17775753605244
 31
0.0
  0
LINE
  5
555
330
1F
100
AcDbEntity
  8
0
 62
     4
100
AcDbLine
 10
217.8238234446736
 20
33.17775753605244
 30
0.0
 11
217.8238234446736
 21
49.17775753605244
 31
0.0
  0
LINE
  5
556
330
1F
100
AcDbEntity
  8
0
 62
     4
100
AcDbLine
 10
217.8238234446736
 20
49.17775753605244
 30
0.0
 11
224.3238234446735
 21
49.17775753605244
 31
0.0
  0
LINE
  5
557
330
1F
100
AcDbEntity
  8
0
 62
     4
100
AcDbLine
 10
217.8238234446736
 20
33.17775753605244
 30
0.0
 11
225.8238234446736
 21
33.17775753605244
 31
0.0
  0
LINE
  5
558
330
1F
100
AcDbEntity
  8
0
 62
     4
100
AcDbLine
 10
225.8238234446736
 20
33.17775753605244
 30
0.0
 11
225.8238234446736
 21
43.68859267173522
 31
0.0
  0
LINE
  5
559
330
1F
100
AcDbEntity
  8
0
 62
     4
100
AcDbLine
 10
225.8238234446736
 20
41.17775753605243
 30
0.0
 11
229.8238234446736
 21
41.17775753605243
 31
0.0
  0
LINE
  5
55A
330
1F
100
AcDbEntity
  8
0
 62
     4
100
AcDbLine
 10
229.8238234446736
 20
41.17775753605243
 30
0.0
 11
228.1238234446735
 21
41.17775753605243
 31
0.0
  0
LINE
  5
55B
330
1F
100
AcDbEntity
  8
0
 62
     4
100
AcDbLine
 10
228.1238234446735
 20
41.17775753605243
 30
0.0
 11
228.1238234446735
 21
41.67775753605243
 31
0.0
  0
LINE
  5
55C
330
1F
100
AcDbEntity
  8
0
 62
     4
100
AcDbLine
 10
225.8238234446736
 20
42.08344916400662
 30
0.0
 11
228.1238234446735
 21
41.67775753605243
 31
0.0
  0
LINE
  5
55D
102
{ACAD_REACTORS
330
57A
102
}
330
1F
100
AcDbEntity
  8
0
 62
     4
100
AcDbLine
 10
217.8238234446736
 20
49.17775753605244
 30
0.0
 11
224.3238234446736
 21
49.17775753605244
 31
0.0
  0
LINE
  5
55E
330
1F
100
AcDbEntity
  8
0
 62
     4
100
AcDbLine
 10
224.3238234446736
 20
49.17775753605244
 30
0.0
 11
225.8238234446736
 21
43.68859267173522
 31
0.0
  0
LINE
  5
55F
330
1F
100
AcDbEntity
  8
0
 62
     4
100
AcDbLine
 10
217.8238234446736
 20
33.17775753605244
 30
0.0
 11
218.6238234446736
 21
33.17775753605244
 31
0.0
  0
LWPOLYLINE
  5
560
330
1F
100
AcDbEntity
  8
0
100
AcDbPolyline
 90
        4
 70
     1
 43
0.0
 10
229.8238234446736
 20
23.46432082907765
 10
226.2435754621884
 20
23.46432082907765
 10
226.2435754621884
 20
26.15806601625579
 10
229.8238234446736
 20
26.15806601625579
  0
LINE
  5
561
330
1F
100
AcDbEntity
  8
0
 62
     4
100
AcDbLine
 10
217.8238234446736
 20
33.17775753605244
 30
0.0
 11
218.3237151996709
 21
33.16735401329808
 31
0.0
  0
LINE
  5
562
330
1F
100
AcDbEntity
  8
0
 62
     4
100
AcDbLine
 10
218.3237151996709
 20
33.16735401329808
 30
0.0
 11
218.3237151996709
 21
49.17775753605244
 31
0.0
  0
LINE
  5
563
330
1F
100
AcDbEntity
  8
0
 62
     4
100
AcDbLine
 10
341.8238234446736
 20
33.17775753605244
 30
0.0
 11
341.3238234446736
 21
33.17775753605244
 31
0.0
  0
LINE
  5
564
330
1F
100
AcDbEntity
  8
0
 62
     4
100
AcDbLine
 10
341.3238234446736
 20
33.17775753605244
 30
0.0
 11
341.3238234446736
 21
49.17775753605244
 31
0.0
  0
DIMENSION
  5
565
102
{ACAD_XDICTIONARY
360
566
102
}
102
{ACAD_REACTORS
330
567
102
}
330
1F
100
AcDbEntity
  8
0
370
    40
100
AcDbDimension
  2
*D11
 10
210.3449246504676
 20
139.2406603333202
 30
0.0
 11
202.3449246504676
 21
189.5219103333203
 31
0.0
 70
    32
 71
     5
 42
100.5625
  3
MV
100
AcDbAlignedDimension
 13
192.4352445514771
 23
239.8031603333203
 33
0.0
 14
192.4352445514771
 24
139.2406603333202
 34
0.0
 50
90.0
100
AcDbRotatedDimension
  0
LINE
  5
568
330
1F
100
AcDbEntity
  8
0
370
    40
100
AcDbLine
 10
183.6852445514771
 20
239.7406603333203
 30
0.0
 11
183.6852445514771
 21
238.7406603333203
 31
0.0
  0
DIMENSION
  5
569
102
{ACAD_XDICTIONARY
360
56A
102
}
102
{ACAD_REACTORS
330
56B
102
}
330
1F
100
AcDbEntity
  8
0
370
    40
100
AcDbDimension
  2
*D12
 10
228.9667442517731
 20
126.9906603333202
 30
0.0
 11
220.966744251773
 21
189.4906603333203
 31
0.0
 70
    32
 71
     5
 42
125.0
  3
MV
100
AcDbAlignedDimension
 13
183.6852445514771
 23
251.9906603333203
 33
0.0
 14
183.6852445514771
 24
126.9906603333202
 34
0.0
 50
90.0
100
AcDbRotatedDimension
  0
DIMENSION
  5
56C
102
{ACAD_XDICTIONARY
360
56D
102
}
102
{ACAD_REACTORS
330
56E
102
}
330
1F
100
AcDbEntity
  8
0
370
    40
100
AcDbDimension
  2
*D13
 10
183.6852445514771
 20
261.7418550044429
 30
0.0
 11
132.6852445514771
 21
269.7418550044428
 31
0.0
 70
    32
 71
     5
 42
102.0
  3
MV
100
AcDbAlignedDimension
 13
81.68524455147709
 23
251.9321740947882
 33
0.0
 14
183.6852445514771
 24
251.9321740947882
 34
0.0
100
AcDbRotatedDimension
  0
DIMENSION
  5
56F
102
{ACAD_XDICTIONARY
360
570
102
}
102
{ACAD_REACTORS
330
571
102
}
330
1F
100
AcDbEntity
  8
0
370
    40
100
AcDbDimension
  2
*D14
 10
192.4352445514771
 20
277.2101310841624
 30
0.0
 11
133.1852445514771
 21
285.2101310841624
 31
0.0
 70
    32
 71
     5
 42
118.5
  3
MV
100
AcDbAlignedDimension
 13
73.93524455147709
 23
239.7406603333203
 33
0.0
 14
192.4352445514771
 24
239.7406603333203
 34
0.0
100
AcDbRotatedDimension
  0
DIMENSION
  5
572
102
{ACAD_XDICTIONARY
360
573
102
}
102
{ACAD_REACTORS
330
574
102
}
330
1F
100
AcDbEntity
  8
0
370
    40
100
AcDbDimension
  2
*D15
 10
192.4352445497527
 20
89.15331969842098
 30
0.0
 11
133.1852445506149
 21
97.15331969842097
 31
0.0
 70
    32
 71
     5
 42
118.4999999982756
  3
MV
100
AcDbAlignedDimension
 13
73.93524455147709
 23
77.46432082907753
 33
0.0
 14
192.4352445497527
 24
77.46432082907753
 34
0.0
100
AcDbRotatedDimension
  0
DIMENSION
  5
575
102
{ACAD_XDICTIONARY
360
576
102
}
102
{ACAD_REACTORS
330
577
102
}
330
1F
100
AcDbEntity
  8
0
370
    40
100
AcDbDimension
  2
*D16
 10
61.63187410815552
 20
23.46432082907766
 30
0.0
 11
53.63187410815552
 21
50.9643208290776
 31
0.0
 70
    32
 71
     5
 42
54.99999999999989
  3
MV
100
AcDbAlignedDimension
 13
74.93524455147721
 23
78.46432082907753
 33
0.0
 14
73.93524455147709
 24
23.46432082907765
 34
0.0
 50
90.0
100
AcDbRotatedDimension
  0
DIMENSION
  5
578
102
{ACAD_XDICTIONARY
360
579
102
}
102
{ACAD_REACTORS
330
57A
102
}
330
1F
100
AcDbEntity
  8
0
370
    40
100
AcDbDimension
  2
*D17
 10
341.8238234446736
 20
92.15331969842086
 30
0.0
 11
279.8238234446736
 21
100.1533196984208
 31
0.0
 70
    32
 71
     5
 42
123.9999999999999
  3
MV
100
AcDbAlignedDimension
 13
217.8238234446736
 23
49.17775753605244
 33
0.0
 14
341.8238234446736
 24
49.17775753605244
 34
0.0
100
AcDbRotatedDimension
  0
DIMENSION
  5
57B
102
{ACAD_XDICTIONARY
360
57C
102
}
102
{ACAD_REACTORS
330
57D
102
}
330
1F
100
AcDbEntity
  8
0
370
    40
100
AcDbDimension
  2
*D18
 10
367.0598837983808
 20
23.46432082907757
 30
0.0
 11
359.0598837983808
 21
50.9643208290776
 31
0.0
 70
    32
 71
     5
 42
54.99999999999994
  3
MV
100
AcDbAlignedDimension
 13
307.8238234446736
 23
78.46432082907752
 33
0.0
 14
329.8238234446736
 24
23.46432082907758
 34
0.0
 50
90.0
100
AcDbRotatedDimension
  0
LINE
  5
57E
330
1F
100
AcDbEntity
  8
0
 62
     4
100
AcDbLine
 10
91.88524455147714
 20
244.5044218012102
 30
0.0
 11
91.88524455147714
 21
239.7406603333203
 31
0.0
  0
LINE
  5
57F
330
1F
100
AcDbEntity
  8
0
 62
     4
100
AcDbLine
 10
102.085244551477
 20
244.5044218012102
 30
0.0
 11
102.085244551477
 21
239.7406603333203
 31
0.0
  0
MTEXT
  5
580
330
1F
100
AcDbEntity
  8
0
100
AcDbMText
 10
146.7146572823691
 20
166.6475624733779
 30
0.0
 40
2.5
 41
60.93703197746913
 71
     1
 72
     5
  1
{\fTimes New Roman|b0|i0|c0|p18;EXPASION MODULE}
 73
     1
 44
1.0
1001
ACAD
1000
MTEXTBEGIN
1070
    73
1070
     1
1070
    44
1040
1.0
1070
    74
1070
     0
1000
MTEXTEND
  0
MTEXT
  5
581
330
1F
100
AcDbEntity
  8
0
100
AcDbMText
 10
109.0606654599734
 20
229.8844725020845
 30
0.0
 40
2.339449541284402
 41
16.38732340109979
 71
     1
 72
     5
  1
{\fTimes New Roman|b0|i0|c0|p18;GND }
 11
0.0000000000000001
 21
1.0
 31
0.0
 73
     1
 44
1.0
1001
ACAD
1000
MTEXTBEGIN
1070
    73
1070
     1
1070
    44
1040
1.0
1070
    74
1070
     0
1000
MTEXTEND
  0
MTEXT
  5
582
330
1F
100
AcDbEntity
  8
0
100
AcDbMText
 10
118.4006734159528
 20
229.8844725020845
 30
0.0
 40
2.339449541284402
 41
16.38732340109979
 71
     1
 72
     5
  1
{\fTimes New Roman|b0|i0|c0|p18;GND }
 11
0.0000000000000001
 21
1.0
 31
0.0
 73
     1
 44
1.0
1001
ACAD
1000
MTEXTBEGIN
1070
    73
1070
     1
1070
    44
1040
1.0
1070
    74
1070
     0
1000
MTEXTEND
  0
MTEXT
  5
583
330
1F
100
AcDbEntity
  8
0
100
AcDbMText
 10
129.3677862723479
 20
229.8844725020845
 30
0.0
 40
2.339449541284402
 41
16.38732340109979
 71
     1
 72
     5
  1
{\fTimes New Roman|b0|i0|c0|p18;GND }
 11
0.0000000000000001
 21
1.0
 31
0.0
 73
     1
 44
1.0
1001
ACAD
1000
MTEXTBEGIN
1070
    73
1070
     1
1070
    44
1040
1.0
1070
    74
1070
     0
1000
MTEXTEND
  0
MTEXT
  5
584
330
1F
100
AcDbEntity
  8
0
100
AcDbMText
 10
139.4006734159528
 20
229.8844725020845
 30
0.0
 40
2.339449541284402
 41
16.38732340109979
 71
     1
 72
     5
  1
{\fTimes New Roman|b0|i0|c0|p18;GND }
 11
0.0000000000000001
 21
1.0
 31
0.0
 73
     1
 44
1.0
1001
ACAD
1000
MTEXTBEGIN
1070
    73
1070
     1
1070
    44
1040
1.0
1070
    74
1070
     0
1000
MTEXTEND
  0
MTEXT
  5
585
330
1F
100
AcDbEntity
  8
0
100
AcDbMText
 10
149.9711840169426
 20
229.8844725020845
 30
0.0
 40
2.339449541284402
 41
16.38732340109979
 71
     1
 72
     5
  1
{\fTimes New Roman|b0|i0|c0|p18;GND }
 11
0.0000000000000001
 21
1.0
 31
0.0
 73
     1
 44
1.0
1001
ACAD
1000
MTEXTBEGIN
1070
    73
1070
     1
1070
    44
1040
1.0
1070
    74
1070
     0
1000
MTEXTEND
  0
MTEXT
  5
586
330
1F
100
AcDbEntity
  8
0
100
AcDbMText
 10
159.978461391947
 20
229.8844725020845
 30
0.0
 40
2.339449541284402
 41
16.38732340109979
 71
     1
 72
     5
  1
{\fTimes New Roman|b0|i0|c0|p18;GND }
 11
0.0000000000000001
 21
1.0
 31
0.0
 73
     1
 44
1.0
1001
ACAD
1000
MTEXTBEGIN
1070
    73
1070
     1
1070
    44
1040
1.0
1070
    74
1070
     0
1000
MTEXTEND
  0
MTEXT
  5
587
330
1F
100
AcDbEntity
  8
0
100
AcDbMText
 10
170.4139493817619
 20
229.8844725020845
 30
0.0
 40
2.339449541284402
 41
16.38732340109979
 71
     1
 72
     5
  1
{\fTimes New Roman|b0|i0|c0|p18;GND }
 11
0.0000000000000001
 21
1.0
 31
0.0
 73
     1
 44
1.0
1001
ACAD
1000
MTEXTBEGIN
1070
    73
1070
     1
1070
    44
1040
1.0
1070
    74
1070
     0
1000
MTEXTEND
  0
MTEXT
  5
588
330
1F
100
AcDbEntity
  8
0
100
AcDbMText
 10
180.1489332572784
 20
229.8844725020845
 30
0.0
 40
2.339449541284402
 41
16.38732340109979
 71
     1
 72
     5
  1
{\fTimes New Roman|b0|i0|c0|p18;GND }
 11
0.0000000000000001
 21
1.0
 31
0.0
 73
     1
 44
1.0
1001
ACAD
1000
MTEXTBEGIN
1070
    73
1070
     1
1070
    44
1040
1.0
1070
    74
1070
     0
1000
MTEXTEND
  0
ENDSEC
  0
SECTION
  2
OBJECTS
  0
DICTIONARY
  5
C
330
0
100
AcDbDictionary
281
     1
  3
ACAD_COLOR
350
73
  3
ACAD_GROUP
350
D
  3
ACAD_LAYOUT
350
1A
  3
ACAD_MATERIAL
350
72
  3
ACAD_MLINESTYLE
350
17
  3
ACAD_PLOTSETTINGS
350
19
  3
ACAD_PLOTSTYLENAME
350
E
  3
ACAD_TABLESTYLE
350
86
  3
ACAD_VISUALSTYLE
350
99
  3
AcDbVariableDictionary
350
66
  3
DWGPROPS
350
5F4
  0
DICTIONARY
  5
120
330
2
100
AcDbDictionary
280
     1
281
     1
  3
ACAD_LAYERSTATES
360
121
  0
DICTIONARY
  5
566
330
565
100
AcDbDictionary
280
     1
281
     1
  3
ACAD_DIMASSOC
360
567
  0
DICTIONARY
  5
56A
330
569
100
AcDbDictionary
280
     1
281
     1
  3
ACAD_DIMASSOC
360
56B
  0
DICTIONARY
  5
56D
330
56C
100
AcDbDictionary
280
     1
281
     1
  3
ACAD_DIMASSOC
360
56E
  0
DICTIONARY
  5
570
330
56F
100
AcDbDictionary
280
     1
281
     1
  3
ACAD_DIMASSOC
360
571
  0
DICTIONARY
  5
573
330
572
100
AcDbDictionary
280
     1
281
     1
  3
ACAD_DIMASSOC
360
574
  0
DICTIONARY
  5
576
330
575
100
AcDbDictionary
280
     1
281
     1
  3
ACAD_DIMASSOC
360
577
  0
DICTIONARY
  5
579
330
578
100
AcDbDictionary
280
     1
281
     1
  3
ACAD_DIMASSOC
360
57A
  0
DICTIONARY
  5
57C
330
57B
100
AcDbDictionary
280
     1
281
     1
  3
ACAD_DIMASSOC
360
57D
  0
DICTIONARY
  5
73
102
{ACAD_REACTORS
330
C
102
}
330
C
100
AcDbDictionary
281
     1
  0
DICTIONARY
  5
D
102
{ACAD_REACTORS
330
C
102
}
330
C
100
AcDbDictionary
281
     1
  0
DICTIONARY
  5
1A
102
{ACAD_REACTORS
330
C
102
}
330
C
100
AcDbDictionary
281
     1
  3
Layout1
350
59
  3
Layout2
350
5E
  3
Model
350
22
  0
DICTIONARY
  5
72
102
{ACAD_REACTORS
330
C
102
}
330
C
100
AcDbDictionary
281
     1
  3
ByBlock
350
97
  3
ByLayer
350
96
  3
Global
350
98
  0
DICTIONARY
  5
17
102
{ACAD_REACTORS
330
C
102
}
330
C
100
AcDbDictionary
281
     1
  3
Standard
350
18
  0
DICTIONARY
  5
19
102
{ACAD_REACTORS
330
C
102
}
330
C
100
AcDbDictionary
281
     1
  0
ACDBDICTIONARYWDFLT
  5
E
102
{ACAD_REACTORS
330
C
102
}
330
C
100
AcDbDictionary
281
     1
  3
Normal
350
F
100
AcDbDictionaryWithDefault
340
F
  0
DICTIONARY
  5
86
102
{ACAD_REACTORS
330
C
102
}
330
C
100
AcDbDictionary
281
     1
  3
Standard
350
87
  0
DICTIONARY
  5
99
102
{ACAD_REACTORS
330
C
102
}
330
C
100
AcDbDictionary
281
     1
  3
2dWireframe
350
9F
  3
3D Hidden
350
A1
  3
3dWireframe
350
A0
  3
Basic
350
9E
  3
Brighten
350
A5
  3
ColorChange
350
A9
  3
Conceptual
350
A2
  3
Dim
350
A4
  3
Facepattern
350
A8
  3
Flat
350
9A
  3
FlatWithEdges
350
9B
  3
Gouraud
350
9C
  3
GouraudWithEdges
350
9D
  3
Linepattern
350
A7
  3
Realistic
350
A3
  3
Thicken
350
A6
  0
DICTIONARY
  5
66
102
{ACAD_REACTORS
330
C
102
}
330
C
100
AcDbDictionary
281
     1
  3
CTABLESTYLE
350
89
  3
DIMASSOC
350
67
  3
HIDETEXT
350
6B
  3
INDEXCTL
350
5F3
  3
SORTENTS
350
5F2
  0
XRECORD
  5
5F4
102
{ACAD_REACTORS
330
C
102
}
330
C
100
AcDbXrecord
280
     1
  1
DWGPROPS COOKIE
  2

  3

  4

  6

  7

  8
Administrator
  9

300
=
301
=
302
=
303
=
304
=
305
=
306
=
307
=
308
=
309
=
 40
0.000356412037037
 41
2458493.510017419
 42
2458493.510373241
  1

 90
        0
  0
DICTIONARY
  5
121
102
{ACAD_REACTORS
330
120
102
}
330
120
100
AcDbDictionary
281
     1
  0
DIMASSOC
  5
567
102
{ACAD_REACTORS
330
566
102
}
330
566
100
AcDbDimAssoc
330
565
 90
        2
 70
     0
 71
     0
  1
AcDbOsnapPointRef
 72
     1
331
374
 73
     2
 91
        3
 40
1.0
 10
0.0
 20
0.0
 30
2.000000000000000E+50
 75
     0
  0
DIMASSOC
  5
56B
102
{ACAD_REACTORS
330
56A
102
}
330
56A
100
AcDbDimAssoc
330
569
 90
        2
 70
     0
 71
     0
  1
AcDbOsnapPointRef
 72
     1
331
46A
 73
     2
 91
        2
 40
1.0
 10
0.0
 20
0.0
 30
2.000000000000000E+50
 75
     0
  0
DIMASSOC
  5
56E
102
{ACAD_REACTORS
330
56D
102
}
330
56D
100
AcDbDimAssoc
330
56C
 90
        1
 70
     0
 71
     0
  1
AcDbOsnapPointRef
 72
     1
331
35B
 73
     2
 91
        1
 40
1.0
 10
0.0
 20
0.0
 30
2.000000000000000E+50
 75
     0
  0
DIMASSOC
  5
571
102
{ACAD_REACTORS
330
570
102
}
330
570
100
AcDbDimAssoc
330
56F
 90
        3
 70
     0
 71
     0
  1
AcDbOsnapPointRef
 72
     1
331
374
 73
     2
 91
        1
 40
1.0
 10
0.0
 20
0.0
 30
2.000000000000000E+50
 75
     0
  1
AcDbOsnapPointRef
 72
     1
331
374
 73
     2
 91
        2
 40
1.0
 10
0.0
 20
0.0
 30
2.000000000000000E+50
 75
     0
  0
DIMASSOC
  5
574
102
{ACAD_REACTORS
330
573
102
}
330
573
100
AcDbDimAssoc
330
572
 90
        3
 70
     0
 71
     0
  1
AcDbOsnapPointRef
 72
     6
331
470
 73
     2
 91
        0
 40
0.0
 10
0.0
 20
0.0
 30
0.0
332
513
 74
     2
 92
        0
 75
     0
  1
AcDbOsnapPointRef
 72
     6
331
474
 73
     2
 91
        0
 40
0.9999999999999948
 10
0.0
 20
0.0
 30
0.0
332
517
 74
     2
 92
        0
 75
     0
  0
DIMASSOC
  5
577
102
{ACAD_REACTORS
330
576
102
}
330
576
100
AcDbDimAssoc
330
575
 90
        3
 70
     0
 71
     0
  1
AcDbOsnapPointRef
 72
     1
331
475
 73
     2
 91
        0
 40
1.0
 10
0.0
 20
0.0
 30
2.000000000000000E+50
 75
     0
  1
AcDbOsnapPointRef
 72
    13
331
47B
 73
     2
 91
        0
 40
0.0
 10
0.0
 20
0.0
 30
2.000000000000000E+50
 75
     0
  0
DIMASSOC
  5
57A
102
{ACAD_REACTORS
330
579
102
}
330
579
100
AcDbDimAssoc
330
578
 90
        3
 70
     0
 71
     0
  1
AcDbOsnapPointRef
 72
    13
331
55D
 73
     2
 91
        0
 40
0.0
 10
0.0
 20
0.0
 30
2.000000000000000E+50
 75
     0
  1
AcDbOsnapPointRef
 72
    13
331
553
 73
     2
 91
        0
 40
0.0
 10
0.0
 20
0.0
 30
2.000000000000000E+50
 75
     0
  0
DIMASSOC
  5
57D
102
{ACAD_REACTORS
330
57C
102
}
330
57C
100
AcDbDimAssoc
330
57B
 90
        3
 70
     0
 71
     0
  1
AcDbOsnapPointRef
 72
     1
331
546
 73
     2
 91
        0
 40
1.358567415440839
 10
0.0
 20
0.0
 30
2.000000000000000E+50
 75
     0
  1
AcDbOsnapPointRef
 72
    13
331
51C
 73
     2
 91
        0
 40
0.0
 10
0.0
 20
0.0
 30
2.000000000000000E+50
 75
     0
  0
LAYOUT
  5
59
102
{ACAD_XDICTIONARY
360
5F7
102
}
102
{ACAD_REACTORS
330
1A
102
}
330
1A
100
AcDbPlotSettings
  1

  2
None
  4

  6

 40
0.0
 41
0.0
 42
0.0
 43
0.0
 44
0.0
 45
0.0
 46
0.0
 47
0.0
 48
0.0
 49
0.0
140
0.0
141
0.0
142
1.0
143
1.0
 70
   688
 72
     0
 73
     0
 74
     5
  7

 75
    16
147
1.0
148
0.0
149
0.0
100
AcDbLayout
  1
Layout1
 70
     1
 71
     1
 10
0.0
 20
0.0
 11
12.0
 21
9.0
 12
0.0
 22
0.0
 32
0.0
 14
0.0
 24
0.0
 34
0.0
 15
0.0
 25
0.0
 35
0.0
146
0.0
 13
0.0
 23
0.0
 33
0.0
 16
1.0
 26
0.0
 36
0.0
 17
0.0
 27
1.0
 37
0.0
 76
     0
330
58
  0
LAYOUT
  5
5E
102
{ACAD_XDICTIONARY
360
5F9
102
}
102
{ACAD_REACTORS
330
1A
102
}
330
1A
100
AcDbPlotSettings
  1

  2
None
  4

  6

 40
0.0
 41
0.0
 42
0.0
 43
0.0
 44
0.0
 45
0.0
 46
0.0
 47
0.0
 48
0.0
 49
0.0
140
0.0
141
0.0
142
1.0
143
1.0
 70
   688
 72
     0
 73
     0
 74
     5
  7

 75
    16
147
1.0
148
0.0
149
0.0
100
AcDbLayout
  1
Layout2
 70
     1
 71
     2
 10
0.0
 20
0.0
 11
12.0
 21
9.0
 12
0.0
 22
0.0
 32
0.0
 14
0.0
 24
0.0
 34
0.0
 15
0.0
 25
0.0
 35
0.0
146
0.0
 13
0.0
 23
0.0
 33
0.0
 16
1.0
 26
0.0
 36
0.0
 17
0.0
 27
1.0
 37
0.0
 76
     0
330
5D
  0
LAYOUT
  5
22
102
{ACAD_XDICTIONARY
360
5F5
102
}
102
{ACAD_REACTORS
330
1A
102
}
330
1A
100
AcDbPlotSettings
  1

  2
none_device
  4
ANSI_A_(8.50_x_11.00_Inches)
  6

 40
6.349999904632568
 41
19.04999923706055
 42
6.350006103515625
 43
19.04998779296875
 44
215.8999938964844
 45
279.3999938964844
 46
0.0
 47
0.0
 48
0.0
 49
0.0
140
0.0
141
0.0
142
1.0
143
2.584895464708373
 70
 11952
 72
     0
 73
     1
 74
     0
  7

 75
     0
147
0.3868628397755418
148
0.0
149
0.0
100
AcDbLayout
  1
Model
 70
     1
 71
     0
 10
0.0
 20
0.0
 11
12.0
 21
9.0
 12
0.0
 22
0.0
 32
0.0
 14
0.0
 24
0.0
 34
0.0
 15
0.0
 25
0.0
 35
0.0
146
0.0
 13
0.0
 23
0.0
 33
0.0
 16
1.0
 26
0.0
 36
0.0
 17
0.0
 27
1.0
 37
0.0
 76
     0
330
1F
331
94
  0
MATERIAL
  5
97
102
{ACAD_XDICTIONARY
360
5FF
102
}
102
{ACAD_REACTORS
330
72
102
}
330
72
100
AcDbMaterial
  1
ByBlock
  0
MATERIAL
  5
96
102
{ACAD_XDICTIONARY
360
5FD
102
}
102
{ACAD_REACTORS
330
72
102
}
330
72
100
AcDbMaterial
  1
ByLayer
  0
MATERIAL
  5
98
102
{ACAD_XDICTIONARY
360
601
102
}
102
{ACAD_REACTORS
330
72
102
}
330
72
100
AcDbMaterial
  1
Global
  0
MLINESTYLE
  5
18
102
{ACAD_REACTORS
330
17
102
}
330
17
100
AcDbMlineStyle
  2
STANDARD
 70
     0
  3

 62
   256
 51
90.0
 52
90.0
 71
     2
 49
0.5
 62
   256
  6
BYLAYER
 49
-0.5
 62
   256
  6
BYLAYER
  0
ACDBPLACEHOLDER
  5
F
102
{ACAD_REACTORS
330
E
102
}
330
E
  0
TABLESTYLE
  5
87
102
{ACAD_XDICTIONARY
360
5FB
102
}
102
{ACAD_REACTORS
330
86
102
}
330
86
100
AcDbTableStyle
  3
Standard
 70
     0
 71
     0
 40
0.06
 41
0.06
280
     0
281
     0
  7
Standard
140
0.18
170
     2
 62
     0
 63
     7
283
     0
274
    -2
284
     1
 64
     0
275
    -2
285
     1
 65
     0
276
    -2
286
     1
 66
     0
277
    -2
287
     1
 67
     0
278
    -2
288
     1
 68
     0
279
    -2
289
     1
 69
     0
  7
Standard
140
0.25
170
     5
 62
     0
 63
     7
283
     0
274
    -2
284
     1
 64
     0
275
    -2
285
     1
 65
     0
276
    -2
286
     1
 66
     0
277
    -2
287
     1
 67
     0
278
    -2
288
     1
 68
     0
279
    -2
289
     1
 69
     0
  7
Standard
140
0.18
170
     5
 62
     0
 63
     7
283
     0
274
    -2
284
     1
 64
     0
275
    -2
285
     1
 65
     0
276
    -2
286
     1
 66
     0
277
    -2
287
     1
 67
     0
278
    -2
288
     1
 68
     0
279
    -2
289
     1
 69
     0
  0
VISUALSTYLE
  5
9F
102
{ACAD_REACTORS
330
99
102
}
330
99
100
AcDbVisualStyle
  2
2dWireframe
 70
     4
 71
     0
 72
     2
 73
     1
 90
        0
 40
-0.6
 41
-30.0
 62
     5
 63
     7
 74
     1
 91
        4
 64
     7
 65
   257
 75
     1
175
     1
 42
1.0
 92
        0
 66
   257
 43
1.0
 76
     1
 77
     6
 78
     2
 67
     7
 79
     5
170
     0
171
     0
290
     0
174
     0
 93
        1
 44
0.0
173
     0
291
     0
 45
0.0
1001
ACAD
1000
AcDbSavedByObjectVersion
1070
     0
  0
VISUALSTYLE
  5
A1
102
{ACAD_REACTORS
330
99
102
}
330
99
100
AcDbVisualStyle
  2
3D Hidden
 70
     6
 71
     1
 72
     2
 73
     2
 90
        0
 40
-0.6
 41
-30.0
 62
     5
 63
     7
 74
     2
 91
        2
 64
     7
 65
   257
 75
     2
175
     1
 42
40.0
 92
        0
 66
   257
 43
1.0
 76
     1
 77
     6
 78
     2
 67
     7
 79
     3
170
     0
171
     0
290
     0
174
     0
 93
        1
 44
0.0
173
     0
291
     0
 45
0.0
1001
ACAD
1000
AcDbSavedByObjectVersion
1070
     0
  0
VISUALSTYLE
  5
A0
102
{ACAD_REACTORS
330
99
102
}
330
99
100
AcDbVisualStyle
  2
3dWireframe
 70
     5
 71
     0
 72
     2
 73
     1
 90
        0
 40
-0.6
 41
-30.0
 62
     5
 63
     7
 74
     1
 91
        4
 64
     7
 65
   257
 75
     1
175
     1
 42
1.0
 92
        0
 66
   257
 43
1.0
 76
     1
 77
     6
 78
     2
 67
     7
 79
     5
170
     0
171
     0
290
     0
174
     0
 93
        1
 44
0.0
173
     0
291
     0
 45
0.0
1001
ACAD
1000
AcDbSavedByObjectVersion
1070
     0
  0
VISUALSTYLE
  5
9E
102
{ACAD_REACTORS
330
99
102
}
330
99
100
AcDbVisualStyle
  2
Basic
 70
     7
 71
     1
 72
     0
 73
     1
 90
        0
 40
-0.6
 41
-30.0
 62
     5
 63
     7
 74
     0
 91
        4
 64
     7
 65
   257
 75
     1
175
     1
 42
1.0
 92
        8
 66
     7
 43
1.0
 76
     1
 77
     6
 78
     2
 67
     7
 79
     5
170
     0
171
     0
290
     0
174
     0
 93
        1
 44
0.0
173
     0
291
     1
 45
0.0
1001
ACAD
1000
AcDbSavedByObjectVersion
1070
     0
  0
VISUALSTYLE
  5
A5
102
{ACAD_REACTORS
330
99
102
}
330
99
100
AcDbVisualStyle
  2
Brighten
 70
    12
 71
     2
 72
     2
 73
     1
 90
        0
 40
-0.6
 41
-30.0
 62
     5
 63
     7
 74
     1
 91
        4
 64
     7
 65
   257
 75
     1
175
     1
 42
1.0
 92
        8
 66
     7
 43
1.0
 76
     1
 77
     6
 78
     2
 67
     7
 79
     5
170
     0
171
     0
290
     0
174
     0
 93
        1
 44
50.0
173
     0
291
     1
 45
0.0
1001
ACAD
1000
AcDbSavedByObjectVersion
1070
     0
  0
VISUALSTYLE
  5
A9
102
{ACAD_REACTORS
330
99
102
}
330
99
100
AcDbVisualStyle
  2
ColorChange
 70
    16
 71
     2
 72
     2
 73
     3
 90
        0
 40
-0.6
 41
-30.0
 62
     5
 63
     8
 74
     1
 91
        4
 64
     7
 65
   257
 75
     1
175
     1
 42
1.0
 92
        8
 66
     8
 43
1.0
 76
     1
 77
     6
 78
     2
 67
     7
 79
     5
170
     0
171
     0
290
     0
174
     0
 93
        1
 44
0.0
173
     0
291
     1
 45
0.0
1001
ACAD
1000
AcDbSavedByObjectVersion
1070
     0
  0
VISUALSTYLE
  5
A2
102
{ACAD_REACTORS
330
99
102
}
330
99
100
AcDbVisualStyle
  2
Conceptual
 70
     9
 71
     3
 72
     2
 73
     1
 90
        0
 40
-0.6
 41
-30.0
 62
     5
 63
     7
 74
     2
 91
        2
 64
     7
 65
   257
 75
     1
175
     1
 42
40.0
 92
        8
 66
     7
 43
1.0
 76
     1
 77
     6
 78
     2
 67
     7
 79
     3
170
     0
171
     0
290
     0
174
     0
 93
        1
 44
0.0
173
     0
291
     0
 45
0.0
1001
ACAD
1000
AcDbSavedByObjectVersion
1070
     0
  0
VISUALSTYLE
  5
A4
102
{ACAD_REACTORS
330
99
102
}
330
99
100
AcDbVisualStyle
  2
Dim
 70
    11
 71
     2
 72
     2
 73
     1
 90
        0
 40
-0.6
 41
-30.0
 62
     5
 63
     7
 74
     1
 91
        4
 64
     7
 65
   257
 75
     1
175
     1
 42
1.0
 92
        8
 66
     7
 43
1.0
 76
     1
 77
     6
 78
     2
 67
     7
 79
     5
170
     0
171
     0
290
     0
174
     0
 93
        1
 44
-50.0
173
     0
291
     1
 45
0.0
1001
ACAD
1000
AcDbSavedByObjectVersion
1070
     0
  0
VISUALSTYLE
  5
A8
102
{ACAD_REACTORS
330
99
102
}
330
99
100
AcDbVisualStyle
  2
Facepattern
 70
    15
 71
     2
 72
     2
 73
     1
 90
        0
 40
-0.6
 41
-30.0
 62
     5
 63
     7
 74
     1
 91
        4
 64
     7
 65
   257
 75
     1
175
     1
 42
1.0
 92
        8
 66
     7
 43
1.0
 76
     1
 77
     6
 78
     2
 67
     7
 79
     5
170
     0
171
     0
290
     0
174
     0
 93
        1
 44
0.0
173
     0
291
     1
 45
0.0
1001
ACAD
1000
AcDbSavedByObjectVersion
1070
     0
  0
VISUALSTYLE
  5
9A
102
{ACAD_REACTORS
330
99
102
}
330
99
100
AcDbVisualStyle
  2
Flat
 70
     0
 71
     2
 72
     1
 73
     1
 90
        2
 40
-0.6
 41
30.0
 62
     5
 63
     7
 74
     0
 91
        4
 64
     7
 65
   257
 75
     1
175
     1
 42
1.0
 92
        8
 66
     7
 43
1.0
 76
     1
 77
     6
 78
     2
 67
     7
 79
     5
170
     0
171
     0
290
     0
174
     0
 93
        1
 44
0.0
173
     0
291
     1
 45
0.0
1001
ACAD
1000
AcDbSavedByObjectVersion
1070
     0
  0
VISUALSTYLE
  5
9B
102
{ACAD_REACTORS
330
99
102
}
330
99
100
AcDbVisualStyle
  2
FlatWithEdges
 70
     1
 71
     2
 72
     1
 73
     1
 90
        2
 40
-0.6
 41
30.0
 62
     5
 63
     7
 74
     1
 91
        4
 64
     7
 65
   257
 75
     1
175
     1
 42
1.0
 92
        0
 66
   257
 43
1.0
 76
     1
 77
     6
 78
     2
 67
     7
 79
     5
170
     0
171
     0
290
     0
174
     0
 93
        1
 44
0.0
173
     0
291
     1
 45
0.0
1001
ACAD
1000
AcDbSavedByObjectVersion
1070
     0
  0
VISUALSTYLE
  5
9C
102
{ACAD_REACTORS
330
99
102
}
330
99
100
AcDbVisualStyle
  2
Gouraud
 70
     2
 71
     2
 72
     2
 73
     1
 90
        2
 40
-0.6
 41
30.0
 62
     5
 63
     7
 74
     0
 91
        4
 64
     7
 65
   257
 75
     1
175
     1
 42
1.0
 92
        0
 66
     7
 43
1.0
 76
     1
 77
     6
 78
     2
 67
     7
 79
     5
170
     0
171
     0
290
     0
174
     0
 93
        1
 44
0.0
173
     0
291
     1
 45
0.0
1001
ACAD
1000
AcDbSavedByObjectVersion
1070
     0
  0
VISUALSTYLE
  5
9D
102
{ACAD_REACTORS
330
99
102
}
330
99
100
AcDbVisualStyle
  2
GouraudWithEdges
 70
     3
 71
     2
 72
     2
 73
     1
 90
        2
 40
-0.6
 41
30.0
 62
     5
 63
     7
 74
     1
 91
        4
 64
     7
 65
   257
 75
     1
175
     1
 42
1.0
 92
        0
 66
   257
 43
1.0
 76
     1
 77
     6
 78
     2
 67
     7
 79
     5
170
     0
171
     0
290
     0
174
     0
 93
        1
 44
0.0
173
     0
291
     1
 45
0.0
1001
ACAD
1000
AcDbSavedByObjectVersion
1070
     0
  0
VISUALSTYLE
  5
A7
102
{ACAD_REACTORS
330
99
102
}
330
99
100
AcDbVisualStyle
  2
Linepattern
 70
    14
 71
     2
 72
     2
 73
     1
 90
        0
 40
-0.6
 41
-30.0
 62
     5
 63
     7
 74
     1
 91
        4
 64
     7
 65
   257
 75
     7
175
     7
 42
1.0
 92
        8
 66
     7
 43
1.0
 76
     1
 77
     6
 78
     2
 67
     7
 79
     5
170
     0
171
     0
290
     0
174
     0
 93
        1
 44
0.0
173
     0
291
     1
 45
0.0
1001
ACAD
1000
AcDbSavedByObjectVersion
1070
     0
  0
VISUALSTYLE
  5
A3
102
{ACAD_REACTORS
330
99
102
}
330
99
100
AcDbVisualStyle
  2
Realistic
 70
     8
 71
     2
 72
     2
 73
     1
 90
        0
 40
-0.6
 41
-30.0
 62
     5
 63
     7
 74
     1
 91
        0
 64
     7
 65
   257
 75
     1
175
     1
 42
1.0
 92
        8
 66
     8
 43
1.0
 76
     1
 77
     6
 78
     2
 67
     7
 79
     5
170
     0
171
     0
290
     0
174
     0
 93
       13
 44
0.0
173
     0
291
     0
 45
0.0
1001
ACAD
1000
AcDbSavedByObjectVersion
1070
     0
  0
VISUALSTYLE
  5
A6
102
{ACAD_REACTORS
330
99
102
}
330
99
100
AcDbVisualStyle
  2
Thicken
 70
    13
 71
     2
 72
     2
 73
     1
 90
        0
 40
-0.6
 41
-30.0
 62
     5
 63
     7
 74
     1
 91
        4
 64
     7
 65
   257
 75
     1
175
     1
 42
1.0
 92
       12
 66
     7
 43
1.0
 76
     1
 77
     6
 78
     2
 67
     7
 79
     5
170
     0
171
     0
290
     0
174
     0
 93
        1
 44
0.0
173
     0
291
     1
 45
0.0
1001
ACAD
1000
AcDbSavedByObjectVersion
1070
     0
  0
DICTIONARYVAR
  5
89
102
{ACAD_REACTORS
330
66
102
}
330
66
100
DictionaryVariables
280
     0
  1
STANDARD
  0
DICTIONARYVAR
  5
67
102
{ACAD_REACTORS
330
66
102
}
330
66
100
DictionaryVariables
280
     0
  1
2
  0
DICTIONARYVAR
  5
6B
102
{ACAD_REACTORS
330
66
102
}
330
66
100
DictionaryVariables
280
     0
  1
1
  0
DICTIONARYVAR
  5
5F3
102
{ACAD_REACTORS
330
66
102
}
330
66
100
DictionaryVariables
280
     0
  1
0
  0
DICTIONARYVAR
  5
5F2
102
{ACAD_REACTORS
330
66
102
}
330
66
100
DictionaryVariables
280
     0
  1
127
  0
DICTIONARY
  5
5F7
330
59
100
AcDbDictionary
280
     1
281
     1
  3
ACAD_XREC_ROUNDTRIP
360
5F8
  0
DICTIONARY
  5
5F9
330
5E
100
AcDbDictionary
280
     1
281
     1
  3
ACAD_XREC_ROUNDTRIP
360
5FA
  0
DICTIONARY
  5
5F5
330
22
100
AcDbDictionary
280
     1
281
     1
  3
ACAD_XREC_ROUNDTRIP
360
5F6
  0
DICTIONARY
  5
5FF
330
97
100
AcDbDictionary
280
     1
281
     1
  3
ACAD_XREC_ROUNDTRIP
360
600
  0
DICTIONARY
  5
5FD
330
96
100
AcDbDictionary
280
     1
281
     1
  3
ACAD_XREC_ROUNDTRIP
360
5FE
  0
DICTIONARY
  5
601
330
98
100
AcDbDictionary
280
     1
281
     1
  3
ACAD_XREC_ROUNDTRIP
360
602
  0
DICTIONARY
  5
5FB
330
87
100
AcDbDictionary
280
     1
281
     1
  3
ACAD_XREC_ROUNDTRIP
360
5FC
  0
XRECORD
  5
5F8
102
{ACAD_REACTORS
330
5F7
102
}
330
5F7
100
AcDbXrecord
280
     1
102
SHADEPLOT
 70
     0
102
SHADEPLOTRESLEVEL
 70
     2
102
SHADEPLOTCUSTOMDPI
 70
   300
  0
XRECORD
  5
5FA
102
{ACAD_REACTORS
330
5F9
102
}
330
5F9
100
AcDbXrecord
280
     1
102
SHADEPLOT
 70
     0
102
SHADEPLOTRESLEVEL
 70
     2
102
SHADEPLOTCUSTOMDPI
 70
   300
  0
XRECORD
  5
5F6
102
{ACAD_REACTORS
330
5F5
102
}
330
5F5
100
AcDbXrecord
280
     1
102
SHADEPLOT
 70
     0
102
SHADEPLOTRESLEVEL
 70
     2
102
SHADEPLOTCUSTOMDPI
 70
   300
  0
XRECORD
  5
600
102
{ACAD_REACTORS
330
5FF
102
}
330
5FF
100
AcDbXrecord
280
     1
102
MATERIAL
148
0.0
149
0.0
149
0.0
 93
        0
 94
       63
282
     0
 72
     1
 77
     1
171
     1
175
     1
179
     1
273
     0
  0
XRECORD
  5
5FE
102
{ACAD_REACTORS
330
5FD
102
}
330
5FD
100
AcDbXrecord
280
     1
102
MATERIAL
148
0.0
149
0.0
149
0.0
 93
        0
 94
       63
282
     0
 72
     1
 77
     1
171
     1
175
     1
179
     1
273
     0
  0
XRECORD
  5
602
102
{ACAD_REACTORS
330
601
102
}
330
601
100
AcDbXrecord
280
     1
102
MATERIAL
148
0.0
149
0.0
149
0.0
 93
        0
 94
       63
282
     0
 72
     1
 77
     1
171
     1
175
     1
179
     1
273
     0
  0
XRECORD
  5
5FC
102
{ACAD_REACTORS
330
5FB
102
}
330
5FB
100
AcDbXrecord
280
     1
102
ACAD_ROUNDTRIP_PRE2007_TABLESTYLE
 90
      512
 91
        0
  1

 92
      512
 93
        0
  2

 94
      512
 95
        0
  3

  0
ENDSEC
  0
EOF
