  0
SECTION
  2
HEADER
  9
$ACADVER
  1
AC1015
  9
$ACADMAINTVER
 70
    20
  9
$DWGCODEPAGE
  3
ANSI_1252
  9
$INSBASE
 10
0.0
 20
0.0
 30
0.0
  9
$EXTMIN
 10
41.08295414102127
 20
19.67874168434377
 30
0.0
  9
$EXTMAX
 10
286.9215112093081
 20
417.6081519267529
 30
0.0
  9
$LIMMIN
 10
0.0
 20
0.0
  9
$LIMMAX
 10
12.0
 20
9.0
  9
$ORTHOMODE
 70
     0
  9
$REGENMODE
 70
     1
  9
$FILLMODE
 70
     1
  9
$QTEXTMODE
 70
     0
  9
$MIRRTEXT
 70
     0
  9
$LTSCALE
 40
1.0
  9
$ATTMODE
 70
     1
  9
$TEXTSIZE
 40
0.2
  9
$TRACEWID
 40
0.05
  9
$TEXTSTYLE
  7
Standard
  9
$CLAYER
  8
0
  9
$CELTYPE
  6
ByLayer
  9
$CECOLOR
 62
   256
  9
$CELTSCALE
 40
1.0
  9
$DISPSILH
 70
     0
  9
$DIMSCALE
 40
1.0
  9
$DIMASZ
 40
0.18
  9
$DIMEXO
 40
0.0625
  9
$DIMDLI
 40
0.38
  9
$DIMRND
 40
0.0
  9
$DIMDLE
 40
0.0
  9
$DIMEXE
 40
0.18
  9
$DIMTP
 40
0.0
  9
$DIMTM
 40
0.0
  9
$DIMTXT
 40
0.18
  9
$DIMCEN
 40
0.09
  9
$DIMTSZ
 40
0.0
  9
$DIMTOL
 70
     0
  9
$DIMLIM
 70
     0
  9
$DIMTIH
 70
     1
  9
$DIMTOH
 70
     1
  9
$DIMSE1
 70
     0
  9
$DIMSE2
 70
     0
  9
$DIMTAD
 70
     0
  9
$DIMZIN
 70
     0
  9
$DIMBLK
  1

  9
$DIMASO
 70
     1
  9
$DIMSHO
 70
     1
  9
$DIMPOST
  1

  9
$DIMAPOST
  1

  9
$DIMALT
 70
     0
  9
$DIMALTD
 70
     2
  9
$DIMALTF
 40
25.4
  9
$DIMLFAC
 40
1.0
  9
$DIMTOFL
 70
     0
  9
$DIMTVP
 40
0.0
  9
$DIMTIX
 70
     0
  9
$DIMSOXD
 70
     0
  9
$DIMSAH
 70
     0
  9
$DIMBLK1
  1

  9
$DIMBLK2
  1

  9
$DIMSTYLE
  2
Standard
  9
$DIMCLRD
 70
     0
  9
$DIMCLRE
 70
     0
  9
$DIMCLRT
 70
     0
  9
$DIMTFAC
 40
1.0
  9
$DIMGAP
 40
0.09
  9
$DIMJUST
 70
     0
  9
$DIMSD1
 70
     0
  9
$DIMSD2
 70
     0
  9
$DIMTOLJ
 70
     1
  9
$DIMTZIN
 70
     0
  9
$DIMALTZ
 70
     0
  9
$DIMALTTZ
 70
     0
  9
$DIMUPT
 70
     0
  9
$DIMDEC
 70
     4
  9
$DIMTDEC
 70
     4
  9
$DIMALTU
 70
     2
  9
$DIMALTTD
 70
     2
  9
$DIMTXSTY
  7
Standard
  9
$DIMAUNIT
 70
     0
  9
$DIMADEC
 70
     0
  9
$DIMALTRND
 40
0.0
  9
$DIMAZIN
 70
     0
  9
$DIMDSEP
 70
    46
  9
$DIMATFIT
 70
     3
  9
$DIMFRAC
 70
     0
  9
$DIMLDRBLK
  1

  9
$DIMLUNIT
 70
     2
  9
$DIMLWD
 70
    -2
  9
$DIMLWE
 70
    -2
  9
$DIMTMOVE
 70
     0
  9
$LUNITS
 70
     2
  9
$LUPREC
 70
     4
  9
$SKETCHINC
 40
0.1
  9
$FILLETRAD
 40
0.0
  9
$AUNITS
 70
     0
  9
$AUPREC
 70
     0
  9
$MENU
  1
.
  9
$ELEVATION
 40
0.0
  9
$PELEVATION
 40
0.0
  9
$THICKNESS
 40
0.0
  9
$LIMCHECK
 70
     0
  9
$CHAMFERA
 40
0.0
  9
$CHAMFERB
 40
0.0
  9
$CHAMFERC
 40
0.0
  9
$CHAMFERD
 40
0.0
  9
$SKPOLY
 70
     0
  9
$TDCREATE
 40
2458472.374575880
  9
$TDUCREATE
 40
2458472.082909213
  9
$TDUPDATE
 40
2458472.376339329
  9
$TDUUPDATE
 40
2458472.084672662
  9
$TDINDWG
 40
0.0017674074
  9
$TDUSRTIMER
 40
0.0017673495
  9
$USRTIMER
 70
     1
  9
$ANGBASE
 50
0.0
  9
$ANGDIR
 70
     0
  9
$PDMODE
 70
     0
  9
$PDSIZE
 40
0.0
  9
$PLINEWID
 40
0.0
  9
$SPLFRAME
 70
     0
  9
$SPLINETYPE
 70
     6
  9
$SPLINESEGS
 70
     8
  9
$HANDSEED
  5
284
  9
$SURFTAB1
 70
     6
  9
$SURFTAB2
 70
     6
  9
$SURFTYPE
 70
     6
  9
$SURFU
 70
     6
  9
$SURFV
 70
     6
  9
$UCSBASE
  2

  9
$UCSNAME
  2

  9
$UCSORG
 10
0.0
 20
0.0
 30
0.0
  9
$UCSXDIR
 10
1.0
 20
0.0
 30
0.0
  9
$UCSYDIR
 10
0.0
 20
1.0
 30
0.0
  9
$UCSORTHOREF
  2

  9
$UCSORTHOVIEW
 70
     0
  9
$UCSORGTOP
 10
0.0
 20
0.0
 30
0.0
  9
$UCSORGBOTTOM
 10
0.0
 20
0.0
 30
0.0
  9
$UCSORGLEFT
 10
0.0
 20
0.0
 30
0.0
  9
$UCSORGRIGHT
 10
0.0
 20
0.0
 30
0.0
  9
$UCSORGFRONT
 10
0.0
 20
0.0
 30
0.0
  9
$UCSORGBACK
 10
0.0
 20
0.0
 30
0.0
  9
$PUCSBASE
  2

  9
$PUCSNAME
  2

  9
$PUCSORG
 10
0.0
 20
0.0
 30
0.0
  9
$PUCSXDIR
 10
1.0
 20
0.0
 30
0.0
  9
$PUCSYDIR
 10
0.0
 20
1.0
 30
0.0
  9
$PUCSORTHOREF
  2

  9
$PUCSORTHOVIEW
 70
     0
  9
$PUCSORGTOP
 10
0.0
 20
0.0
 30
0.0
  9
$PUCSORGBOTTOM
 10
0.0
 20
0.0
 30
0.0
  9
$PUCSORGLEFT
 10
0.0
 20
0.0
 30
0.0
  9
$PUCSORGRIGHT
 10
0.0
 20
0.0
 30
0.0
  9
$PUCSORGFRONT
 10
0.0
 20
0.0
 30
0.0
  9
$PUCSORGBACK
 10
0.0
 20
0.0
 30
0.0
  9
$USERI1
 70
     0
  9
$USERI2
 70
     0
  9
$USERI3
 70
     0
  9
$USERI4
 70
     0
  9
$USERI5
 70
     0
  9
$USERR1
 40
0.0
  9
$USERR2
 40
0.0
  9
$USERR3
 40
0.0
  9
$USERR4
 40
0.0
  9
$USERR5
 40
0.0
  9
$WORLDVIEW
 70
     1
  9
$SHADEDGE
 70
     3
  9
$SHADEDIF
 70
    70
  9
$TILEMODE
 70
     1
  9
$MAXACTVP
 70
    64
  9
$PINSBASE
 10
0.0
 20
0.0
 30
0.0
  9
$PLIMCHECK
 70
     0
  9
$PEXTMIN
 10
0.0
 20
0.0
 30
0.0
  9
$PEXTMAX
 10
0.0
 20
0.0
 30
0.0
  9
$PLIMMIN
 10
0.0
 20
0.0
  9
$PLIMMAX
 10
12.0
 20
9.0
  9
$UNITMODE
 70
     0
  9
$VISRETAIN
 70
     1
  9
$PLINEGEN
 70
     0
  9
$PSLTSCALE
 70
     1
  9
$TREEDEPTH
 70
  3020
  9
$CMLSTYLE
  2
Standard
  9
$CMLJUST
 70
     0
  9
$CMLSCALE
 40
1.0
  9
$PROXYGRAPHICS
 70
     1
  9
$MEASUREMENT
 70
     0
  9
$CELWEIGHT
370
    -1
  9
$ENDCAPS
280
     0
  9
$JOINSTYLE
280
     0
  9
$LWDISPLAY
290
     0
  9
$INSUNITS
 70
     1
  9
$HYPERLINKBASE
  1

  9
$STYLESHEET
  1

  9
$XEDIT
290
     1
  9
$CEPSNTYPE
380
     0
  9
$PSTYLEMODE
290
     1
  9
$FINGERPRINTGUID
  2
{A78C235B-3EB2-4FA9-B21B-6A7C51F2822C}
  9
$VERSIONGUID
  2
{E18075CB-B9E1-4661-B5BF-0BB54A262E8A}
  9
$EXTNAMES
290
     1
  9
$PSVPSCALE
 40
0.0
  9
$OLESTARTUP
290
     0
  0
ENDSEC
  0
SECTION
  2
CLASSES
  0
CLASS
  1
ACDBDICTIONARYWDFLT
  2
AcDbDictionaryWithDefault
  3
ObjectDBX Classes
 90
        0
280
     0
281
     0
  0
CLASS
  1
ACDBPLACEHOLDER
  2
AcDbPlaceHolder
  3
ObjectDBX Classes
 90
        0
280
     0
281
     0
  0
CLASS
  1
LAYOUT
  2
AcDbLayout
  3
ObjectDBX Classes
 90
        0
280
     0
281
     0
  0
CLASS
  1
DICTIONARYVAR
  2
AcDbDictionaryVar
  3
ObjectDBX Classes
 90
        0
280
     0
281
     0
  0
CLASS
  1
TABLESTYLE
  2
AcDbTableStyle
  3
ObjectDBX Classes
 90
     4095
280
     0
281
     0
  0
CLASS
  1
MATERIAL
  2
AcDbMaterial
  3
ObjectDBX Classes
 90
     1153
280
     0
281
     0
  0
CLASS
  1
VISUALSTYLE
  2
AcDbVisualStyle
  3
ObjectDBX Classes
 90
     4095
280
     0
281
     0
  0
CLASS
  1
DIMASSOC
  2
AcDbDimAssoc
  3
"AcDbDimAssoc|Product Desc:     AcDim ARX App For Dimension|Company:          Autodesk, Inc.|WEB Address:      www.autodesk.com"
 90
        0
280
     0
281
     0
  0
CLASS
  1
SORTENTSTABLE
  2
AcDbSortentsTable
  3
ObjectDBX Classes
 90
        0
280
     0
281
     0
  0
ENDSEC
  0
SECTION
  2
TABLES
  0
TABLE
  2
VPORT
  5
8
330
0
100
AcDbSymbolTable
 70
     1
  0
VPORT
  5
94
330
8
100
AcDbSymbolTableRecord
100
AcDbViewportTableRecord
  2
*Active
 70
     0
 10
0.0
 20
0.0
 11
1.0
 21
1.0
 12
148.9352339945826
 22
248.4600459805766
 13
0.0
 23
0.0
 14
0.5
 24
0.5
 15
0.5
 25
0.5
 16
0.0
 26
0.0
 36
1.0
 17
0.0
 27
0.0
 37
0.0
 40
414.5891563738744
 41
2.189852700490998
 42
50.0
 43
0.0
 44
0.0
 50
0.0
 51
0.0
 71
     0
 72
  1000
 73
     1
 74
     3
 75
     0
 76
     0
 77
     0
 78
     0
281
     0
 65
     1
110
0.0
120
0.0
130
0.0
111
1.0
121
0.0
131
0.0
112
0.0
122
1.0
132
0.0
 79
     0
146
0.0
  0
ENDTAB
  0
TABLE
  2
LTYPE
  5
5
330
0
100
AcDbSymbolTable
 70
     1
  0
LTYPE
  5
14
330
5
100
AcDbSymbolTableRecord
100
AcDbLinetypeTableRecord
  2
ByBlock
 70
     0
  3

 72
    65
 73
     0
 40
0.0
  0
LTYPE
  5
15
330
5
100
AcDbSymbolTableRecord
100
AcDbLinetypeTableRecord
  2
ByLayer
 70
     0
  3

 72
    65
 73
     0
 40
0.0
  0
LTYPE
  5
16
330
5
100
AcDbSymbolTableRecord
100
AcDbLinetypeTableRecord
  2
Continuous
 70
     0
  3
Solid line
 72
    65
 73
     0
 40
0.0
  0
ENDTAB
  0
TABLE
  2
LAYER
  5
2
102
{ACAD_XDICTIONARY
360
116
102
}
330
0
100
AcDbSymbolTable
 70
     2
  0
LAYER
  5
10
330
2
100
AcDbSymbolTableRecord
100
AcDbLayerTableRecord
  2
0
 70
     0
 62
     7
  6
Continuous
370
    -3
390
F
  0
LAYER
  5
111
330
2
100
AcDbSymbolTableRecord
100
AcDbLayerTableRecord
  2
Defpoints
 70
     0
 62
     7
  6
Continuous
290
     0
370
    -3
390
F
  0
ENDTAB
  0
TABLE
  2
STYLE
  5
3
330
0
100
AcDbSymbolTable
 70
     2
  0
STYLE
  5
11
330
3
100
AcDbSymbolTableRecord
100
AcDbTextStyleTableRecord
  2
Standard
 70
     0
 40
0.0
 41
1.0
 50
0.0
 71
     0
 42
0.2
  3
txt
  4

  0
STYLE
  5
112
330
3
100
AcDbSymbolTableRecord
100
AcDbTextStyleTableRecord
  2
Binh
 70
     0
 40
0.0
 41
1.0
 50
0.0
 71
     0
 42
25.0
  3

  4

1001
ACAD
1000
VNI-Helve-Condense
1071
        2
  0
ENDTAB
  0
TABLE
  2
VIEW
  5
6
330
0
100
AcDbSymbolTable
 70
     0
  0
ENDTAB
  0
TABLE
  2
UCS
  5
7
330
0
100
AcDbSymbolTable
 70
     0
  0
ENDTAB
  0
TABLE
  2
APPID
  5
9
330
0
100
AcDbSymbolTable
 70
     2
  0
APPID
  5
12
330
9
100
AcDbSymbolTableRecord
100
AcDbRegAppTableRecord
  2
ACAD
 70
     0
  0
APPID
  5
115
330
9
100
AcDbSymbolTableRecord
100
AcDbRegAppTableRecord
  2
ACAD_PSEXT
 70
     0
  0
ENDTAB
  0
TABLE
  2
DIMSTYLE
  5
A
330
0
100
AcDbSymbolTable
 70
     3
100
AcDbDimStyleTable
 71
     0
  0
DIMSTYLE
105
27
330
A
100
AcDbSymbolTableRecord
100
AcDbDimStyleTableRecord
  2
Standard
 70
     0
340
11
  0
DIMSTYLE
105
113
330
A
100
AcDbSymbolTableRecord
100
AcDbDimStyleTableRecord
  2
SS
 70
     0
 40
1.5
 41
3.0
 42
2.0
 43
1.0
 44
2.0
 73
     0
 74
     0
 77
     1
140
3.0
147
0.5
176
     1
177
     1
178
     7
340
11
  0
DIMSTYLE
105
114
102
{ACAD_REACTORS
330
184
330
187
330
18A
330
18D
330
190
330
193
330
196
330
20A
330
20D
330
210
330
213
330
216
330
219
330
21C
102
}
330
A
100
AcDbSymbolTableRecord
100
AcDbDimStyleTableRecord
  2
TRIEU
 70
     0
 40
0.5
 41
30.0
 42
0.0
 43
0.0
 44
20.0
 73
     0
 77
     3
 78
     8
140
30.0
141
0.0
146
0.0000052631578947
147
10.0
172
     1
174
     1
176
     8
177
     8
178
     3
271
     0
272
     0
275
     1
279
     2
284
     8
340
112
342
B9
  0
ENDTAB
  0
TABLE
  2
BLOCK_RECORD
  5
1
330
0
100
AcDbSymbolTable
 70
    17
  0
BLOCK_RECORD
  5
1F
330
1
100
AcDbSymbolTableRecord
100
AcDbBlockTableRecord
  2
*Model_Space
340
22
  0
BLOCK_RECORD
  5
58
330
1
100
AcDbSymbolTableRecord
100
AcDbBlockTableRecord
  2
*Paper_Space
340
59
  0
BLOCK_RECORD
  5
5D
330
1
100
AcDbSymbolTableRecord
100
AcDbBlockTableRecord
  2
*Paper_Space0
340
5E
  0
BLOCK_RECORD
  5
B9
330
1
100
AcDbSymbolTableRecord
100
AcDbBlockTableRecord
  2
_Oblique
340
0
102
{BLKREFS
331
C2
331
C3
331
CE
331
CF
331
DA
331
DB
331
E6
331
E7
331
F2
331
F3
331
FE
331
FF
331
10A
331
10B
331
223
331
224
331
22F
331
230
331
23B
331
23C
331
247
331
248
331
253
331
254
331
25F
331
260
331
26B
331
26C
102
}
  0
BLOCK_RECORD
  5
BD
330
1
100
AcDbSymbolTableRecord
100
AcDbBlockTableRecord
  2
*D2
340
0
  0
BLOCK_RECORD
  5
C9
330
1
100
AcDbSymbolTableRecord
100
AcDbBlockTableRecord
  2
*D3
340
0
  0
BLOCK_RECORD
  5
D5
330
1
100
AcDbSymbolTableRecord
100
AcDbBlockTableRecord
  2
*D4
340
0
  0
BLOCK_RECORD
  5
E1
330
1
100
AcDbSymbolTableRecord
100
AcDbBlockTableRecord
  2
*D5
340
0
  0
BLOCK_RECORD
  5
ED
330
1
100
AcDbSymbolTableRecord
100
AcDbBlockTableRecord
  2
*D6
340
0
  0
BLOCK_RECORD
  5
F9
330
1
100
AcDbSymbolTableRecord
100
AcDbBlockTableRecord
  2
*D7
340
0
  0
BLOCK_RECORD
  5
105
330
1
100
AcDbSymbolTableRecord
100
AcDbBlockTableRecord
  2
*D8
340
0
  0
BLOCK_RECORD
  5
21F
330
1
100
AcDbSymbolTableRecord
100
AcDbBlockTableRecord
  2
*D10
340
0
  0
BLOCK_RECORD
  5
22B
330
1
100
AcDbSymbolTableRecord
100
AcDbBlockTableRecord
  2
*D11
340
0
  0
BLOCK_RECORD
  5
237
330
1
100
AcDbSymbolTableRecord
100
AcDbBlockTableRecord
  2
*D12
340
0
  0
BLOCK_RECORD
  5
243
330
1
100
AcDbSymbolTableRecord
100
AcDbBlockTableRecord
  2
*D13
340
0
  0
BLOCK_RECORD
  5
24F
330
1
100
AcDbSymbolTableRecord
100
AcDbBlockTableRecord
  2
*D14
340
0
  0
BLOCK_RECORD
  5
25B
330
1
100
AcDbSymbolTableRecord
100
AcDbBlockTableRecord
  2
*D15
340
0
  0
BLOCK_RECORD
  5
267
330
1
100
AcDbSymbolTableRecord
100
AcDbBlockTableRecord
  2
*D16
340
0
  0
ENDTAB
  0
ENDSEC
  0
SECTION
  2
BLOCKS
  0
BLOCK
  5
20
330
1F
100
AcDbEntity
  8
0
100
AcDbBlockBegin
  2
*Model_Space
 70
     0
 10
0.0
 20
0.0
 30
0.0
  3
*Model_Space
  1

  0
ENDBLK
  5
21
330
1F
100
AcDbEntity
  8
0
100
AcDbBlockEnd
  0
BLOCK
  5
5A
330
58
100
AcDbEntity
 67
     1
  8
0
100
AcDbBlockBegin
  2
*Paper_Space
 70
     0
 10
0.0
 20
0.0
 30
0.0
  3
*Paper_Space
  1

  0
ENDBLK
  5
5B
330
58
100
AcDbEntity
 67
     1
  8
0
100
AcDbBlockEnd
  0
BLOCK
  5
5F
330
5D
100
AcDbEntity
 67
     1
  8
0
100
AcDbBlockBegin
  2
*Paper_Space0
 70
     0
 10
0.0
 20
0.0
 30
0.0
  3
*Paper_Space0
  1

  0
ENDBLK
  5
60
330
5D
100
AcDbEntity
 67
     1
  8
0
100
AcDbBlockEnd
  0
BLOCK
  5
BA
330
B9
100
AcDbEntity
  8
0
100
AcDbBlockBegin
  2
_Oblique
 70
     0
 10
0.0
 20
0.0
 30
0.0
  3
_Oblique
  1

  0
LINE
  5
BB
330
B9
100
AcDbEntity
  8
0
  6
ByBlock
 62
     0
370
    -2
100
AcDbLine
 10
-0.5
 20
-0.5
 30
0.0
 11
0.5
 21
0.5
 31
0.0
  0
ENDBLK
  5
BC
330
B9
100
AcDbEntity
  8
0
100
AcDbBlockEnd
  0
BLOCK
  5
BE
330
BD
100
AcDbEntity
  8
0
370
    40
100
AcDbBlockBegin
  2
*D2
 70
     1
 10
0.0
 20
0.0
 30
0.0
  3
*D2
  1

  0
LINE
  5
BF
330
BD
100
AcDbEntity
  8
0
 62
     8
370
    -2
100
AcDbLine
 10
-748.5887335064883
 20
-1251.089786844051
 30
0.0
 11
-781.1414056416334
 21
-1251.089786844051
 31
0.0
  0
LINE
  5
C0
330
BD
100
AcDbEntity
  8
0
 62
     8
370
    -2
100
AcDbLine
 10
-748.5887335064882
 20
-1307.089786844051
 30
0.0
 11
-781.1414056416334
 21
-1307.089786844051
 31
0.0
  0
LINE
  5
C1
330
BD
100
AcDbEntity
  8
0
 62
     8
370
    -2
100
AcDbLine
 10
-771.1414056416335
 20
-1251.089786844051
 30
0.0
 11
-771.1414056416335
 21
-1307.089786844051
 31
0.0
  0
INSERT
  5
C2
330
BD
100
AcDbEntity
  8
0
 62
     8
370
    -2
100
AcDbBlockReference
  2
_Oblique
 10
-771.1414056416335
 20
-1251.089786844051
 30
0.0
 41
15.0
 42
15.0
 43
15.0
 50
90.0
  0
INSERT
  5
C3
330
BD
100
AcDbEntity
  8
0
 62
     8
370
    -2
100
AcDbBlockReference
  2
_Oblique
 10
-771.1414056416335
 20
-1307.089786844051
 30
0.0
 41
15.0
 42
15.0
 43
15.0
 50
270.0
  0
MTEXT
  5
C4
330
BD
100
AcDbEntity
  8
0
 62
     3
370
    40
100
AcDbMText
 10
-781.8916556416334
 20
-1279.089786844052
 30
0.0
 40
15.0
 41
0.0
 71
     5
 72
     1
  1
\A1;{\H0.7667x;\C256;56}
  7
Binh
 11
0.0000000000000001
 21
1.0
 31
0.0
 73
     1
 44
1.0
1001
ACAD
1000
MTEXTBEGIN
1070
    73
1070
     1
1070
    44
1040
1.0
1070
    74
1070
     0
1000
MTEXTEND
  0
POINT
  5
C5
330
BD
100
AcDbEntity
  8
Defpoints
 62
     0
370
    40
100
AcDbPoint
 10
-748.5887335064883
 20
-1251.089786844051
 30
0.0
  0
POINT
  5
C6
330
BD
100
AcDbEntity
  8
Defpoints
 62
     0
370
    40
100
AcDbPoint
 10
-748.5887335064882
 20
-1307.089786844051
 30
0.0
  0
POINT
  5
C7
330
BD
100
AcDbEntity
  8
Defpoints
 62
     0
370
    40
100
AcDbPoint
 10
-771.1414056416335
 20
-1307.089786844051
 30
0.0
  0
ENDBLK
  5
C8
330
BD
100
AcDbEntity
  8
0
370
    40
100
AcDbBlockEnd
  0
BLOCK
  5
CA
330
C9
100
AcDbEntity
  8
0
370
    40
100
AcDbBlockBegin
  2
*D3
 70
     1
 10
0.0
 20
0.0
 30
0.0
  3
*D3
  1

  0
LINE
  5
CB
330
C9
100
AcDbEntity
  8
0
 62
     8
370
    -2
100
AcDbLine
 10
-704.0887335064883
 20
-1232.089786844051
 30
0.0
 11
-800.3198388745451
 21
-1232.089786844051
 31
0.0
  0
LINE
  5
CC
330
C9
100
AcDbEntity
  8
0
 62
     8
370
    -2
100
AcDbLine
 10
-704.0887335064882
 20
-1326.089786844051
 30
0.0
 11
-800.3198388745451
 21
-1326.089786844051
 31
0.0
  0
LINE
  5
CD
330
C9
100
AcDbEntity
  8
0
 62
     8
370
    -2
100
AcDbLine
 10
-790.3198388745451
 20
-1232.089786844051
 30
0.0
 11
-790.3198388745451
 21
-1326.089786844051
 31
0.0
  0
INSERT
  5
CE
330
C9
100
AcDbEntity
  8
0
 62
     8
370
    -2
100
AcDbBlockReference
  2
_Oblique
 10
-790.3198388745451
 20
-1232.089786844051
 30
0.0
 41
15.0
 42
15.0
 43
15.0
 50
90.0
  0
INSERT
  5
CF
330
C9
100
AcDbEntity
  8
0
 62
     8
370
    -2
100
AcDbBlockReference
  2
_Oblique
 10
-790.3198388745451
 20
-1326.089786844051
 30
0.0
 41
15.0
 42
15.0
 43
15.0
 50
270.0
  0
MTEXT
  5
D0
330
C9
100
AcDbEntity
  8
0
 62
     3
370
    40
100
AcDbMText
 10
-801.070088874545
 20
-1279.089786844052
 30
0.0
 40
15.0
 41
0.0
 71
     5
 72
     1
  1
\A1;{\H0.7667x;\C256;94}
  7
Binh
 11
0.0000000000000001
 21
1.0
 31
0.0
 73
     1
 44
1.0
1001
ACAD
1000
MTEXTBEGIN
1070
    73
1070
     1
1070
    44
1040
1.0
1070
    74
1070
     0
1000
MTEXTEND
  0
POINT
  5
D1
330
C9
100
AcDbEntity
  8
Defpoints
 62
     0
370
    40
100
AcDbPoint
 10
-704.0887335064883
 20
-1232.089786844051
 30
0.0
  0
POINT
  5
D2
330
C9
100
AcDbEntity
  8
Defpoints
 62
     0
370
    40
100
AcDbPoint
 10
-704.0887335064882
 20
-1326.089786844051
 30
0.0
  0
POINT
  5
D3
330
C9
100
AcDbEntity
  8
Defpoints
 62
     0
370
    40
100
AcDbPoint
 10
-790.3198388745451
 20
-1326.089786844051
 30
0.0
  0
ENDBLK
  5
D4
330
C9
100
AcDbEntity
  8
0
370
    40
100
AcDbBlockEnd
  0
BLOCK
  5
D6
330
D5
100
AcDbEntity
  8
0
370
    40
100
AcDbBlockBegin
  2
*D4
 70
     1
 10
0.0
 20
0.0
 30
0.0
  3
*D4
  1

  0
LINE
  5
D7
330
D5
100
AcDbEntity
  8
0
 62
     8
370
    -2
100
AcDbLine
 10
-748.5887335064883
 20
-1251.089786844051
 30
0.0
 11
-748.5887335064883
 21
-1212.266726230092
 31
0.0
  0
LINE
  5
D8
330
D5
100
AcDbEntity
  8
0
 62
     8
370
    -2
100
AcDbLine
 10
-646.5887335064883
 20
-1251.089786844051
 30
0.0
 11
-646.5887335064883
 21
-1212.266726230092
 31
0.0
  0
LINE
  5
D9
330
D5
100
AcDbEntity
  8
0
 62
     8
370
    -2
100
AcDbLine
 10
-748.5887335064883
 20
-1222.266726230092
 30
0.0
 11
-646.5887335064883
 21
-1222.266726230092
 31
0.0
  0
INSERT
  5
DA
330
D5
100
AcDbEntity
  8
0
 62
     8
370
    -2
100
AcDbBlockReference
  2
_Oblique
 10
-748.5887335064883
 20
-1222.266726230092
 30
0.0
 41
15.0
 42
15.0
 43
15.0
 50
180.0
  0
INSERT
  5
DB
330
D5
100
AcDbEntity
  8
0
 62
     8
370
    -2
100
AcDbBlockReference
  2
_Oblique
 10
-646.5887335064883
 20
-1222.266726230092
 30
0.0
 41
15.0
 42
15.0
 43
15.0
  0
MTEXT
  5
DC
330
D5
100
AcDbEntity
  8
0
 62
     3
370
    40
100
AcDbMText
 10
-697.5887335064883
 20
-1211.516476230092
 30
0.0
 40
15.0
 41
0.0
 71
     5
 72
     1
  1
\A1;{\H0.7667x;\C256;102}
  7
Binh
 73
     1
 44
1.0
1001
ACAD
1000
MTEXTBEGIN
1070
    73
1070
     1
1070
    44
1040
1.0
1070
    74
1070
     0
1000
MTEXTEND
  0
POINT
  5
DD
330
D5
100
AcDbEntity
  8
Defpoints
 62
     0
370
    40
100
AcDbPoint
 10
-748.5887335064883
 20
-1251.089786844051
 30
0.0
  0
POINT
  5
DE
330
D5
100
AcDbEntity
  8
Defpoints
 62
     0
370
    40
100
AcDbPoint
 10
-646.5887335064883
 20
-1251.089786844051
 30
0.0
  0
POINT
  5
DF
330
D5
100
AcDbEntity
  8
Defpoints
 62
     0
370
    40
100
AcDbPoint
 10
-646.5887335064883
 20
-1222.266726230092
 30
0.0
  0
ENDBLK
  5
E0
330
D5
100
AcDbEntity
  8
0
370
    40
100
AcDbBlockEnd
  0
BLOCK
  5
E2
330
E1
100
AcDbEntity
  8
0
370
    40
100
AcDbBlockBegin
  2
*D5
 70
     1
 10
0.0
 20
0.0
 30
0.0
  3
*D5
  1

  0
LINE
  5
E3
330
E1
100
AcDbEntity
  8
0
 62
     8
370
    -2
100
AcDbLine
 10
-700.0887335064882
 20
-1341.56359018834
 30
0.0
 11
-731.3556022366967
 21
-1341.56359018834
 31
0.0
  0
LINE
  5
E4
330
E1
100
AcDbEntity
  8
0
 62
     8
370
    -2
100
AcDbLine
 10
-700.0887335064882
 20
-1511.563590188341
 30
0.0
 11
-731.3556022366967
 21
-1511.563590188341
 31
0.0
  0
LINE
  5
E5
330
E1
100
AcDbEntity
  8
0
 62
     8
370
    -2
100
AcDbLine
 10
-721.3556022366966
 20
-1341.56359018834
 30
0.0
 11
-721.3556022366966
 21
-1511.563590188341
 31
0.0
  0
INSERT
  5
E6
330
E1
100
AcDbEntity
  8
0
 62
     8
370
    -2
100
AcDbBlockReference
  2
_Oblique
 10
-721.3556022366966
 20
-1341.56359018834
 30
0.0
 41
15.0
 42
15.0
 43
15.0
 50
90.0
  0
INSERT
  5
E7
330
E1
100
AcDbEntity
  8
0
 62
     8
370
    -2
100
AcDbBlockReference
  2
_Oblique
 10
-721.3556022366966
 20
-1511.563590188341
 30
0.0
 41
15.0
 42
15.0
 43
15.0
 50
270.0
  0
MTEXT
  5
E8
330
E1
100
AcDbEntity
  8
0
 62
     3
370
    40
100
AcDbMText
 10
-732.1058522366966
 20
-1426.563590188341
 30
0.0
 40
15.0
 41
0.0
 71
     5
 72
     1
  1
\A1;{\H0.7667x;\C256;170}
  7
Binh
 11
0.0000000000000001
 21
1.0
 31
0.0
 73
     1
 44
1.0
1001
ACAD
1000
MTEXTBEGIN
1070
    73
1070
     1
1070
    44
1040
1.0
1070
    74
1070
     0
1000
MTEXTEND
  0
POINT
  5
E9
330
E1
100
AcDbEntity
  8
Defpoints
 62
     0
370
    40
100
AcDbPoint
 10
-700.0887335064882
 20
-1341.56359018834
 30
0.0
  0
POINT
  5
EA
330
E1
100
AcDbEntity
  8
Defpoints
 62
     0
370
    40
100
AcDbPoint
 10
-700.0887335064882
 20
-1511.563590188341
 30
0.0
  0
POINT
  5
EB
330
E1
100
AcDbEntity
  8
Defpoints
 62
     0
370
    40
100
AcDbPoint
 10
-721.3556022366966
 20
-1511.563590188341
 30
0.0
  0
ENDBLK
  5
EC
330
E1
100
AcDbEntity
  8
0
370
    40
100
AcDbBlockEnd
  0
BLOCK
  5
EE
330
ED
100
AcDbEntity
  8
0
370
    40
100
AcDbBlockBegin
  2
*D6
 70
     1
 10
0.0
 20
0.0
 30
0.0
  3
*D6
  1

  0
LINE
  5
EF
330
ED
100
AcDbEntity
  8
0
 62
     8
370
    -2
100
AcDbLine
 10
-748.5887335064882
 20
-1511.563590188341
 30
0.0
 11
-781.3725590651421
 21
-1511.563590188341
 31
0.0
  0
LINE
  5
F0
330
ED
100
AcDbEntity
  8
0
 62
     8
370
    -2
100
AcDbLine
 10
-748.5887335064882
 20
-1566.563590188341
 30
0.0
 11
-781.3725590651421
 21
-1566.563590188341
 31
0.0
  0
LINE
  5
F1
330
ED
100
AcDbEntity
  8
0
 62
     8
370
    -2
100
AcDbLine
 10
-771.3725590651421
 20
-1511.563590188341
 30
0.0
 11
-771.3725590651421
 21
-1566.563590188341
 31
0.0
  0
INSERT
  5
F2
330
ED
100
AcDbEntity
  8
0
 62
     8
370
    -2
100
AcDbBlockReference
  2
_Oblique
 10
-771.3725590651421
 20
-1511.563590188341
 30
0.0
 41
15.0
 42
15.0
 43
15.0
 50
90.0
  0
INSERT
  5
F3
330
ED
100
AcDbEntity
  8
0
 62
     8
370
    -2
100
AcDbBlockReference
  2
_Oblique
 10
-771.3725590651421
 20
-1566.563590188341
 30
0.0
 41
15.0
 42
15.0
 43
15.0
 50
270.0
  0
MTEXT
  5
F4
330
ED
100
AcDbEntity
  8
0
 62
     3
370
    40
100
AcDbMText
 10
-782.1228090651421
 20
-1539.063590188341
 30
0.0
 40
15.0
 41
0.0
 71
     5
 72
     1
  1
\A1;{\H0.7667x;\C256;55}
  7
Binh
 11
0.0000000000000001
 21
1.0
 31
0.0
 73
     1
 44
1.0
1001
ACAD
1000
MTEXTBEGIN
1070
    73
1070
     1
1070
    44
1040
1.0
1070
    74
1070
     0
1000
MTEXTEND
  0
POINT
  5
F5
330
ED
100
AcDbEntity
  8
Defpoints
 62
     0
370
    40
100
AcDbPoint
 10
-748.5887335064882
 20
-1511.563590188341
 30
0.0
  0
POINT
  5
F6
330
ED
100
AcDbEntity
  8
Defpoints
 62
     0
370
    40
100
AcDbPoint
 10
-748.5887335064882
 20
-1566.563590188341
 30
0.0
  0
POINT
  5
F7
330
ED
100
AcDbEntity
  8
Defpoints
 62
     0
370
    40
100
AcDbPoint
 10
-771.3725590651421
 20
-1566.563590188341
 30
0.0
  0
ENDBLK
  5
F8
330
ED
100
AcDbEntity
  8
0
370
    40
100
AcDbBlockEnd
  0
BLOCK
  5
FA
330
F9
100
AcDbEntity
  8
0
370
    40
100
AcDbBlockBegin
  2
*D7
 70
     1
 10
0.0
 20
0.0
 30
0.0
  3
*D7
  1

  0
LINE
  5
FB
330
F9
100
AcDbEntity
  8
0
 62
     8
370
    -2
100
AcDbLine
 10
-748.5887335064883
 20
-1566.563590188341
 30
0.0
 11
-748.5887335064883
 21
-1603.695636472501
 31
0.0
  0
LINE
  5
FC
330
F9
100
AcDbEntity
  8
0
 62
     8
370
    -2
100
AcDbLine
 10
-646.5887335064883
 20
-1566.563590188341
 30
0.0
 11
-646.5887335064883
 21
-1603.695636472501
 31
0.0
  0
LINE
  5
FD
330
F9
100
AcDbEntity
  8
0
 62
     8
370
    -2
100
AcDbLine
 10
-748.5887335064883
 20
-1593.695636472501
 30
0.0
 11
-646.5887335064883
 21
-1593.695636472501
 31
0.0
  0
INSERT
  5
FE
330
F9
100
AcDbEntity
  8
0
 62
     8
370
    -2
100
AcDbBlockReference
  2
_Oblique
 10
-748.5887335064883
 20
-1593.695636472501
 30
0.0
 41
15.0
 42
15.0
 43
15.0
 50
180.0
  0
INSERT
  5
FF
330
F9
100
AcDbEntity
  8
0
 62
     8
370
    -2
100
AcDbBlockReference
  2
_Oblique
 10
-646.5887335064883
 20
-1593.695636472501
 30
0.0
 41
15.0
 42
15.0
 43
15.0
  0
MTEXT
  5
100
330
F9
100
AcDbEntity
  8
0
 62
     3
370
    40
100
AcDbMText
 10
-697.5887335064883
 20
-1582.945386472501
 30
0.0
 40
15.0
 41
0.0
 71
     5
 72
     1
  1
\A1;{\H0.7667x;\C256;102}
  7
Binh
 73
     1
 44
1.0
1001
ACAD
1000
MTEXTBEGIN
1070
    73
1070
     1
1070
    44
1040
1.0
1070
    74
1070
     0
1000
MTEXTEND
  0
POINT
  5
101
330
F9
100
AcDbEntity
  8
Defpoints
 62
     0
370
    40
100
AcDbPoint
 10
-748.5887335064883
 20
-1566.563590188341
 30
0.0
  0
POINT
  5
102
330
F9
100
AcDbEntity
  8
Defpoints
 62
     0
370
    40
100
AcDbPoint
 10
-646.5887335064883
 20
-1566.563590188341
 30
0.0
  0
POINT
  5
103
330
F9
100
AcDbEntity
  8
Defpoints
 62
     0
370
    40
100
AcDbPoint
 10
-646.5887335064883
 20
-1593.695636472501
 30
0.0
  0
ENDBLK
  5
104
330
F9
100
AcDbEntity
  8
0
370
    40
100
AcDbBlockEnd
  0
BLOCK
  5
106
330
105
100
AcDbEntity
  8
0
370
    40
100
AcDbBlockBegin
  2
*D8
 70
     1
 10
0.0
 20
0.0
 30
0.0
  3
*D8
  1

  0
LINE
  5
107
330
105
100
AcDbEntity
  8
0
 62
     8
370
    -2
100
AcDbLine
 10
-623.4817818062583
 20
-1566.563590188341
 30
0.0
 11
-623.4817818062583
 21
-1603.695636472501
 31
0.0
  0
LINE
  5
108
330
105
100
AcDbEntity
  8
0
 62
     8
370
    -2
100
AcDbLine
 10
-568.4817818062583
 20
-1566.563590188341
 30
0.0
 11
-568.4817818062583
 21
-1603.695636472501
 31
0.0
  0
LINE
  5
109
330
105
100
AcDbEntity
  8
0
 62
     8
370
    -2
100
AcDbLine
 10
-623.4817818062583
 20
-1593.695636472501
 30
0.0
 11
-568.4817818062583
 21
-1593.695636472501
 31
0.0
  0
INSERT
  5
10A
330
105
100
AcDbEntity
  8
0
 62
     8
370
    -2
100
AcDbBlockReference
  2
_Oblique
 10
-623.4817818062583
 20
-1593.695636472501
 30
0.0
 41
15.0
 42
15.0
 43
15.0
 50
180.0
  0
INSERT
  5
10B
330
105
100
AcDbEntity
  8
0
 62
     8
370
    -2
100
AcDbBlockReference
  2
_Oblique
 10
-568.4817818062583
 20
-1593.695636472501
 30
0.0
 41
15.0
 42
15.0
 43
15.0
  0
MTEXT
  5
10C
330
105
100
AcDbEntity
  8
0
 62
     3
370
    40
100
AcDbMText
 10
-595.9817818062584
 20
-1582.945386472501
 30
0.0
 40
15.0
 41
0.0
 71
     5
 72
     1
  1
\A1;{\H0.7667x;\C256;55}
  7
Binh
 73
     1
 44
1.0
1001
ACAD
1000
MTEXTBEGIN
1070
    73
1070
     1
1070
    44
1040
1.0
1070
    74
1070
     0
1000
MTEXTEND
  0
POINT
  5
10D
330
105
100
AcDbEntity
  8
Defpoints
 62
     0
370
    40
100
AcDbPoint
 10
-623.4817818062583
 20
-1566.563590188341
 30
0.0
  0
POINT
  5
10E
330
105
100
AcDbEntity
  8
Defpoints
 62
     0
370
    40
100
AcDbPoint
 10
-568.4817818062583
 20
-1566.563590188341
 30
0.0
  0
POINT
  5
10F
330
105
100
AcDbEntity
  8
Defpoints
 62
     0
370
    40
100
AcDbPoint
 10
-568.4817818062583
 20
-1593.695636472501
 30
0.0
  0
ENDBLK
  5
110
330
105
100
AcDbEntity
  8
0
370
    40
100
AcDbBlockEnd
  0
BLOCK
  5
229
330
21F
100
AcDbEntity
  8
0
100
AcDbBlockBegin
  2
*D10
 70
     1
 10
0.0
 20
0.0
 30
0.0
  3
*D10
  1

  0
LINE
  5
220
330
21F
100
AcDbEntity
  8
0
 62
     8
370
    -2
100
AcDbLine
 10
99.31455950907809
 20
372.2845913127933
 30
0.0
 11
66.76188737393295
 21
372.2845913127933
 31
0.0
  0
LINE
  5
221
330
21F
100
AcDbEntity
  8
0
 62
     8
370
    -2
100
AcDbLine
 10
99.31455950907809
 20
316.2845913127933
 30
0.0
 11
66.76188737393293
 21
316.2845913127933
 31
0.0
  0
LINE
  5
222
330
21F
100
AcDbEntity
  8
0
 62
     8
370
    -2
100
AcDbLine
 10
76.76188737393295
 20
372.2845913127933
 30
0.0
 11
76.76188737393293
 21
316.2845913127933
 31
0.0
  0
INSERT
  5
223
330
21F
100
AcDbEntity
  8
0
 62
     8
370
    -2
100
AcDbBlockReference
  2
_Oblique
 10
76.76188737393295
 20
372.2845913127933
 30
0.0
 41
15.0
 42
15.0
 43
15.0
 50
90.0
  0
INSERT
  5
224
330
21F
100
AcDbEntity
  8
0
 62
     8
370
    -2
100
AcDbBlockReference
  2
_Oblique
 10
76.76188737393293
 20
316.2845913127933
 30
0.0
 41
15.0
 42
15.0
 43
15.0
 50
270.0
  0
MTEXT
  5
225
330
21F
100
AcDbEntity
  8
0
 62
     3
370
    40
100
AcDbMText
 10
66.01163737393289
 20
344.2845913127933
 30
0.0
 40
15.0
 41
0.0
 71
     5
 72
     1
  1
\A1;{\H0.7667x;\C256;56}
  7
Binh
 11
0.0000000000000001
 21
1.0
 31
0.0
 73
     1
 44
1.0
1001
ACAD
1000
MTEXTBEGIN
1070
    73
1070
     1
1070
    44
1040
1.0
1070
    74
1070
     0
1000
MTEXTEND
  0
POINT
  5
226
330
21F
100
AcDbEntity
  8
Defpoints
 62
     0
100
AcDbPoint
 10
99.31455950907809
 20
372.2845913127933
 30
0.0
  0
POINT
  5
227
330
21F
100
AcDbEntity
  8
Defpoints
 62
     0
100
AcDbPoint
 10
99.31455950907809
 20
316.2845913127933
 30
0.0
  0
POINT
  5
228
330
21F
100
AcDbEntity
  8
Defpoints
 62
     0
100
AcDbPoint
 10
76.76188737393293
 20
316.2845913127933
 30
0.0
  0
ENDBLK
  5
22A
330
21F
100
AcDbEntity
  8
0
100
AcDbBlockEnd
  0
BLOCK
  5
235
330
22B
100
AcDbEntity
  8
0
100
AcDbBlockBegin
  2
*D11
 70
     1
 10
0.0
 20
0.0
 30
0.0
  3
*D11
  1

  0
LINE
  5
22C
330
22B
100
AcDbEntity
  8
0
 62
     8
370
    -2
100
AcDbLine
 10
143.814559509078
 20
391.2845913127932
 30
0.0
 11
47.58345414102133
 21
391.2845913127933
 31
0.0
  0
LINE
  5
22D
330
22B
100
AcDbEntity
  8
0
 62
     8
370
    -2
100
AcDbLine
 10
143.8145595090781
 20
297.2845913127932
 30
0.0
 11
47.58345414102131
 21
297.2845913127933
 31
0.0
  0
LINE
  5
22E
330
22B
100
AcDbEntity
  8
0
 62
     8
370
    -2
100
AcDbLine
 10
57.58345414102133
 20
391.2845913127933
 30
0.0
 11
57.5834541410213
 21
297.2845913127933
 31
0.0
  0
INSERT
  5
22F
330
22B
100
AcDbEntity
  8
0
 62
     8
370
    -2
100
AcDbBlockReference
  2
_Oblique
 10
57.58345414102133
 20
391.2845913127933
 30
0.0
 41
15.0
 42
15.0
 43
15.0
 50
90.0
  0
INSERT
  5
230
330
22B
100
AcDbEntity
  8
0
 62
     8
370
    -2
100
AcDbBlockReference
  2
_Oblique
 10
57.5834541410213
 20
297.2845913127933
 30
0.0
 41
15.0
 42
15.0
 43
15.0
 50
270.0
  0
MTEXT
  5
231
330
22B
100
AcDbEntity
  8
0
 62
     3
370
    40
100
AcDbMText
 10
46.83320414102127
 20
344.2845913127933
 30
0.0
 40
15.0
 41
0.0
 71
     5
 72
     1
  1
\A1;{\H0.7667x;\C256;94}
  7
Binh
 11
0.0000000000000001
 21
1.0
 31
0.0
 73
     1
 44
1.0
1001
ACAD
1000
MTEXTBEGIN
1070
    73
1070
     1
1070
    44
1040
1.0
1070
    74
1070
     0
1000
MTEXTEND
  0
POINT
  5
232
330
22B
100
AcDbEntity
  8
Defpoints
 62
     0
100
AcDbPoint
 10
143.814559509078
 20
391.2845913127932
 30
0.0
  0
POINT
  5
233
330
22B
100
AcDbEntity
  8
Defpoints
 62
     0
100
AcDbPoint
 10
143.8145595090781
 20
297.2845913127932
 30
0.0
  0
POINT
  5
234
330
22B
100
AcDbEntity
  8
Defpoints
 62
     0
100
AcDbPoint
 10
57.5834541410213
 20
297.2845913127933
 30
0.0
  0
ENDBLK
  5
236
330
22B
100
AcDbEntity
  8
0
100
AcDbBlockEnd
  0
BLOCK
  5
241
330
237
100
AcDbEntity
  8
0
100
AcDbBlockBegin
  2
*D12
 70
     1
 10
0.0
 20
0.0
 30
0.0
  3
*D12
  1

  0
LINE
  5
238
330
237
100
AcDbEntity
  8
0
 62
     8
370
    -2
100
AcDbLine
 10
99.3145595090781
 20
372.2845913127933
 30
0.0
 11
99.3145595090781
 21
411.1076519267528
 31
0.0
  0
LINE
  5
239
330
237
100
AcDbEntity
  8
0
 62
     8
370
    -2
100
AcDbLine
 10
201.3145595090781
 20
372.2845913127933
 30
0.0
 11
201.3145595090781
 21
411.1076519267528
 31
0.0
  0
LINE
  5
23A
330
237
100
AcDbEntity
  8
0
 62
     8
370
    -2
100
AcDbLine
 10
99.3145595090781
 20
401.1076519267528
 30
0.0
 11
201.3145595090781
 21
401.1076519267528
 31
0.0
  0
INSERT
  5
23B
330
237
100
AcDbEntity
  8
0
 62
     8
370
    -2
100
AcDbBlockReference
  2
_Oblique
 10
99.3145595090781
 20
401.1076519267528
 30
0.0
 41
15.0
 42
15.0
 43
15.0
 50
180.0
  0
INSERT
  5
23C
330
237
100
AcDbEntity
  8
0
 62
     8
370
    -2
100
AcDbBlockReference
  2
_Oblique
 10
201.3145595090781
 20
401.1076519267528
 30
0.0
 41
15.0
 42
15.0
 43
15.0
  0
MTEXT
  5
23D
330
237
100
AcDbEntity
  8
0
 62
     3
370
    40
100
AcDbMText
 10
150.3145595090781
 20
411.8579019267528
 30
0.0
 40
15.0
 41
0.0
 71
     5
 72
     1
  1
\A1;{\H0.7667x;\C256;102}
  7
Binh
 73
     1
 44
1.0
1001
ACAD
1000
MTEXTBEGIN
1070
    73
1070
     1
1070
    44
1040
1.0
1070
    74
1070
     0
1000
MTEXTEND
  0
POINT
  5
23E
330
237
100
AcDbEntity
  8
Defpoints
 62
     0
100
AcDbPoint
 10
99.3145595090781
 20
372.2845913127933
 30
0.0
  0
POINT
  5
23F
330
237
100
AcDbEntity
  8
Defpoints
 62
     0
100
AcDbPoint
 10
201.3145595090781
 20
372.2845913127933
 30
0.0
  0
POINT
  5
240
330
237
100
AcDbEntity
  8
Defpoints
 62
     0
100
AcDbPoint
 10
201.3145595090781
 20
401.1076519267528
 30
0.0
  0
ENDBLK
  5
242
330
237
100
AcDbEntity
  8
0
100
AcDbBlockEnd
  0
BLOCK
  5
24D
330
243
100
AcDbEntity
  8
0
100
AcDbBlockBegin
  2
*D13
 70
     1
 10
0.0
 20
0.0
 30
0.0
  3
*D13
  1

  0
LINE
  5
244
330
243
100
AcDbEntity
  8
0
 62
     8
370
    -2
100
AcDbLine
 10
147.8145595090781
 20
281.8107879685042
 30
0.0
 11
116.5476907788698
 21
281.8107879685042
 31
0.0
  0
LINE
  5
245
330
243
100
AcDbEntity
  8
0
 62
     8
370
    -2
100
AcDbLine
 10
147.8145595090781
 20
111.8107879685042
 30
0.0
 11
116.5476907788697
 21
111.8107879685042
 31
0.0
  0
LINE
  5
246
330
243
100
AcDbEntity
  8
0
 62
     8
370
    -2
100
AcDbLine
 10
126.5476907788698
 20
281.8107879685042
 30
0.0
 11
126.5476907788697
 21
111.8107879685042
 31
0.0
  0
INSERT
  5
247
330
243
100
AcDbEntity
  8
0
 62
     8
370
    -2
100
AcDbBlockReference
  2
_Oblique
 10
126.5476907788698
 20
281.8107879685042
 30
0.0
 41
15.0
 42
15.0
 43
15.0
 50
90.0
  0
INSERT
  5
248
330
243
100
AcDbEntity
  8
0
 62
     8
370
    -2
100
AcDbBlockReference
  2
_Oblique
 10
126.5476907788697
 20
111.8107879685042
 30
0.0
 41
15.0
 42
15.0
 43
15.0
 50
270.0
  0
MTEXT
  5
249
330
243
100
AcDbEntity
  8
0
 62
     3
370
    40
100
AcDbMText
 10
115.7974407788697
 20
196.8107879685042
 30
0.0
 40
15.0
 41
0.0
 71
     5
 72
     1
  1
\A1;{\H0.7667x;\C256;170}
  7
Binh
 11
0.0000000000000001
 21
1.0
 31
0.0
 73
     1
 44
1.0
1001
ACAD
1000
MTEXTBEGIN
1070
    73
1070
     1
1070
    44
1040
1.0
1070
    74
1070
     0
1000
MTEXTEND
  0
POINT
  5
24A
330
243
100
AcDbEntity
  8
Defpoints
 62
     0
100
AcDbPoint
 10
147.8145595090781
 20
281.8107879685042
 30
0.0
  0
POINT
  5
24B
330
243
100
AcDbEntity
  8
Defpoints
 62
     0
100
AcDbPoint
 10
147.8145595090781
 20
111.8107879685042
 30
0.0
  0
POINT
  5
24C
330
243
100
AcDbEntity
  8
Defpoints
 62
     0
100
AcDbPoint
 10
126.5476907788697
 20
111.8107879685042
 30
0.0
  0
ENDBLK
  5
24E
330
243
100
AcDbEntity
  8
0
100
AcDbBlockEnd
  0
BLOCK
  5
259
330
24F
100
AcDbEntity
  8
0
100
AcDbBlockBegin
  2
*D14
 70
     1
 10
0.0
 20
0.0
 30
0.0
  3
*D14
  1

  0
LINE
  5
250
330
24F
100
AcDbEntity
  8
0
 62
     8
370
    -2
100
AcDbLine
 10
99.31455950907809
 20
111.8107879685042
 30
0.0
 11
66.53073395042429
 21
111.8107879685042
 31
0.0
  0
LINE
  5
251
330
24F
100
AcDbEntity
  8
0
 62
     8
370
    -2
100
AcDbLine
 10
99.3145595090781
 20
56.81078796850419
 30
0.0
 11
66.53073395042429
 21
56.8107879685042
 31
0.0
  0
LINE
  5
252
330
24F
100
AcDbEntity
  8
0
 62
     8
370
    -2
100
AcDbLine
 10
76.53073395042429
 20
111.8107879685042
 30
0.0
 11
76.53073395042429
 21
56.8107879685042
 31
0.0
  0
INSERT
  5
253
330
24F
100
AcDbEntity
  8
0
 62
     8
370
    -2
100
AcDbBlockReference
  2
_Oblique
 10
76.53073395042429
 20
111.8107879685042
 30
0.0
 41
15.0
 42
15.0
 43
15.0
 50
90.0
  0
INSERT
  5
254
330
24F
100
AcDbEntity
  8
0
 62
     8
370
    -2
100
AcDbBlockReference
  2
_Oblique
 10
76.53073395042429
 20
56.8107879685042
 30
0.0
 41
15.0
 42
15.0
 43
15.0
 50
270.0
  0
MTEXT
  5
255
330
24F
100
AcDbEntity
  8
0
 62
     3
370
    40
100
AcDbMText
 10
65.78048395042427
 20
84.31078796850421
 30
0.0
 40
15.0
 41
0.0
 71
     5
 72
     1
  1
\A1;{\H0.7667x;\C256;55}
  7
Binh
 11
0.0000000000000001
 21
1.0
 31
0.0
 73
     1
 44
1.0
1001
ACAD
1000
MTEXTBEGIN
1070
    73
1070
     1
1070
    44
1040
1.0
1070
    74
1070
     0
1000
MTEXTEND
  0
POINT
  5
256
330
24F
100
AcDbEntity
  8
Defpoints
 62
     0
100
AcDbPoint
 10
99.31455950907809
 20
111.8107879685042
 30
0.0
  0
POINT
  5
257
330
24F
100
AcDbEntity
  8
Defpoints
 62
     0
100
AcDbPoint
 10
99.3145595090781
 20
56.81078796850419
 30
0.0
  0
POINT
  5
258
330
24F
100
AcDbEntity
  8
Defpoints
 62
     0
100
AcDbPoint
 10
76.53073395042429
 20
56.8107879685042
 30
0.0
  0
ENDBLK
  5
25A
330
24F
100
AcDbEntity
  8
0
100
AcDbBlockEnd
  0
BLOCK
  5
265
330
25B
100
AcDbEntity
  8
0
100
AcDbBlockBegin
  2
*D15
 70
     1
 10
0.0
 20
0.0
 30
0.0
  3
*D15
  1

  0
LINE
  5
25C
330
25B
100
AcDbEntity
  8
0
 62
     8
370
    -2
100
AcDbLine
 10
99.3145595090781
 20
56.8107879685042
 30
0.0
 11
99.3145595090781
 21
19.67874168434377
 31
0.0
  0
LINE
  5
25D
330
25B
100
AcDbEntity
  8
0
 62
     8
370
    -2
100
AcDbLine
 10
201.3145595090781
 20
56.8107879685042
 30
0.0
 11
201.3145595090781
 21
19.67874168434377
 31
0.0
  0
LINE
  5
25E
330
25B
100
AcDbEntity
  8
0
 62
     8
370
    -2
100
AcDbLine
 10
99.3145595090781
 20
29.67874168434378
 30
0.0
 11
201.3145595090781
 21
29.67874168434378
 31
0.0
  0
INSERT
  5
25F
330
25B
100
AcDbEntity
  8
0
 62
     8
370
    -2
100
AcDbBlockReference
  2
_Oblique
 10
99.3145595090781
 20
29.67874168434378
 30
0.0
 41
15.0
 42
15.0
 43
15.0
 50
180.0
  0
INSERT
  5
260
330
25B
100
AcDbEntity
  8
0
 62
     8
370
    -2
100
AcDbBlockReference
  2
_Oblique
 10
201.3145595090781
 20
29.67874168434378
 30
0.0
 41
15.0
 42
15.0
 43
15.0
  0
MTEXT
  5
261
330
25B
100
AcDbEntity
  8
0
 62
     3
370
    40
100
AcDbMText
 10
150.3145595090781
 20
40.42899168434378
 30
0.0
 40
15.0
 41
0.0
 71
     5
 72
     1
  1
\A1;{\H0.7667x;\C256;102}
  7
Binh
 73
     1
 44
1.0
1001
ACAD
1000
MTEXTBEGIN
1070
    73
1070
     1
1070
    44
1040
1.0
1070
    74
1070
     0
1000
MTEXTEND
  0
POINT
  5
262
330
25B
100
AcDbEntity
  8
Defpoints
 62
     0
100
AcDbPoint
 10
99.3145595090781
 20
56.8107879685042
 30
0.0
  0
POINT
  5
263
330
25B
100
AcDbEntity
  8
Defpoints
 62
     0
100
AcDbPoint
 10
201.3145595090781
 20
56.8107879685042
 30
0.0
  0
POINT
  5
264
330
25B
100
AcDbEntity
  8
Defpoints
 62
     0
100
AcDbPoint
 10
201.3145595090781
 20
29.67874168434378
 30
0.0
  0
ENDBLK
  5
266
330
25B
100
AcDbEntity
  8
0
100
AcDbBlockEnd
  0
BLOCK
  5
271
330
267
100
AcDbEntity
  8
0
100
AcDbBlockBegin
  2
*D16
 70
     1
 10
0.0
 20
0.0
 30
0.0
  3
*D16
  1

  0
LINE
  5
268
330
267
100
AcDbEntity
  8
0
 62
     8
370
    -2
100
AcDbLine
 10
224.4215112093081
 20
56.8107879685042
 30
0.0
 11
224.4215112093081
 21
19.67874168434377
 31
0.0
  0
LINE
  5
269
330
267
100
AcDbEntity
  8
0
 62
     8
370
    -2
100
AcDbLine
 10
279.421511209308
 20
56.8107879685042
 30
0.0
 11
279.421511209308
 21
19.67874168434377
 31
0.0
  0
LINE
  5
26A
330
267
100
AcDbEntity
  8
0
 62
     8
370
    -2
100
AcDbLine
 10
224.4215112093081
 20
29.67874168434378
 30
0.0
 11
279.421511209308
 21
29.67874168434378
 31
0.0
  0
INSERT
  5
26B
330
267
100
AcDbEntity
  8
0
 62
     8
370
    -2
100
AcDbBlockReference
  2
_Oblique
 10
224.4215112093081
 20
29.67874168434378
 30
0.0
 41
15.0
 42
15.0
 43
15.0
 50
180.0
  0
INSERT
  5
26C
330
267
100
AcDbEntity
  8
0
 62
     8
370
    -2
100
AcDbBlockReference
  2
_Oblique
 10
279.421511209308
 20
29.67874168434378
 30
0.0
 41
15.0
 42
15.0
 43
15.0
  0
MTEXT
  5
26D
330
267
100
AcDbEntity
  8
0
 62
     3
370
    40
100
AcDbMText
 10
251.9215112093081
 20
40.42899168434378
 30
0.0
 40
15.0
 41
0.0
 71
     5
 72
     1
  1
\A1;{\H0.7667x;\C256;55}
  7
Binh
 73
     1
 44
1.0
1001
ACAD
1000
MTEXTBEGIN
1070
    73
1070
     1
1070
    44
1040
1.0
1070
    74
1070
     0
1000
MTEXTEND
  0
POINT
  5
26E
330
267
100
AcDbEntity
  8
Defpoints
 62
     0
100
AcDbPoint
 10
224.4215112093081
 20
56.8107879685042
 30
0.0
  0
POINT
  5
26F
330
267
100
AcDbEntity
  8
Defpoints
 62
     0
100
AcDbPoint
 10
279.421511209308
 20
56.8107879685042
 30
0.0
  0
POINT
  5
270
330
267
100
AcDbEntity
  8
Defpoints
 62
     0
100
AcDbPoint
 10
279.421511209308
 20
29.67874168434378
 30
0.0
  0
ENDBLK
  5
272
330
267
100
AcDbEntity
  8
0
100
AcDbBlockEnd
  0
ENDSEC
  0
SECTION
  2
ENTITIES
  0
LWPOLYLINE
  5
19F
102
{ACAD_REACTORS
330
20C
330
212
102
}
330
1F
100
AcDbEntity
  8
0
100
AcDbPolyline
 90
        4
 70
     1
 43
0.0
 10
99.3145595090781
 20
372.2845913127933
 10
201.3145595090781
 20
372.2845913127933
 10
201.3145595090781
 20
316.2845913127933
 10
99.3145595090781
 20
316.2845913127933
  0
LWPOLYLINE
  5
1A0
330
1F
100
AcDbEntity
  8
0
100
AcDbPolyline
 90
        2
 70
     0
 43
0.0
 10
84.31455950907809
 20
333.7845913127933
 10
84.31455950907809
 20
354.7845913127933
  0
LWPOLYLINE
  5
1A1
330
1F
100
AcDbEntity
  8
0
100
AcDbPolyline
 90
        2
 70
     0
 43
0.0
 10
88.31455950907809
 20
336.4927231585009
 10
88.31455950907809
 20
352.0764594670857
  0
LWPOLYLINE
  5
1A2
330
1F
100
AcDbEntity
  8
0
100
AcDbPolyline
 90
        2
 70
     0
 43
0.0
 10
99.3145595090781
 20
354.7845913127933
 10
99.3145595090781
 20
333.7845913127933
  0
LINE
  5
1A3
330
1F
100
AcDbEntity
  8
0
100
AcDbLine
 10
99.3145595090781
 20
327.7845913127933
 30
0.0
 11
99.3145595090781
 21
360.7845913127933
 31
0.0
  0
LINE
  5
1A4
330
1F
100
AcDbEntity
  8
0
100
AcDbLine
 10
95.3145595090781
 20
333.692723158501
 30
0.0
 11
95.3145595090781
 21
354.8764594670856
 31
0.0
  0
LINE
  5
1A5
330
1F
100
AcDbEntity
  8
0
100
AcDbLine
 10
99.3145595090781
 20
360.7845913127933
 30
0.0
 11
84.31455950907809
 21
354.7845913127933
 31
0.0
  0
LINE
  5
1A6
330
1F
100
AcDbEntity
  8
0
100
AcDbLine
 10
95.3145595090781
 20
354.8764594670856
 30
0.0
 11
88.31455950907809
 21
352.0764594670857
 31
0.0
  0
LINE
  5
1A7
330
1F
100
AcDbEntity
  8
0
100
AcDbLine
 10
84.31455950907809
 20
333.7845913127933
 30
0.0
 11
99.3145595090781
 21
327.7845913127933
 31
0.0
  0
LINE
  5
1A8
330
1F
100
AcDbEntity
  8
0
100
AcDbLine
 10
88.31455950907809
 20
336.4927231585009
 30
0.0
 11
95.3145595090781
 21
333.692723158501
 31
0.0
  0
LWPOLYLINE
  5
1A9
330
1F
100
AcDbEntity
  8
0
100
AcDbPolyline
 90
        4
 70
     0
 43
0.0
 10
158.8145595090781
 20
389.2845913127933
 10
158.8145595090781
 20
372.2845913127933
 10
141.8145595090781
 20
372.2845913127933
 10
141.8145595090781
 20
389.2845913127933
  0
LWPOLYLINE
  5
1AA
330
1F
100
AcDbEntity
  8
0
100
AcDbPolyline
 90
        2
 70
     0
 43
0.0
 10
143.8145595090781
 20
391.2845913127933
 10
156.8145595090781
 20
391.2845913127933
  0
LINE
  5
1AB
330
1F
100
AcDbEntity
  8
0
100
AcDbLine
 10
158.8145595090781
 20
389.2845913127933
 30
0.0
 11
156.8145595090781
 21
391.2845913127933
 31
0.0
  0
LINE
  5
1AC
102
{ACAD_REACTORS
330
20F
102
}
330
1F
100
AcDbEntity
  8
0
100
AcDbLine
 10
141.8145595090781
 20
389.2845913127933
 30
0.0
 11
143.8145595090781
 21
391.2845913127933
 31
0.0
  0
LWPOLYLINE
  5
1AD
330
1F
100
AcDbEntity
  8
0
100
AcDbPolyline
 90
        4
 70
     1
 43
0.0
 10
147.8145595090781
 20
388.2845913127933
 10
152.8145595090781
 20
388.2845913127933
 10
152.8145595090781
 20
379.2845913127933
 10
147.8145595090781
 20
379.2845913127933
  0
LWPOLYLINE
  5
1AE
330
1F
100
AcDbEntity
  8
0
100
AcDbPolyline
 90
        4
 70
     0
 43
0.0
 10
158.8145595090781
 20
299.2845913127933
 10
158.8145595090781
 20
316.2845913127933
 10
141.8145595090781
 20
316.2845913127933
 10
141.8145595090781
 20
299.2845913127933
  0
LWPOLYLINE
  5
1AF
330
1F
100
AcDbEntity
  8
0
100
AcDbPolyline
 90
        2
 70
     0
 43
0.0
 10
143.8145595090781
 20
297.2845913127933
 10
156.8145595090781
 20
297.2845913127933
  0
LINE
  5
1B0
330
1F
100
AcDbEntity
  8
0
100
AcDbLine
 10
158.8145595090781
 20
299.2845913127933
 30
0.0
 11
156.8145595090781
 21
297.2845913127933
 31
0.0
  0
LINE
  5
1B1
102
{ACAD_REACTORS
330
20F
102
}
330
1F
100
AcDbEntity
  8
0
100
AcDbLine
 10
141.8145595090781
 20
299.2845913127933
 30
0.0
 11
143.8145595090781
 21
297.2845913127933
 31
0.0
  0
LWPOLYLINE
  5
1B2
330
1F
100
AcDbEntity
  8
0
100
AcDbPolyline
 90
        4
 70
     1
 43
0.0
 10
147.8145595090781
 20
300.2845913127933
 10
152.8145595090781
 20
300.2845913127933
 10
152.8145595090781
 20
309.2845913127933
 10
147.8145595090781
 20
309.2845913127933
  0
LWPOLYLINE
  5
1B3
330
1F
100
AcDbEntity
  8
0
100
AcDbPolyline
 90
        2
 70
     0
 43
0.0
 10
201.3145595090781
 20
331.7845913127933
 10
201.3145595090781
 20
356.7845913127933
  0
LWPOLYLINE
  5
1B4
330
1F
100
AcDbEntity
  8
0
100
AcDbPolyline
 90
        2
 70
     0
 43
0.0
 10
208.3145595090781
 20
356.7845913127933
 10
208.3145595090781
 20
331.7845913127933
  0
LINE
  5
1B5
330
1F
100
AcDbEntity
  8
0
100
AcDbLine
 10
201.3145595090781
 20
326.7845913127933
 30
0.0
 11
201.3145595090781
 21
361.7845913127933
 31
0.0
  0
LINE
  5
1B6
330
1F
100
AcDbEntity
  8
0
100
AcDbLine
 10
201.3145595090781
 20
361.7845913127933
 30
0.0
 11
208.3145595090781
 21
356.7845913127933
 31
0.0
  0
LINE
  5
1B7
330
1F
100
AcDbEntity
  8
0
100
AcDbLine
 10
208.3145595090781
 20
331.7845913127933
 30
0.0
 11
201.3145595090781
 21
326.7845913127933
 31
0.0
  0
CIRCLE
  5
1B8
330
1F
100
AcDbEntity
  8
0
100
AcDbCircle
 10
150.3145595090781
 20
344.2845913127933
 30
0.0
 40
3.5
  0
MTEXT
  5
1B9
330
1F
100
AcDbEntity
  8
0
100
AcDbMText
 10
221.2619941887839
 20
351.2848770797075
 30
0.0
 40
5.0
 41
44.79584331544697
 71
     1
 72
     5
  1
{\fTimes New Roman|b0|i0|c0|p18;P/OVT-1R}
 73
     1
 44
1.0
1001
ACAD
1000
MTEXTBEGIN
1070
    73
1070
     1
1070
    44
1040
1.0
1070
    74
1070
     0
1000
MTEXTEND
  0
MTEXT
  5
1BA
330
1F
100
AcDbEntity
  8
0
100
AcDbMText
 10
220.9597726693415
 20
339.135099234232
 30
0.0
 40
2.0
 41
58.17921187641059
 71
     1
 72
     5
  1
{\fTimes New Roman|b0|i0|c0|p18;Over Heat Alarm - Relay output}
 73
     1
 44
1.0
1001
ACAD
1000
MTEXTBEGIN
1070
    73
1070
     1
1070
    44
1040
1.0
1070
    74
1070
     0
1000
MTEXTEND
  0
LWPOLYLINE
  5
1BB
330
1F
100
AcDbEntity
  8
0
 62
     5
100
AcDbPolyline
 90
        4
 70
     1
 43
0.0
 10
106.1836596239289
 20
368.9769110594482
 10
189.183659623929
 20
368.9769110594482
 10
189.183659623929
 20
320.9769110594482
 10
106.1836596239289
 20
320.9769110594482
  0
LWPOLYLINE
  5
1BC
330
1F
100
AcDbEntity
  8
0
 62
     4
100
AcDbPolyline
 90
        4
 70
     1
 43
0.0
 10
112.3212743028281
 20
358.4769110594482
 10
107.1836596239289
 20
358.4769110594482
 10
107.1836596239289
 20
361.9769110594482
 10
112.3212743028281
 20
361.9769110594482
  0
CIRCLE
  5
1BD
330
1F
100
AcDbEntity
  8
0
 62
     4
100
AcDbCircle
 10
109.7725357707179
 20
360.2269110594482
 30
0.0
 40
1.28440366972477
  0
LWPOLYLINE
  5
1BE
330
1F
100
AcDbEntity
  8
0
 62
     4
100
AcDbPolyline
 90
        4
 70
     1
 43
0.0
 10
108.7916615515103
 20
360.9368844613527
 10
109.1574335418105
 20
361.2698998960668
 10
110.7534099899255
 20
359.5169376575439
 10
110.3876379996253
 20
359.1839222228295
  0
LWPOLYLINE
  5
1BF
330
1F
100
AcDbEntity
  8
0
 62
     4
100
AcDbPolyline
 90
        4
 70
     1
 43
0.0
 10
112.3212743028281
 20
361.9769110594482
 10
107.1836596239289
 20
361.9769110594482
 10
107.1836596239289
 20
365.4769110594482
 10
112.3212743028281
 20
365.4769110594482
  0
CIRCLE
  5
1C0
330
1F
100
AcDbEntity
  8
0
 62
     4
100
AcDbCircle
 10
109.7725357707179
 20
363.7269110594482
 30
0.0
 40
1.28440366972477
  0
LWPOLYLINE
  5
1C1
330
1F
100
AcDbEntity
  8
0
 62
     4
100
AcDbPolyline
 90
        4
 70
     1
 43
0.0
 10
108.7916615515103
 20
364.4368844613528
 10
109.1574335418105
 20
364.7698998960668
 10
110.7534099899255
 20
363.0169376575438
 10
110.3876379996253
 20
362.6839222228298
  0
LWPOLYLINE
  5
1C2
330
1F
100
AcDbEntity
  8
0
 62
     4
100
AcDbPolyline
 90
        4
 70
     1
 43
0.0
 10
112.3212743028281
 20
365.4769110594482
 10
107.1836596239289
 20
365.4769110594482
 10
107.1836596239289
 20
368.9769110594482
 10
112.3212743028281
 20
368.9769110594482
  0
CIRCLE
  5
1C3
330
1F
100
AcDbEntity
  8
0
 62
     4
100
AcDbCircle
 10
109.7725357707179
 20
367.2269110594482
 30
0.0
 40
1.28440366972477
  0
LWPOLYLINE
  5
1C4
330
1F
100
AcDbEntity
  8
0
 62
     4
100
AcDbPolyline
 90
        4
 70
     1
 43
0.0
 10
108.7916615515103
 20
367.9368844613528
 10
109.1574335418105
 20
368.2698998960668
 10
110.7534099899255
 20
366.5169376575438
 10
110.3876379996253
 20
366.1839222228295
  0
MTEXT
  5
1C5
330
1F
100
AcDbEntity
  8
0
100
AcDbMText
 10
113.7097150245316
 20
367.9833477692414
 30
0.0
 40
1.0
 41
9.240580593153822
 71
     1
 72
     5
  1
{\fTimes New Roman|b0|i0|c0|p18;NC}
 73
     1
 44
1.0
1001
ACAD
1000
MTEXTBEGIN
1070
    73
1070
     1
1070
    44
1040
1.0
1070
    74
1070
     0
1000
MTEXTEND
  0
MTEXT
  5
1C6
330
1F
100
AcDbEntity
  8
0
100
AcDbMText
 10
113.7097150245316
 20
364.3908113378461
 30
0.0
 40
1.0
 41
9.240580593153822
 71
     1
 72
     5
  1
{\fTimes New Roman|b0|i0|c0|p18;COM}
 73
     1
 44
1.0
1001
ACAD
1000
MTEXTBEGIN
1070
    73
1070
     1
1070
    44
1040
1.0
1070
    74
1070
     0
1000
MTEXTEND
  0
MTEXT
  5
1C7
330
1F
100
AcDbEntity
  8
0
100
AcDbMText
 10
113.7097150245316
 20
360.7616179125212
 30
0.0
 40
1.0
 41
9.240580593153822
 71
     1
 72
     5
  1
{\fTimes New Roman|b0|i0|c0|p18;NO}
 73
     1
 44
1.0
1001
ACAD
1000
MTEXTBEGIN
1070
    73
1070
     1
1070
    44
1040
1.0
1070
    74
1070
     0
1000
MTEXTEND
  0
LWPOLYLINE
  5
1C8
330
1F
100
AcDbEntity
  8
0
 62
     4
100
AcDbPolyline
 90
        4
 70
     1
 43
0.0
 10
107.1836596239289
 20
368.9769110594482
 10
106.1836596239289
 20
368.9769110594482
 10
106.1836596239289
 20
358.4769110594482
 10
107.1836596239289
 20
358.4769110594482
  0
LWPOLYLINE
  5
1C9
330
1F
100
AcDbEntity
  8
0
 62
     4
100
AcDbPolyline
 90
        4
 70
     1
 43
0.0
 10
112.3212743028281
 20
368.9769110594482
 10
113.3212743028281
 20
368.9769110594482
 10
113.3212743028281
 20
358.4769110594482
 10
112.3212743028281
 20
358.4769110594482
  0
LWPOLYLINE
  5
1CA
330
1F
100
AcDbEntity
  8
0
 62
     4
100
AcDbPolyline
 90
        4
 70
     1
 43
0.0
 10
112.3212743028281
 20
320.9769110594482
 10
107.1836596239289
 20
320.9769110594482
 10
107.1836596239289
 20
324.4769110594482
 10
112.3212743028281
 20
324.4769110594482
  0
CIRCLE
  5
1CB
330
1F
100
AcDbEntity
  8
0
 62
     4
100
AcDbCircle
 10
109.7725357707179
 20
322.7269110594482
 30
0.0
 40
1.28440366972477
  0
LWPOLYLINE
  5
1CC
330
1F
100
AcDbEntity
  8
0
 62
     4
100
AcDbPolyline
 90
        4
 70
     1
 43
0.0
 10
108.7916615515103
 20
323.4368844613527
 10
109.1574335418105
 20
323.7698998960668
 10
110.7534099899255
 20
322.0169376575439
 10
110.3876379996253
 20
321.6839222228295
  0
LWPOLYLINE
  5
1CD
330
1F
100
AcDbEntity
  8
0
 62
     4
100
AcDbPolyline
 90
        4
 70
     1
 43
0.0
 10
112.3212743028281
 20
324.4769110594482
 10
107.1836596239289
 20
324.4769110594482
 10
107.1836596239289
 20
327.9769110594482
 10
112.3212743028281
 20
327.9769110594482
  0
CIRCLE
  5
1CE
330
1F
100
AcDbEntity
  8
0
 62
     4
100
AcDbCircle
 10
109.7725357707179
 20
326.2269110594482
 30
0.0
 40
1.28440366972477
  0
LWPOLYLINE
  5
1CF
330
1F
100
AcDbEntity
  8
0
 62
     4
100
AcDbPolyline
 90
        4
 70
     1
 43
0.0
 10
108.7916615515103
 20
326.9368844613528
 10
109.1574335418105
 20
327.2698998960668
 10
110.7534099899255
 20
325.5169376575438
 10
110.3876379996253
 20
325.1839222228296
  0
MTEXT
  5
1D0
330
1F
100
AcDbEntity
  8
0
100
AcDbMText
 10
113.7097150245316
 20
326.8908113378461
 30
0.0
 40
1.0
 41
9.240580593153822
 71
     1
 72
     5
  1
{\fTimes New Roman|b0|i0|c0|p18;OV IN}
 73
     1
 44
1.0
1001
ACAD
1000
MTEXTBEGIN
1070
    73
1070
     1
1070
    44
1040
1.0
1070
    74
1070
     0
1000
MTEXTEND
  0
MTEXT
  5
1D1
330
1F
100
AcDbEntity
  8
0
100
AcDbMText
 10
113.7097150245316
 20
323.2616179125212
 30
0.0
 40
1.0
 41
9.240580593153822
 71
     1
 72
     5
  1
{\fTimes New Roman|b0|i0|c0|p18;PWR IN}
 73
     1
 44
1.0
1001
ACAD
1000
MTEXTBEGIN
1070
    73
1070
     1
1070
    44
1040
1.0
1070
    74
1070
     0
1000
MTEXTEND
  0
LWPOLYLINE
  5
1D2
330
1F
100
AcDbEntity
  8
0
 62
     4
100
AcDbPolyline
 90
        4
 70
     1
 43
0.0
 10
107.1836596239289
 20
327.9769110594482
 10
106.1836596239289
 20
327.9769110594482
 10
106.1836596239289
 20
320.9769110594482
 10
107.1836596239289
 20
320.9769110594482
  0
LWPOLYLINE
  5
1D3
330
1F
100
AcDbEntity
  8
0
 62
     4
100
AcDbPolyline
 90
        4
 70
     1
 43
0.0
 10
112.3212743028281
 20
327.9769110594482
 10
113.3212743028281
 20
327.9769110594482
 10
113.3212743028281
 20
320.9769110594482
 10
112.3212743028281
 20
320.9769110594482
  0
LWPOLYLINE
  5
1D4
330
1F
100
AcDbEntity
  8
0
 62
   220
100
AcDbPolyline
 90
        4
 70
     1
 43
0.0
 10
174.183659623929
 20
362.9769110594482
 10
183.1836596239289
 20
362.9769110594482
 10
183.1836596239289
 20
355.9769110594482
 10
174.183659623929
 20
355.9769110594482
  0
LWPOLYLINE
  5
1D5
330
1F
100
AcDbEntity
  8
0
 62
   220
100
AcDbPolyline
 90
        4
 70
     1
 43
0.0
 10
174.183659623929
 20
362.9769110594482
 10
177.1836596239289
 20
362.9769110594482
 10
177.1836596239289
 20
355.9769110594482
 10
174.183659623929
 20
355.9769110594482
  0
LWPOLYLINE
  5
1D6
102
{ACAD_REACTORS
330
1EE
102
}
330
1F
100
AcDbEntity
  8
0
 62
   220
100
AcDbPolyline
 90
        4
 70
     1
 43
0.0
 10
180.1836596239289
 20
362.9769110594482
 10
183.1836596239289
 20
362.9769110594482
 10
183.1836596239289
 20
355.9769110594482
 10
180.1836596239289
 20
355.9769110594482
  0
LWPOLYLINE
  5
1D7
330
1F
100
AcDbEntity
  8
0
 62
   220
100
AcDbPolyline
 90
        4
 70
     1
 43
0.0
 10
175.1836558147767
 20
360.9741509344137
 10
176.1836558147767
 20
360.9741509344137
 10
176.1836558147767
 20
357.9741509344137
 10
175.1836558147767
 20
357.9741509344137
  0
LWPOLYLINE
  5
1D8
330
1F
100
AcDbEntity
  8
0
 62
   220
100
AcDbPolyline
 90
        4
 70
     1
 43
0.0
 10
175.2336558147767
 20
358.9741509344137
 10
176.1336558147767
 20
358.9741509344137
 10
176.1336558147767
 20
358.0741509344139
 10
175.2336558147767
 20
358.0741509344139
  0
LWPOLYLINE
  5
1D9
330
1F
100
AcDbEntity
  8
0
 62
   220
100
AcDbPolyline
 90
        4
 70
     1
 43
0.0
 10
178.1836558147766
 20
360.9741509344137
 10
179.1836558147766
 20
360.9741509344137
 10
179.1836558147766
 20
357.9741509344137
 10
178.1836558147766
 20
357.9741509344137
  0
LWPOLYLINE
  5
1DA
330
1F
100
AcDbEntity
  8
0
 62
   220
100
AcDbPolyline
 90
        4
 70
     1
 43
0.0
 10
178.2336558147767
 20
358.9741509344137
 10
179.1336558147767
 20
358.9741509344137
 10
179.1336558147767
 20
358.0741509344139
 10
178.2336558147767
 20
358.0741509344139
  0
LWPOLYLINE
  5
1DB
330
1F
100
AcDbEntity
  8
0
 62
   220
100
AcDbPolyline
 90
        4
 70
     1
 43
0.0
 10
181.1836558147766
 20
360.9741509344137
 10
182.1836558147766
 20
360.9741509344137
 10
182.1836558147766
 20
357.9741509344137
 10
181.1836558147766
 20
357.9741509344137
  0
LWPOLYLINE
  5
1DC
330
1F
100
AcDbEntity
  8
0
 62
   220
100
AcDbPolyline
 90
        4
 70
     1
 43
0.0
 10
181.2336558147767
 20
358.9741509344137
 10
182.1336558147767
 20
358.9741509344137
 10
182.1336558147767
 20
358.0741509344139
 10
181.2336558147767
 20
358.0741509344139
  0
LWPOLYLINE
  5
1DD
330
1F
100
AcDbEntity
  8
0
 62
   220
100
AcDbPolyline
 90
        4
 70
     1
 43
0.0
 10
165.183659623929
 20
362.9769110594482
 10
174.183659623929
 20
362.9769110594482
 10
174.183659623929
 20
355.9769110594482
 10
165.183659623929
 20
355.9769110594482
  0
LWPOLYLINE
  5
1DE
330
1F
100
AcDbEntity
  8
0
 62
   220
100
AcDbPolyline
 90
        4
 70
     1
 43
0.0
 10
165.183659623929
 20
362.9769110594482
 10
168.183659623929
 20
362.9769110594482
 10
168.183659623929
 20
355.9769110594482
 10
165.183659623929
 20
355.9769110594482
  0
LWPOLYLINE
  5
1DF
330
1F
100
AcDbEntity
  8
0
 62
   220
100
AcDbPolyline
 90
        4
 70
     1
 43
0.0
 10
171.183659623929
 20
362.9769110594482
 10
174.183659623929
 20
362.9769110594482
 10
174.183659623929
 20
355.9769110594482
 10
171.183659623929
 20
355.9769110594482
  0
LWPOLYLINE
  5
1E0
330
1F
100
AcDbEntity
  8
0
 62
   220
100
AcDbPolyline
 90
        4
 70
     1
 43
0.0
 10
166.1836558147766
 20
360.9741509344137
 10
167.1836558147766
 20
360.9741509344137
 10
167.1836558147766
 20
357.9741509344137
 10
166.1836558147766
 20
357.9741509344137
  0
LWPOLYLINE
  5
1E1
330
1F
100
AcDbEntity
  8
0
 62
   220
100
AcDbPolyline
 90
        4
 70
     1
 43
0.0
 10
166.2336558147767
 20
358.9741509344137
 10
167.1336558147767
 20
358.9741509344137
 10
167.1336558147767
 20
358.0741509344139
 10
166.2336558147767
 20
358.0741509344139
  0
LWPOLYLINE
  5
1E2
330
1F
100
AcDbEntity
  8
0
 62
   220
100
AcDbPolyline
 90
        4
 70
     1
 43
0.0
 10
169.1836558147767
 20
360.9741509344137
 10
170.1836558147767
 20
360.9741509344137
 10
170.1836558147767
 20
357.9741509344137
 10
169.1836558147767
 20
357.9741509344137
  0
LWPOLYLINE
  5
1E3
330
1F
100
AcDbEntity
  8
0
 62
   220
100
AcDbPolyline
 90
        4
 70
     1
 43
0.0
 10
169.2336558147767
 20
358.9741509344137
 10
170.1336558147767
 20
358.9741509344137
 10
170.1336558147767
 20
358.0741509344139
 10
169.2336558147767
 20
358.0741509344139
  0
LWPOLYLINE
  5
1E4
330
1F
100
AcDbEntity
  8
0
 62
   220
100
AcDbPolyline
 90
        4
 70
     1
 43
0.0
 10
172.1836558147767
 20
360.9741509344137
 10
173.1836558147767
 20
360.9741509344137
 10
173.1836558147767
 20
357.9741509344137
 10
172.1836558147767
 20
357.9741509344137
  0
LWPOLYLINE
  5
1E5
330
1F
100
AcDbEntity
  8
0
 62
   220
100
AcDbPolyline
 90
        4
 70
     1
 43
0.0
 10
172.2336558147767
 20
358.9741509344137
 10
173.1336558147767
 20
358.9741509344137
 10
173.1336558147767
 20
358.0741509344139
 10
172.2336558147767
 20
358.0741509344139
  0
LWPOLYLINE
  5
1E6
330
1F
100
AcDbEntity
  8
0
 62
   220
100
AcDbPolyline
 90
        4
 70
     1
 43
0.0
 10
159.1836596239289
 20
362.9769110594482
 10
168.183659623929
 20
362.9769110594482
 10
168.183659623929
 20
355.9769110594482
 10
159.1836596239289
 20
355.9769110594482
  0
LWPOLYLINE
  5
1E7
330
1F
100
AcDbEntity
  8
0
 62
   220
100
AcDbPolyline
 90
        4
 70
     1
 43
0.0
 10
159.1836596239289
 20
362.9769110594482
 10
162.1836596239289
 20
362.9769110594482
 10
162.1836596239289
 20
355.9769110594482
 10
159.1836596239289
 20
355.9769110594482
  0
LWPOLYLINE
  5
1E8
330
1F
100
AcDbEntity
  8
0
 62
   220
100
AcDbPolyline
 90
        4
 70
     1
 43
0.0
 10
160.1836558147766
 20
360.9741509344137
 10
161.1836558147766
 20
360.9741509344137
 10
161.1836558147766
 20
357.9741509344137
 10
160.1836558147766
 20
357.9741509344137
  0
LWPOLYLINE
  5
1E9
330
1F
100
AcDbEntity
  8
0
 62
   220
100
AcDbPolyline
 90
        4
 70
     1
 43
0.0
 10
160.2336558147767
 20
358.9741509344137
 10
161.1336558147767
 20
358.9741509344137
 10
161.1336558147767
 20
358.0741509344139
 10
160.2336558147767
 20
358.0741509344139
  0
LWPOLYLINE
  5
1EA
330
1F
100
AcDbEntity
  8
0
 62
   220
100
AcDbPolyline
 90
        4
 70
     1
 43
0.0
 10
163.1836558147766
 20
360.9741509344137
 10
164.1836558147766
 20
360.9741509344137
 10
164.1836558147766
 20
357.9741509344137
 10
163.1836558147766
 20
357.9741509344137
  0
LWPOLYLINE
  5
1EB
330
1F
100
AcDbEntity
  8
0
 62
   220
100
AcDbPolyline
 90
        4
 70
     1
 43
0.0
 10
163.2336558147767
 20
358.9741509344137
 10
164.1336558147767
 20
358.9741509344137
 10
164.1336558147767
 20
358.0741509344139
 10
163.2336558147767
 20
358.0741509344139
  0
LEADER
  5
1EC
102
{ACAD_XDICTIONARY
360
1ED
102
}
102
{ACAD_REACTORS
330
1EE
102
}
330
1F
100
AcDbEntity
  8
0
100
AcDbLeader
  3
Standard
 76
     3
 10
183.1836596239289
 20
362.9769110594482
 30
0.0
 10
194.5042727088965
 20
381.8222907040288
 30
0.0
 10
216.3729478620506
 20
381.8222907040288
 30
0.0
1001
ACAD
1000
DSTYLE
1002
{
1070
   147
1040
0.09
1070
    77
1070
     0
1002
}
  0
MTEXT
  5
1EF
330
1F
100
AcDbEntity
  8
0
100
AcDbMText
 10
217.1001453988162
 20
383.055384394467
 30
0.0
 40
2.0
 41
58.17921187641059
 71
     1
 72
     5
  1
{\fTimes New Roman|b0|i0|c0|p18;Setpoint}
 73
     1
 44
1.0
1001
ACAD
1000
MTEXTBEGIN
1070
    73
1070
     1
1070
    44
1040
1.0
1070
    74
1070
     0
1000
MTEXTEND
  0
LINE
  5
1F0
330
1F
100
AcDbEntity
  8
0
100
AcDbLine
 10
99.3145595090781
 20
111.8107879685042
 30
0.0
 11
99.3145595090781
 21
56.8107879685042
 31
0.0
  0
LINE
  5
1F1
102
{ACAD_REACTORS
330
218
102
}
330
1F
100
AcDbEntity
  8
0
100
AcDbLine
 10
99.3145595090781
 20
56.8107879685042
 30
0.0
 11
201.3145595090781
 21
56.8107879685042
 31
0.0
  0
LINE
  5
1F2
102
{ACAD_REACTORS
330
21B
102
}
330
1F
100
AcDbEntity
  8
0
100
AcDbLine
 10
201.3145595090781
 20
56.8107879685042
 30
0.0
 11
201.3145595090781
 21
111.8107879685042
 31
0.0
  0
LINE
  5
1F3
330
1F
100
AcDbEntity
  8
0
100
AcDbLine
 10
201.3145595090781
 20
111.8107879685042
 30
0.0
 11
99.3145595090781
 21
111.8107879685042
 31
0.0
  0
LINE
  5
1F4
102
{ACAD_REACTORS
330
218
102
}
330
1F
100
AcDbEntity
  8
0
100
AcDbLine
 10
99.3145595090781
 20
111.8107879685042
 30
0.0
 11
99.3145595090781
 21
106.8107879685042
 31
0.0
  0
LWPOLYLINE
  5
1F5
330
1F
100
AcDbEntity
  8
0
100
AcDbPolyline
 90
        4
 70
     1
 43
0.0
 10
142.8145595090781
 20
106.8107879685042
 10
157.8145595090781
 20
106.8107879685042
 10
157.8145595090781
 20
111.8107879685042
 10
142.8145595090781
 20
111.8107879685042
  0
LWPOLYLINE
  5
1F6
102
{ACAD_REACTORS
330
215
102
}
330
1F
100
AcDbEntity
  8
0
100
AcDbPolyline
 90
        4
 70
     1
 43
0.0
 10
147.8145595090781
 20
111.8107879685042
 10
152.8145595090781
 20
111.8107879685042
 10
152.8145595090781
 20
281.8107879685042
 10
147.8145595090781
 20
281.8107879685042
  0
CIRCLE
  5
1F7
330
1F
100
AcDbEntity
  8
0
100
AcDbCircle
 10
126.1113395711217
 20
77.59360954681074
 30
0.0
 40
10.0
  0
CIRCLE
  5
1F8
330
1F
100
AcDbEntity
  8
0
100
AcDbCircle
 10
173.6711813097333
 20
77.59360954681074
 30
0.0
 40
10.0
  0
LINE
  5
1F9
330
1F
100
AcDbEntity
  8
0
100
AcDbLine
 10
224.4215112093081
 20
111.8107879685042
 30
0.0
 11
279.421511209308
 21
111.8107879685042
 31
0.0
  0
LINE
  5
1FA
330
1F
100
AcDbEntity
  8
0
100
AcDbLine
 10
279.421511209308
 20
111.8107879685042
 30
0.0
 11
279.421511209308
 21
56.8107879685042
 31
0.0
  0
LINE
  5
1FB
102
{ACAD_REACTORS
330
21E
102
}
330
1F
100
AcDbEntity
  8
0
100
AcDbLine
 10
279.421511209308
 20
56.8107879685042
 30
0.0
 11
224.4215112093081
 21
56.8107879685042
 31
0.0
  0
LINE
  5
1FC
102
{ACAD_REACTORS
330
21E
102
}
330
1F
100
AcDbEntity
  8
0
100
AcDbLine
 10
224.4215112093081
 20
56.8107879685042
 30
0.0
 11
224.4215112093081
 21
111.8107879685042
 31
0.0
  0
LWPOLYLINE
  5
1FD
330
1F
100
AcDbEntity
  8
0
100
AcDbPolyline
 90
        4
 70
     1
 43
0.0
 10
249.4215112093081
 20
111.8107879685042
 10
254.421511209308
 20
111.8107879685042
 10
254.421511209308
 20
281.8107879685042
 10
249.4215112093081
 20
281.8107879685042
  0
CIRCLE
  5
1FE
330
1F
100
AcDbEntity
  8
0
100
AcDbCircle
 10
251.9215112093081
 20
92.76157397593147
 30
0.0
 40
10.0
  0
LWPOLYLINE
  5
1FF
330
1F
100
AcDbEntity
  8
0
100
AcDbPolyline
 90
        4
 70
     1
 43
0.0
 10
234.6839496648123
 20
61.95424263458381
 10
269.1590727538038
 20
61.95424263458381
 10
269.1590727538038
 20
67.09769730066341
 10
234.6839496648123
 20
67.09769730066341
  0
LWPOLYLINE
  5
200
330
1F
100
AcDbEntity
  8
0
100
AcDbPolyline
 90
        2
 70
     0
 43
0.0
 10
247.5796085069293
 20
71.65842182984284
 10
247.5796085069293
 20
67.09769730066341
  0
LWPOLYLINE
  5
201
330
1F
100
AcDbEntity
  8
0
100
AcDbPolyline
 90
        2
 70
     0
 43
0.0
 10
247.5796085069293
 20
61.95424263458381
 10
247.5796085069293
 20
57.8107879685042
  0
LWPOLYLINE
  5
202
330
1F
100
AcDbEntity
  8
0
100
AcDbPolyline
 90
        2
 70
     0
 43
0.0
 10
247.5796085069293
 20
56.8107879685042
 10
252.9593468460099
 20
56.8107879685042
  0
LINE
  5
203
330
1F
100
AcDbEntity
  8
0
100
AcDbLine
 10
247.5796085069293
 20
71.65842182984284
 30
0.0
 11
252.9593468460099
 21
71.65842182984284
 31
0.0
  0
ARC
  5
204
330
1F
100
AcDbEntity
  8
0
100
AcDbCircle
 10
248.8598576452331
 20
58.09103710680801
 30
0.0
 40
1.310563785417497
100
AcDbArc
 50
192.3474000360307
 51
257.6525999639692
  0
ARC
  5
205
330
1F
100
AcDbEntity
  8
0
100
AcDbCircle
 10
254.9831647733831
 20
58.09103710680801
 30
0.0
 40
1.310563785417497
100
AcDbArc
 50
282.3474000360308
 51
347.6525999639692
  0
LWPOLYLINE
  5
206
330
1F
100
AcDbEntity
  8
0
100
AcDbPolyline
 90
        2
 70
     0
 43
0.0
 10
247.5796085069293
 20
57.8107879685042
 10
247.5796085069293
 20
61.95424263458381
  0
LWPOLYLINE
  5
207
330
1F
100
AcDbEntity
  8
0
100
AcDbPolyline
 90
        4
 70
     0
 43
0.0
 10
247.5796085069293
 20
67.09769730066341
 10
247.5796085069293
 20
71.65842182984284
 10
256.263413911687
 20
71.65842182984284
 10
256.263413911687
 20
67.09769730066341
  0
LWPOLYLINE
  5
208
330
1F
100
AcDbEntity
  8
0
100
AcDbPolyline
 90
        2
 70
     0
 43
0.0
 10
256.263413911687
 20
61.95424263458381
 10
256.263413911687
 20
57.8107879685042
  0
LWPOLYLINE
  5
209
330
1F
100
AcDbEntity
  8
0
100
AcDbPolyline
 90
        2
 70
     0
 43
0.0
 10
256.263413911687
 20
56.8107879685042
 10
247.5796085069293
 20
56.8107879685042
  0
DIMENSION
  5
20A
102
{ACAD_XDICTIONARY
360
20B
102
}
102
{ACAD_REACTORS
330
20C
102
}
330
1F
100
AcDbEntity
  8
0
370
    40
100
AcDbDimension
  2
*D10
 10
76.76188737393293
 20
316.2845913127933
 30
0.0
 11
66.01163737393289
 21
344.2845913127933
 31
0.0
 70
    32
  1
{\H0.7667x;\C256;56}
 71
     5
 42
56.0
  3
TRIEU
100
AcDbAlignedDimension
 13
99.3145595090781
 23
372.2845913127933
 33
0.0
 14
99.3145595090781
 24
316.2845913127933
 34
0.0
 50
90.0
100
AcDbRotatedDimension
  0
DIMENSION
  5
20D
102
{ACAD_XDICTIONARY
360
20E
102
}
102
{ACAD_REACTORS
330
20F
102
}
330
1F
100
AcDbEntity
  8
0
370
    40
100
AcDbDimension
  2
*D11
 10
57.5834541410213
 20
297.2845913127933
 30
0.0
 11
46.83320414102127
 21
344.2845913127933
 31
0.0
 70
    32
  1
{\H0.7667x;\C256;94}
 71
     5
 42
94.0
  3
TRIEU
100
AcDbAlignedDimension
 13
143.8145595090781
 23
391.2845913127933
 33
0.0
 14
143.8145595090781
 24
297.2845913127933
 34
0.0
 50
90.0
100
AcDbRotatedDimension
  0
DIMENSION
  5
210
102
{ACAD_XDICTIONARY
360
211
102
}
102
{ACAD_REACTORS
330
212
102
}
330
1F
100
AcDbEntity
  8
0
370
    40
100
AcDbDimension
  2
*D12
 10
201.3145595090781
 20
401.1076519267528
 30
0.0
 11
150.3145595090781
 21
411.8579019267528
 31
0.0
 70
    32
  1
{\H0.7667x;\C256;102}
 71
     5
 42
102.0
  3
TRIEU
100
AcDbAlignedDimension
 13
99.3145595090781
 23
372.2845913127933
 33
0.0
 14
201.3145595090781
 24
372.2845913127933
 34
0.0
100
AcDbRotatedDimension
  0
DIMENSION
  5
213
102
{ACAD_XDICTIONARY
360
214
102
}
102
{ACAD_REACTORS
330
215
102
}
330
1F
100
AcDbEntity
  8
0
370
    40
100
AcDbDimension
  2
*D13
 10
126.5476907788697
 20
111.8107879685042
 30
0.0
 11
115.7974407788697
 21
196.8107879685042
 31
0.0
 70
    32
  1
{\H0.7667x;\C256;170}
 71
     5
 42
170.0
  3
TRIEU
100
AcDbAlignedDimension
 13
147.8145595090781
 23
281.8107879685042
 33
0.0
 14
147.8145595090781
 24
111.8107879685042
 34
0.0
 50
90.0
100
AcDbRotatedDimension
  0
DIMENSION
  5
216
102
{ACAD_XDICTIONARY
360
217
102
}
102
{ACAD_REACTORS
330
218
102
}
330
1F
100
AcDbEntity
  8
0
370
    40
100
AcDbDimension
  2
*D14
 10
76.53073395042429
 20
56.8107879685042
 30
0.0
 11
65.78048395042427
 21
84.31078796850421
 31
0.0
 70
    32
  1
{\H0.7667x;\C256;55}
 71
     5
 42
55.0
  3
TRIEU
100
AcDbAlignedDimension
 13
99.3145595090781
 23
111.8107879685042
 33
0.0
 14
99.3145595090781
 24
56.8107879685042
 34
0.0
 50
90.0
100
AcDbRotatedDimension
  0
DIMENSION
  5
219
102
{ACAD_XDICTIONARY
360
21A
102
}
102
{ACAD_REACTORS
330
21B
102
}
330
1F
100
AcDbEntity
  8
0
370
    40
100
AcDbDimension
  2
*D15
 10
201.3145595090781
 20
29.67874168434378
 30
0.0
 11
150.3145595090781
 21
40.42899168434378
 31
0.0
 70
    32
  1
{\H0.7667x;\C256;102}
 71
     5
 42
102.0
  3
TRIEU
100
AcDbAlignedDimension
 13
99.3145595090781
 23
56.8107879685042
 33
0.0
 14
201.3145595090781
 24
56.8107879685042
 34
0.0
100
AcDbRotatedDimension
  0
DIMENSION
  5
21C
102
{ACAD_XDICTIONARY
360
21D
102
}
102
{ACAD_REACTORS
330
21E
102
}
330
1F
100
AcDbEntity
  8
0
370
    40
100
AcDbDimension
  2
*D16
 10
279.421511209308
 20
29.67874168434378
 30
0.0
 11
251.9215112093081
 21
40.42899168434378
 31
0.0
 70
    32
  1
{\H0.7667x;\C256;55}
 71
     5
 42
55.0
  3
TRIEU
100
AcDbAlignedDimension
 13
224.4215112093081
 23
56.8107879685042
 33
0.0
 14
279.421511209308
 24
56.8107879685042
 34
0.0
100
AcDbRotatedDimension
  0
ENDSEC
  0
SECTION
  2
OBJECTS
  0
DICTIONARY
  5
C
330
0
100
AcDbDictionary
281
     1
  3
ACAD_COLOR
350
73
  3
ACAD_GROUP
350
D
  3
ACAD_LAYOUT
350
1A
  3
ACAD_MATERIAL
350
72
  3
ACAD_MLINESTYLE
350
17
  3
ACAD_PLOTSETTINGS
350
19
  3
ACAD_PLOTSTYLENAME
350
E
  3
ACAD_TABLESTYLE
350
86
  3
ACAD_VISUALSTYLE
350
99
  3
AcDbVariableDictionary
350
66
  3
DWGPROPS
350
275
  0
DICTIONARY
  5
116
330
2
100
AcDbDictionary
280
     1
281
     1
  3
ACAD_LAYERSTATES
360
117
  0
DICTIONARY
  5
1ED
330
1EC
100
AcDbDictionary
280
     1
281
     1
  3
ACAD_DIMASSOC
360
1EE
  0
DICTIONARY
  5
20B
330
20A
100
AcDbDictionary
280
     1
281
     1
  3
ACAD_DIMASSOC
360
20C
  0
DICTIONARY
  5
20E
330
20D
100
AcDbDictionary
280
     1
281
     1
  3
ACAD_DIMASSOC
360
20F
  0
DICTIONARY
  5
211
330
210
100
AcDbDictionary
280
     1
281
     1
  3
ACAD_DIMASSOC
360
212
  0
DICTIONARY
  5
214
330
213
100
AcDbDictionary
280
     1
281
     1
  3
ACAD_DIMASSOC
360
215
  0
DICTIONARY
  5
217
330
216
100
AcDbDictionary
280
     1
281
     1
  3
ACAD_DIMASSOC
360
218
  0
DICTIONARY
  5
21A
330
219
100
AcDbDictionary
280
     1
281
     1
  3
ACAD_DIMASSOC
360
21B
  0
DICTIONARY
  5
21D
330
21C
100
AcDbDictionary
280
     1
281
     1
  3
ACAD_DIMASSOC
360
21E
  0
DICTIONARY
  5
73
102
{ACAD_REACTORS
330
C
102
}
330
C
100
AcDbDictionary
281
     1
  0
DICTIONARY
  5
D
102
{ACAD_REACTORS
330
C
102
}
330
C
100
AcDbDictionary
281
     1
  0
DICTIONARY
  5
1A
102
{ACAD_REACTORS
330
C
102
}
330
C
100
AcDbDictionary
281
     1
  3
Layout1
350
59
  3
Layout2
350
5E
  3
Model
350
22
  0
DICTIONARY
  5
72
102
{ACAD_REACTORS
330
C
102
}
330
C
100
AcDbDictionary
281
     1
  3
ByBlock
350
97
  3
ByLayer
350
96
  3
Global
350
98
  0
DICTIONARY
  5
17
102
{ACAD_REACTORS
330
C
102
}
330
C
100
AcDbDictionary
281
     1
  3
Standard
350
18
  0
DICTIONARY
  5
19
102
{ACAD_REACTORS
330
C
102
}
330
C
100
AcDbDictionary
281
     1
  0
ACDBDICTIONARYWDFLT
  5
E
102
{ACAD_REACTORS
330
C
102
}
330
C
100
AcDbDictionary
281
     1
  3
Normal
350
F
100
AcDbDictionaryWithDefault
340
F
  0
DICTIONARY
  5
86
102
{ACAD_REACTORS
330
C
102
}
330
C
100
AcDbDictionary
281
     1
  3
Standard
350
87
  0
DICTIONARY
  5
99
102
{ACAD_REACTORS
330
C
102
}
330
C
100
AcDbDictionary
281
     1
  3
2dWireframe
350
9F
  3
3D Hidden
350
A1
  3
3dWireframe
350
A0
  3
Basic
350
9E
  3
Brighten
350
A5
  3
ColorChange
350
A9
  3
Conceptual
350
A2
  3
Dim
350
A4
  3
Facepattern
350
A8
  3
Flat
350
9A
  3
FlatWithEdges
350
9B
  3
Gouraud
350
9C
  3
GouraudWithEdges
350
9D
  3
Linepattern
350
A7
  3
Realistic
350
A3
  3
Thicken
350
A6
  0
DICTIONARY
  5
66
102
{ACAD_REACTORS
330
C
102
}
330
C
100
AcDbDictionary
281
     1
  3
CTABLESTYLE
350
89
  3
DIMASSOC
350
67
  3
HIDETEXT
350
6B
  3
INDEXCTL
350
274
  3
SORTENTS
350
273
  0
XRECORD
  5
275
102
{ACAD_REACTORS
330
C
102
}
330
C
100
AcDbXrecord
280
     1
  1
DWGPROPS COOKIE
  2

  3

  4

  6

  7

  8
Administrator
  9

300
=
301
=
302
=
303
=
304
=
305
=
306
=
307
=
308
=
309
=
 40
0.0017659375
 41
2458472.37457588
 42
2458472.376339329
  1

 90
        0
  0
DICTIONARY
  5
117
102
{ACAD_REACTORS
330
116
102
}
330
116
100
AcDbDictionary
281
     1
  0
DIMASSOC
  5
1EE
102
{ACAD_REACTORS
330
1ED
102
}
330
1ED
100
AcDbDimAssoc
330
1EC
 90
        1
 70
     0
 71
     0
  1
AcDbOsnapPointRef
 72
     1
331
1D6
 73
     2
 91
        1
 40
1.0
 10
0.0
 20
0.0
 30
2.000000000000000E+50
 75
     0
  0
DIMASSOC
  5
20C
102
{ACAD_REACTORS
330
20B
102
}
330
20B
100
AcDbDimAssoc
330
20A
 90
        3
 70
     0
 71
     0
  1
AcDbOsnapPointRef
 72
    13
331
19F
 73
     2
 91
        1
 40
0.0
 10
0.0
 20
0.0
 30
2.000000000000000E+50
 75
     0
  1
AcDbOsnapPointRef
 72
     1
331
19F
 73
     2
 91
        3
 40
1.0
 10
0.0
 20
0.0
 30
2.000000000000000E+50
 75
     0
  0
DIMASSOC
  5
20F
102
{ACAD_REACTORS
330
20E
102
}
330
20E
100
AcDbDimAssoc
330
20D
 90
        3
 70
     0
 71
     0
  1
AcDbOsnapPointRef
 72
     1
331
1AC
 73
     2
 91
        0
 40
0.9999999999999998
 10
0.0
 20
0.0
 30
2.000000000000000E+50
 75
     0
  1
AcDbOsnapPointRef
 72
     1
331
1B1
 73
     2
 91
        0
 40
0.9999999999999998
 10
0.0
 20
0.0
 30
2.000000000000000E+50
 75
     0
  0
DIMASSOC
  5
212
102
{ACAD_REACTORS
330
211
102
}
330
211
100
AcDbDimAssoc
330
210
 90
        2
 70
     0
 71
     0
  1
AcDbOsnapPointRef
 72
     1
331
19F
 73
     2
 91
        1
 40
1.0
 10
0.0
 20
0.0
 30
2.000000000000000E+50
 75
     0
  0
DIMASSOC
  5
215
102
{ACAD_REACTORS
330
214
102
}
330
214
100
AcDbDimAssoc
330
213
 90
        3
 70
     0
 71
     0
  1
AcDbOsnapPointRef
 72
     1
331
1F6
 73
     2
 91
        3
 40
1.0
 10
0.0
 20
0.0
 30
2.000000000000000E+50
 75
     0
  1
AcDbOsnapPointRef
 72
    13
331
1F6
 73
     2
 91
        1
 40
0.0
 10
0.0
 20
0.0
 30
2.000000000000000E+50
 75
     0
  0
DIMASSOC
  5
218
102
{ACAD_REACTORS
330
217
102
}
330
217
100
AcDbDimAssoc
330
216
 90
        3
 70
     0
 71
     0
  1
AcDbOsnapPointRef
 72
    13
331
1F4
 73
     2
 91
        0
 40
0.0
 10
0.0
 20
0.0
 30
2.000000000000000E+50
 75
     0
  1
AcDbOsnapPointRef
 72
    13
331
1F1
 73
     2
 91
        0
 40
0.0
 10
0.0
 20
0.0
 30
2.000000000000000E+50
 75
     0
  0
DIMASSOC
  5
21B
102
{ACAD_REACTORS
330
21A
102
}
330
21A
100
AcDbDimAssoc
330
219
 90
        2
 70
     0
 71
     0
  1
AcDbOsnapPointRef
 72
    13
331
1F2
 73
     2
 91
        0
 40
0.0
 10
0.0
 20
0.0
 30
2.000000000000000E+50
 75
     0
  0
DIMASSOC
  5
21E
102
{ACAD_REACTORS
330
21D
102
}
330
21D
100
AcDbDimAssoc
330
21C
 90
        3
 70
     0
 71
     0
  1
AcDbOsnapPointRef
 72
    13
331
1FC
 73
     2
 91
        0
 40
0.0
 10
0.0
 20
0.0
 30
2.000000000000000E+50
 75
     0
  1
AcDbOsnapPointRef
 72
    13
331
1FB
 73
     2
 91
        0
 40
0.0
 10
0.0
 20
0.0
 30
2.000000000000000E+50
 75
     0
  0
LAYOUT
  5
59
102
{ACAD_XDICTIONARY
360
278
102
}
102
{ACAD_REACTORS
330
1A
102
}
330
1A
100
AcDbPlotSettings
  1

  2
None
  4

  6

 40
0.0
 41
0.0
 42
0.0
 43
0.0
 44
0.0
 45
0.0
 46
0.0
 47
0.0
 48
0.0
 49
0.0
140
0.0
141
0.0
142
1.0
143
1.0
 70
   688
 72
     0
 73
     0
 74
     5
  7

 75
    16
147
1.0
148
0.0
149
0.0
100
AcDbLayout
  1
Layout1
 70
     1
 71
     1
 10
0.0
 20
0.0
 11
12.0
 21
9.0
 12
0.0
 22
0.0
 32
0.0
 14
0.0
 24
0.0
 34
0.0
 15
0.0
 25
0.0
 35
0.0
146
0.0
 13
0.0
 23
0.0
 33
0.0
 16
1.0
 26
0.0
 36
0.0
 17
0.0
 27
1.0
 37
0.0
 76
     0
330
58
  0
LAYOUT
  5
5E
102
{ACAD_XDICTIONARY
360
27A
102
}
102
{ACAD_REACTORS
330
1A
102
}
330
1A
100
AcDbPlotSettings
  1

  2
None
  4

  6

 40
0.0
 41
0.0
 42
0.0
 43
0.0
 44
0.0
 45
0.0
 46
0.0
 47
0.0
 48
0.0
 49
0.0
140
0.0
141
0.0
142
1.0
143
1.0
 70
   688
 72
     0
 73
     0
 74
     5
  7

 75
    16
147
1.0
148
0.0
149
0.0
100
AcDbLayout
  1
Layout2
 70
     1
 71
     2
 10
0.0
 20
0.0
 11
12.0
 21
9.0
 12
0.0
 22
0.0
 32
0.0
 14
0.0
 24
0.0
 34
0.0
 15
0.0
 25
0.0
 35
0.0
146
0.0
 13
0.0
 23
0.0
 33
0.0
 16
1.0
 26
0.0
 36
0.0
 17
0.0
 27
1.0
 37
0.0
 76
     0
330
5D
  0
LAYOUT
  5
22
102
{ACAD_XDICTIONARY
360
276
102
}
102
{ACAD_REACTORS
330
1A
102
}
330
1A
100
AcDbPlotSettings
  1

  2
none_device
  4
ANSI_A_(8.50_x_11.00_Inches)
  6

 40
6.349999904632568
 41
19.04999923706055
 42
6.350006103515625
 43
19.04998779296875
 44
215.8999938964844
 45
279.3999938964844
 46
0.0
 47
0.0
 48
0.0
 49
0.0
140
0.0
141
0.0
142
1.0
143
2.584895464708373
 70
 11952
 72
     0
 73
     1
 74
     0
  7

 75
     0
147
0.3868628397755418
148
0.0
149
0.0
100
AcDbLayout
  1
Model
 70
     1
 71
     0
 10
0.0
 20
0.0
 11
12.0
 21
9.0
 12
0.0
 22
0.0
 32
0.0
 14
0.0
 24
0.0
 34
0.0
 15
0.0
 25
0.0
 35
0.0
146
0.0
 13
0.0
 23
0.0
 33
0.0
 16
1.0
 26
0.0
 36
0.0
 17
0.0
 27
1.0
 37
0.0
 76
     0
330
1F
331
94
  0
MATERIAL
  5
97
102
{ACAD_XDICTIONARY
360
280
102
}
102
{ACAD_REACTORS
330
72
102
}
330
72
100
AcDbMaterial
  1
ByBlock
  0
MATERIAL
  5
96
102
{ACAD_XDICTIONARY
360
27E
102
}
102
{ACAD_REACTORS
330
72
102
}
330
72
100
AcDbMaterial
  1
ByLayer
  0
MATERIAL
  5
98
102
{ACAD_XDICTIONARY
360
282
102
}
102
{ACAD_REACTORS
330
72
102
}
330
72
100
AcDbMaterial
  1
Global
  0
MLINESTYLE
  5
18
102
{ACAD_REACTORS
330
17
102
}
330
17
100
AcDbMlineStyle
  2
STANDARD
 70
     0
  3

 62
   256
 51
90.0
 52
90.0
 71
     2
 49
0.5
 62
   256
  6
BYLAYER
 49
-0.5
 62
   256
  6
BYLAYER
  0
ACDBPLACEHOLDER
  5
F
102
{ACAD_REACTORS
330
E
102
}
330
E
  0
TABLESTYLE
  5
87
102
{ACAD_XDICTIONARY
360
27C
102
}
102
{ACAD_REACTORS
330
86
102
}
330
86
100
AcDbTableStyle
  3
Standard
 70
     0
 71
     0
 40
0.06
 41
0.06
280
     0
281
     0
  7
Standard
140
0.18
170
     2
 62
     0
 63
     7
283
     0
274
    -2
284
     1
 64
     0
275
    -2
285
     1
 65
     0
276
    -2
286
     1
 66
     0
277
    -2
287
     1
 67
     0
278
    -2
288
     1
 68
     0
279
    -2
289
     1
 69
     0
  7
Standard
140
0.25
170
     5
 62
     0
 63
     7
283
     0
274
    -2
284
     1
 64
     0
275
    -2
285
     1
 65
     0
276
    -2
286
     1
 66
     0
277
    -2
287
     1
 67
     0
278
    -2
288
     1
 68
     0
279
    -2
289
     1
 69
     0
  7
Standard
140
0.18
170
     5
 62
     0
 63
     7
283
     0
274
    -2
284
     1
 64
     0
275
    -2
285
     1
 65
     0
276
    -2
286
     1
 66
     0
277
    -2
287
     1
 67
     0
278
    -2
288
     1
 68
     0
279
    -2
289
     1
 69
     0
  0
VISUALSTYLE
  5
9F
102
{ACAD_REACTORS
330
99
102
}
330
99
100
AcDbVisualStyle
  2
2dWireframe
 70
     4
 71
     0
 72
     2
 73
     1
 90
        0
 40
-0.6
 41
-30.0
 62
     5
 63
     7
 74
     1
 91
        4
 64
     7
 65
   257
 75
     1
175
     1
 42
1.0
 92
        0
 66
   257
 43
1.0
 76
     1
 77
     6
 78
     2
 67
     7
 79
     5
170
     0
171
     0
290
     0
174
     0
 93
        1
 44
0.0
173
     0
291
     0
 45
0.0
1001
ACAD
1000
AcDbSavedByObjectVersion
1070
     0
  0
VISUALSTYLE
  5
A1
102
{ACAD_REACTORS
330
99
102
}
330
99
100
AcDbVisualStyle
  2
3D Hidden
 70
     6
 71
     1
 72
     2
 73
     2
 90
        0
 40
-0.6
 41
-30.0
 62
     5
 63
     7
 74
     2
 91
        2
 64
     7
 65
   257
 75
     2
175
     1
 42
40.0
 92
        0
 66
   257
 43
1.0
 76
     1
 77
     6
 78
     2
 67
     7
 79
     3
170
     0
171
     0
290
     0
174
     0
 93
        1
 44
0.0
173
     0
291
     0
 45
0.0
1001
ACAD
1000
AcDbSavedByObjectVersion
1070
     0
  0
VISUALSTYLE
  5
A0
102
{ACAD_REACTORS
330
99
102
}
330
99
100
AcDbVisualStyle
  2
3dWireframe
 70
     5
 71
     0
 72
     2
 73
     1
 90
        0
 40
-0.6
 41
-30.0
 62
     5
 63
     7
 74
     1
 91
        4
 64
     7
 65
   257
 75
     1
175
     1
 42
1.0
 92
        0
 66
   257
 43
1.0
 76
     1
 77
     6
 78
     2
 67
     7
 79
     5
170
     0
171
     0
290
     0
174
     0
 93
        1
 44
0.0
173
     0
291
     0
 45
0.0
1001
ACAD
1000
AcDbSavedByObjectVersion
1070
     0
  0
VISUALSTYLE
  5
9E
102
{ACAD_REACTORS
330
99
102
}
330
99
100
AcDbVisualStyle
  2
Basic
 70
     7
 71
     1
 72
     0
 73
     1
 90
        0
 40
-0.6
 41
-30.0
 62
     5
 63
     7
 74
     0
 91
        4
 64
     7
 65
   257
 75
     1
175
     1
 42
1.0
 92
        8
 66
     7
 43
1.0
 76
     1
 77
     6
 78
     2
 67
     7
 79
     5
170
     0
171
     0
290
     0
174
     0
 93
        1
 44
0.0
173
     0
291
     1
 45
0.0
1001
ACAD
1000
AcDbSavedByObjectVersion
1070
     0
  0
VISUALSTYLE
  5
A5
102
{ACAD_REACTORS
330
99
102
}
330
99
100
AcDbVisualStyle
  2
Brighten
 70
    12
 71
     2
 72
     2
 73
     1
 90
        0
 40
-0.6
 41
-30.0
 62
     5
 63
     7
 74
     1
 91
        4
 64
     7
 65
   257
 75
     1
175
     1
 42
1.0
 92
        8
 66
     7
 43
1.0
 76
     1
 77
     6
 78
     2
 67
     7
 79
     5
170
     0
171
     0
290
     0
174
     0
 93
        1
 44
50.0
173
     0
291
     1
 45
0.0
1001
ACAD
1000
AcDbSavedByObjectVersion
1070
     0
  0
VISUALSTYLE
  5
A9
102
{ACAD_REACTORS
330
99
102
}
330
99
100
AcDbVisualStyle
  2
ColorChange
 70
    16
 71
     2
 72
     2
 73
     3
 90
        0
 40
-0.6
 41
-30.0
 62
     5
 63
     8
 74
     1
 91
        4
 64
     7
 65
   257
 75
     1
175
     1
 42
1.0
 92
        8
 66
     8
 43
1.0
 76
     1
 77
     6
 78
     2
 67
     7
 79
     5
170
     0
171
     0
290
     0
174
     0
 93
        1
 44
0.0
173
     0
291
     1
 45
0.0
1001
ACAD
1000
AcDbSavedByObjectVersion
1070
     0
  0
VISUALSTYLE
  5
A2
102
{ACAD_REACTORS
330
99
102
}
330
99
100
AcDbVisualStyle
  2
Conceptual
 70
     9
 71
     3
 72
     2
 73
     1
 90
        0
 40
-0.6
 41
-30.0
 62
     5
 63
     7
 74
     2
 91
        2
 64
     7
 65
   257
 75
     1
175
     1
 42
40.0
 92
        8
 66
     7
 43
1.0
 76
     1
 77
     6
 78
     2
 67
     7
 79
     3
170
     0
171
     0
290
     0
174
     0
 93
        1
 44
0.0
173
     0
291
     0
 45
0.0
1001
ACAD
1000
AcDbSavedByObjectVersion
1070
     0
  0
VISUALSTYLE
  5
A4
102
{ACAD_REACTORS
330
99
102
}
330
99
100
AcDbVisualStyle
  2
Dim
 70
    11
 71
     2
 72
     2
 73
     1
 90
        0
 40
-0.6
 41
-30.0
 62
     5
 63
     7
 74
     1
 91
        4
 64
     7
 65
   257
 75
     1
175
     1
 42
1.0
 92
        8
 66
     7
 43
1.0
 76
     1
 77
     6
 78
     2
 67
     7
 79
     5
170
     0
171
     0
290
     0
174
     0
 93
        1
 44
-50.0
173
     0
291
     1
 45
0.0
1001
ACAD
1000
AcDbSavedByObjectVersion
1070
     0
  0
VISUALSTYLE
  5
A8
102
{ACAD_REACTORS
330
99
102
}
330
99
100
AcDbVisualStyle
  2
Facepattern
 70
    15
 71
     2
 72
     2
 73
     1
 90
        0
 40
-0.6
 41
-30.0
 62
     5
 63
     7
 74
     1
 91
        4
 64
     7
 65
   257
 75
     1
175
     1
 42
1.0
 92
        8
 66
     7
 43
1.0
 76
     1
 77
     6
 78
     2
 67
     7
 79
     5
170
     0
171
     0
290
     0
174
     0
 93
        1
 44
0.0
173
     0
291
     1
 45
0.0
1001
ACAD
1000
AcDbSavedByObjectVersion
1070
     0
  0
VISUALSTYLE
  5
9A
102
{ACAD_REACTORS
330
99
102
}
330
99
100
AcDbVisualStyle
  2
Flat
 70
     0
 71
     2
 72
     1
 73
     1
 90
        2
 40
-0.6
 41
30.0
 62
     5
 63
     7
 74
     0
 91
        4
 64
     7
 65
   257
 75
     1
175
     1
 42
1.0
 92
        8
 66
     7
 43
1.0
 76
     1
 77
     6
 78
     2
 67
     7
 79
     5
170
     0
171
     0
290
     0
174
     0
 93
        1
 44
0.0
173
     0
291
     1
 45
0.0
1001
ACAD
1000
AcDbSavedByObjectVersion
1070
     0
  0
VISUALSTYLE
  5
9B
102
{ACAD_REACTORS
330
99
102
}
330
99
100
AcDbVisualStyle
  2
FlatWithEdges
 70
     1
 71
     2
 72
     1
 73
     1
 90
        2
 40
-0.6
 41
30.0
 62
     5
 63
     7
 74
     1
 91
        4
 64
     7
 65
   257
 75
     1
175
     1
 42
1.0
 92
        0
 66
   257
 43
1.0
 76
     1
 77
     6
 78
     2
 67
     7
 79
     5
170
     0
171
     0
290
     0
174
     0
 93
        1
 44
0.0
173
     0
291
     1
 45
0.0
1001
ACAD
1000
AcDbSavedByObjectVersion
1070
     0
  0
VISUALSTYLE
  5
9C
102
{ACAD_REACTORS
330
99
102
}
330
99
100
AcDbVisualStyle
  2
Gouraud
 70
     2
 71
     2
 72
     2
 73
     1
 90
        2
 40
-0.6
 41
30.0
 62
     5
 63
     7
 74
     0
 91
        4
 64
     7
 65
   257
 75
     1
175
     1
 42
1.0
 92
        0
 66
     7
 43
1.0
 76
     1
 77
     6
 78
     2
 67
     7
 79
     5
170
     0
171
     0
290
     0
174
     0
 93
        1
 44
0.0
173
     0
291
     1
 45
0.0
1001
ACAD
1000
AcDbSavedByObjectVersion
1070
     0
  0
VISUALSTYLE
  5
9D
102
{ACAD_REACTORS
330
99
102
}
330
99
100
AcDbVisualStyle
  2
GouraudWithEdges
 70
     3
 71
     2
 72
     2
 73
     1
 90
        2
 40
-0.6
 41
30.0
 62
     5
 63
     7
 74
     1
 91
        4
 64
     7
 65
   257
 75
     1
175
     1
 42
1.0
 92
        0
 66
   257
 43
1.0
 76
     1
 77
     6
 78
     2
 67
     7
 79
     5
170
     0
171
     0
290
     0
174
     0
 93
        1
 44
0.0
173
     0
291
     1
 45
0.0
1001
ACAD
1000
AcDbSavedByObjectVersion
1070
     0
  0
VISUALSTYLE
  5
A7
102
{ACAD_REACTORS
330
99
102
}
330
99
100
AcDbVisualStyle
  2
Linepattern
 70
    14
 71
     2
 72
     2
 73
     1
 90
        0
 40
-0.6
 41
-30.0
 62
     5
 63
     7
 74
     1
 91
        4
 64
     7
 65
   257
 75
     7
175
     7
 42
1.0
 92
        8
 66
     7
 43
1.0
 76
     1
 77
     6
 78
     2
 67
     7
 79
     5
170
     0
171
     0
290
     0
174
     0
 93
        1
 44
0.0
173
     0
291
     1
 45
0.0
1001
ACAD
1000
AcDbSavedByObjectVersion
1070
     0
  0
VISUALSTYLE
  5
A3
102
{ACAD_REACTORS
330
99
102
}
330
99
100
AcDbVisualStyle
  2
Realistic
 70
     8
 71
     2
 72
     2
 73
     1
 90
        0
 40
-0.6
 41
-30.0
 62
     5
 63
     7
 74
     1
 91
        0
 64
     7
 65
   257
 75
     1
175
     1
 42
1.0
 92
        8
 66
     8
 43
1.0
 76
     1
 77
     6
 78
     2
 67
     7
 79
     5
170
     0
171
     0
290
     0
174
     0
 93
       13
 44
0.0
173
     0
291
     0
 45
0.0
1001
ACAD
1000
AcDbSavedByObjectVersion
1070
     0
  0
VISUALSTYLE
  5
A6
102
{ACAD_REACTORS
330
99
102
}
330
99
100
AcDbVisualStyle
  2
Thicken
 70
    13
 71
     2
 72
     2
 73
     1
 90
        0
 40
-0.6
 41
-30.0
 62
     5
 63
     7
 74
     1
 91
        4
 64
     7
 65
   257
 75
     1
175
     1
 42
1.0
 92
       12
 66
     7
 43
1.0
 76
     1
 77
     6
 78
     2
 67
     7
 79
     5
170
     0
171
     0
290
     0
174
     0
 93
        1
 44
0.0
173
     0
291
     1
 45
0.0
1001
ACAD
1000
AcDbSavedByObjectVersion
1070
     0
  0
DICTIONARYVAR
  5
89
102
{ACAD_REACTORS
330
66
102
}
330
66
100
DictionaryVariables
280
     0
  1
STANDARD
  0
DICTIONARYVAR
  5
67
102
{ACAD_REACTORS
330
66
102
}
330
66
100
DictionaryVariables
280
     0
  1
2
  0
DICTIONARYVAR
  5
6B
102
{ACAD_REACTORS
330
66
102
}
330
66
100
DictionaryVariables
280
     0
  1
1
  0
DICTIONARYVAR
  5
274
102
{ACAD_REACTORS
330
66
102
}
330
66
100
DictionaryVariables
280
     0
  1
0
  0
DICTIONARYVAR
  5
273
102
{ACAD_REACTORS
330
66
102
}
330
66
100
DictionaryVariables
280
     0
  1
127
  0
DICTIONARY
  5
278
330
59
100
AcDbDictionary
280
     1
281
     1
  3
ACAD_XREC_ROUNDTRIP
360
279
  0
DICTIONARY
  5
27A
330
5E
100
AcDbDictionary
280
     1
281
     1
  3
ACAD_XREC_ROUNDTRIP
360
27B
  0
DICTIONARY
  5
276
330
22
100
AcDbDictionary
280
     1
281
     1
  3
ACAD_XREC_ROUNDTRIP
360
277
  0
DICTIONARY
  5
280
330
97
100
AcDbDictionary
280
     1
281
     1
  3
ACAD_XREC_ROUNDTRIP
360
281
  0
DICTIONARY
  5
27E
330
96
100
AcDbDictionary
280
     1
281
     1
  3
ACAD_XREC_ROUNDTRIP
360
27F
  0
DICTIONARY
  5
282
330
98
100
AcDbDictionary
280
     1
281
     1
  3
ACAD_XREC_ROUNDTRIP
360
283
  0
DICTIONARY
  5
27C
330
87
100
AcDbDictionary
280
     1
281
     1
  3
ACAD_XREC_ROUNDTRIP
360
27D
  0
XRECORD
  5
279
102
{ACAD_REACTORS
330
278
102
}
330
278
100
AcDbXrecord
280
     1
102
SHADEPLOT
 70
     0
102
SHADEPLOTRESLEVEL
 70
     2
102
SHADEPLOTCUSTOMDPI
 70
   300
  0
XRECORD
  5
27B
102
{ACAD_REACTORS
330
27A
102
}
330
27A
100
AcDbXrecord
280
     1
102
SHADEPLOT
 70
     0
102
SHADEPLOTRESLEVEL
 70
     2
102
SHADEPLOTCUSTOMDPI
 70
   300
  0
XRECORD
  5
277
102
{ACAD_REACTORS
330
276
102
}
330
276
100
AcDbXrecord
280
     1
102
SHADEPLOT
 70
     0
102
SHADEPLOTRESLEVEL
 70
     2
102
SHADEPLOTCUSTOMDPI
 70
   300
  0
XRECORD
  5
281
102
{ACAD_REACTORS
330
280
102
}
330
280
100
AcDbXrecord
280
     1
102
MATERIAL
148
0.0
149
0.0
149
0.0
 93
        0
 94
       63
282
     0
 72
     1
 77
     1
171
     1
175
     1
179
     1
273
     0
  0
XRECORD
  5
27F
102
{ACAD_REACTORS
330
27E
102
}
330
27E
100
AcDbXrecord
280
     1
102
MATERIAL
148
0.0
149
0.0
149
0.0
 93
        0
 94
       63
282
     0
 72
     1
 77
     1
171
     1
175
     1
179
     1
273
     0
  0
XRECORD
  5
283
102
{ACAD_REACTORS
330
282
102
}
330
282
100
AcDbXrecord
280
     1
102
MATERIAL
148
0.0
149
0.0
149
0.0
 93
        0
 94
       63
282
     0
 72
     1
 77
     1
171
     1
175
     1
179
     1
273
     0
  0
XRECORD
  5
27D
102
{ACAD_REACTORS
330
27C
102
}
330
27C
100
AcDbXrecord
280
     1
102
ACAD_ROUNDTRIP_PRE2007_TABLESTYLE
 90
      512
 91
        0
  1

 92
      512
 93
        0
  2

 94
      512
 95
        0
  3

  0
ENDSEC
  0
EOF
