  0
SECTION
  2
HEADER
  9
$ACADVER
  1
AC1015
  9
$ACADMAINTVER
 70
    20
  9
$DWGCODEPAGE
  3
ANSI_1252
  9
$INSBASE
 10
0.0
 20
0.0
 30
0.0
  9
$EXTMIN
 10
-40.13941364966774
 20
-33.86750092841435
 30
0.0
  9
$EXTMAX
 10
312.5534194365972
 20
221.0782395496047
 30
0.0
  9
$LIMMIN
 10
0.0
 20
0.0
  9
$LIMMAX
 10
12.0
 20
9.0
  9
$ORTHOMODE
 70
     0
  9
$REGENMODE
 70
     1
  9
$FILLMODE
 70
     1
  9
$QTEXTMODE
 70
     0
  9
$MIRRTEXT
 70
     0
  9
$LTSCALE
 40
1.0
  9
$ATTMODE
 70
     1
  9
$TEXTSIZE
 40
0.2
  9
$TRACEWID
 40
0.05
  9
$TEXTSTYLE
  7
Standard
  9
$CLAYER
  8
0
  9
$CELTYPE
  6
ByLayer
  9
$CECOLOR
 62
   256
  9
$CELTSCALE
 40
1.0
  9
$DISPSILH
 70
     0
  9
$DIMSCALE
 40
1.0
  9
$DIMASZ
 40
0.18
  9
$DIMEXO
 40
0.0625
  9
$DIMDLI
 40
0.38
  9
$DIMRND
 40
0.0
  9
$DIMDLE
 40
0.0
  9
$DIMEXE
 40
0.18
  9
$DIMTP
 40
0.0
  9
$DIMTM
 40
0.0
  9
$DIMTXT
 40
0.18
  9
$DIMCEN
 40
0.09
  9
$DIMTSZ
 40
0.0
  9
$DIMTOL
 70
     0
  9
$DIMLIM
 70
     0
  9
$DIMTIH
 70
     1
  9
$DIMTOH
 70
     1
  9
$DIMSE1
 70
     0
  9
$DIMSE2
 70
     0
  9
$DIMTAD
 70
     0
  9
$DIMZIN
 70
     0
  9
$DIMBLK
  1

  9
$DIMASO
 70
     1
  9
$DIMSHO
 70
     1
  9
$DIMPOST
  1

  9
$DIMAPOST
  1

  9
$DIMALT
 70
     0
  9
$DIMALTD
 70
     2
  9
$DIMALTF
 40
25.4
  9
$DIMLFAC
 40
1.0
  9
$DIMTOFL
 70
     0
  9
$DIMTVP
 40
0.0
  9
$DIMTIX
 70
     0
  9
$DIMSOXD
 70
     0
  9
$DIMSAH
 70
     0
  9
$DIMBLK1
  1

  9
$DIMBLK2
  1

  9
$DIMSTYLE
  2
Standard
  9
$DIMCLRD
 70
     0
  9
$DIMCLRE
 70
     0
  9
$DIMCLRT
 70
     0
  9
$DIMTFAC
 40
1.0
  9
$DIMGAP
 40
0.09
  9
$DIMJUST
 70
     0
  9
$DIMSD1
 70
     0
  9
$DIMSD2
 70
     0
  9
$DIMTOLJ
 70
     1
  9
$DIMTZIN
 70
     0
  9
$DIMALTZ
 70
     0
  9
$DIMALTTZ
 70
     0
  9
$DIMUPT
 70
     0
  9
$DIMDEC
 70
     4
  9
$DIMTDEC
 70
     4
  9
$DIMALTU
 70
     2
  9
$DIMALTTD
 70
     2
  9
$DIMTXSTY
  7
Standard
  9
$DIMAUNIT
 70
     0
  9
$DIMADEC
 70
     0
  9
$DIMALTRND
 40
0.0
  9
$DIMAZIN
 70
     0
  9
$DIMDSEP
 70
    46
  9
$DIMATFIT
 70
     3
  9
$DIMFRAC
 70
     0
  9
$DIMLDRBLK
  1

  9
$DIMLUNIT
 70
     2
  9
$DIMLWD
 70
    -2
  9
$DIMLWE
 70
    -2
  9
$DIMTMOVE
 70
     0
  9
$LUNITS
 70
     2
  9
$LUPREC
 70
     4
  9
$SKETCHINC
 40
0.1
  9
$FILLETRAD
 40
0.0
  9
$AUNITS
 70
     0
  9
$AUPREC
 70
     0
  9
$MENU
  1
.
  9
$ELEVATION
 40
0.0
  9
$PELEVATION
 40
0.0
  9
$THICKNESS
 40
0.0
  9
$LIMCHECK
 70
     0
  9
$CHAMFERA
 40
0.0
  9
$CHAMFERB
 40
0.0
  9
$CHAMFERC
 40
0.0
  9
$CHAMFERD
 40
0.0
  9
$SKPOLY
 70
     0
  9
$TDCREATE
 40
2458472.371593658
  9
$TDUCREATE
 40
2458472.079926991
  9
$TDUPDATE
 40
2458472.372450625
  9
$TDUUPDATE
 40
2458472.080783959
  9
$TDINDWG
 40
0.0008619676
  9
$TDUSRTIMER
 40
0.0008618981
  9
$USRTIMER
 70
     1
  9
$ANGBASE
 50
0.0
  9
$ANGDIR
 70
     0
  9
$PDMODE
 70
     0
  9
$PDSIZE
 40
0.0
  9
$PLINEWID
 40
0.0
  9
$SPLFRAME
 70
     0
  9
$SPLINETYPE
 70
     6
  9
$SPLINESEGS
 70
     8
  9
$HANDSEED
  5
2AD
  9
$SURFTAB1
 70
     6
  9
$SURFTAB2
 70
     6
  9
$SURFTYPE
 70
     6
  9
$SURFU
 70
     6
  9
$SURFV
 70
     6
  9
$UCSBASE
  2

  9
$UCSNAME
  2

  9
$UCSORG
 10
0.0
 20
0.0
 30
0.0
  9
$UCSXDIR
 10
1.0
 20
0.0
 30
0.0
  9
$UCSYDIR
 10
0.0
 20
1.0
 30
0.0
  9
$UCSORTHOREF
  2

  9
$UCSORTHOVIEW
 70
     0
  9
$UCSORGTOP
 10
0.0
 20
0.0
 30
0.0
  9
$UCSORGBOTTOM
 10
0.0
 20
0.0
 30
0.0
  9
$UCSORGLEFT
 10
0.0
 20
0.0
 30
0.0
  9
$UCSORGRIGHT
 10
0.0
 20
0.0
 30
0.0
  9
$UCSORGFRONT
 10
0.0
 20
0.0
 30
0.0
  9
$UCSORGBACK
 10
0.0
 20
0.0
 30
0.0
  9
$PUCSBASE
  2

  9
$PUCSNAME
  2

  9
$PUCSORG
 10
0.0
 20
0.0
 30
0.0
  9
$PUCSXDIR
 10
1.0
 20
0.0
 30
0.0
  9
$PUCSYDIR
 10
0.0
 20
1.0
 30
0.0
  9
$PUCSORTHOREF
  2

  9
$PUCSORTHOVIEW
 70
     0
  9
$PUCSORGTOP
 10
0.0
 20
0.0
 30
0.0
  9
$PUCSORGBOTTOM
 10
0.0
 20
0.0
 30
0.0
  9
$PUCSORGLEFT
 10
0.0
 20
0.0
 30
0.0
  9
$PUCSORGRIGHT
 10
0.0
 20
0.0
 30
0.0
  9
$PUCSORGFRONT
 10
0.0
 20
0.0
 30
0.0
  9
$PUCSORGBACK
 10
0.0
 20
0.0
 30
0.0
  9
$USERI1
 70
     0
  9
$USERI2
 70
     0
  9
$USERI3
 70
     0
  9
$USERI4
 70
     0
  9
$USERI5
 70
     0
  9
$USERR1
 40
0.0
  9
$USERR2
 40
0.0
  9
$USERR3
 40
0.0
  9
$USERR4
 40
0.0
  9
$USERR5
 40
0.0
  9
$WORLDVIEW
 70
     1
  9
$SHADEDGE
 70
     3
  9
$SHADEDIF
 70
    70
  9
$TILEMODE
 70
     1
  9
$MAXACTVP
 70
    64
  9
$PINSBASE
 10
0.0
 20
0.0
 30
0.0
  9
$PLIMCHECK
 70
     0
  9
$PEXTMIN
 10
0.0
 20
0.0
 30
0.0
  9
$PEXTMAX
 10
0.0
 20
0.0
 30
0.0
  9
$PLIMMIN
 10
0.0
 20
0.0
  9
$PLIMMAX
 10
12.0
 20
9.0
  9
$UNITMODE
 70
     0
  9
$VISRETAIN
 70
     1
  9
$PLINEGEN
 70
     0
  9
$PSLTSCALE
 70
     1
  9
$TREEDEPTH
 70
  3020
  9
$CMLSTYLE
  2
Standard
  9
$CMLJUST
 70
     0
  9
$CMLSCALE
 40
1.0
  9
$PROXYGRAPHICS
 70
     1
  9
$MEASUREMENT
 70
     0
  9
$CELWEIGHT
370
    -1
  9
$ENDCAPS
280
     0
  9
$JOINSTYLE
280
     0
  9
$LWDISPLAY
290
     0
  9
$INSUNITS
 70
     1
  9
$HYPERLINKBASE
  1

  9
$STYLESHEET
  1

  9
$XEDIT
290
     1
  9
$CEPSNTYPE
380
     0
  9
$PSTYLEMODE
290
     1
  9
$FINGERPRINTGUID
  2
{D8DB1C49-FD59-46DF-B6F3-F3FD7EEFC41A}
  9
$VERSIONGUID
  2
{5C6539B8-6AC8-4D5F-BDBD-F1A4B6A1FA6D}
  9
$EXTNAMES
290
     1
  9
$PSVPSCALE
 40
0.0
  9
$OLESTARTUP
290
     0
  0
ENDSEC
  0
SECTION
  2
CLASSES
  0
CLASS
  1
ACDBDICTIONARYWDFLT
  2
AcDbDictionaryWithDefault
  3
ObjectDBX Classes
 90
        0
280
     0
281
     0
  0
CLASS
  1
ACDBPLACEHOLDER
  2
AcDbPlaceHolder
  3
ObjectDBX Classes
 90
        0
280
     0
281
     0
  0
CLASS
  1
LAYOUT
  2
AcDbLayout
  3
ObjectDBX Classes
 90
        0
280
     0
281
     0
  0
CLASS
  1
DICTIONARYVAR
  2
AcDbDictionaryVar
  3
ObjectDBX Classes
 90
        0
280
     0
281
     0
  0
CLASS
  1
TABLESTYLE
  2
AcDbTableStyle
  3
ObjectDBX Classes
 90
     4095
280
     0
281
     0
  0
CLASS
  1
MATERIAL
  2
AcDbMaterial
  3
ObjectDBX Classes
 90
     1153
280
     0
281
     0
  0
CLASS
  1
VISUALSTYLE
  2
AcDbVisualStyle
  3
ObjectDBX Classes
 90
     4095
280
     0
281
     0
  0
CLASS
  1
DIMASSOC
  2
AcDbDimAssoc
  3
"AcDbDimAssoc|Product Desc:     AcDim ARX App For Dimension|Company:          Autodesk, Inc.|WEB Address:      www.autodesk.com"
 90
        0
280
     0
281
     0
  0
CLASS
  1
SORTENTSTABLE
  2
AcDbSortentsTable
  3
ObjectDBX Classes
 90
        0
280
     0
281
     0
  0
ENDSEC
  0
SECTION
  2
TABLES
  0
TABLE
  2
VPORT
  5
8
330
0
100
AcDbSymbolTable
 70
     1
  0
VPORT
  5
94
330
8
100
AcDbSymbolTableRecord
100
AcDbViewportTableRecord
  2
*Active
 70
     0
 10
0.0
 20
0.0
 11
1.0
 21
1.0
 12
102.0184101154176
 22
131.0422067473334
 13
0.0
 23
0.0
 14
0.5
 24
0.5
 15
0.5
 25
0.5
 16
0.0
 26
0.0
 36
1.0
 17
0.0
 27
0.0
 37
0.0
 40
356.4144169951067
 41
2.189852700490998
 42
50.0
 43
0.0
 44
0.0
 50
0.0
 51
0.0
 71
     0
 72
  1000
 73
     1
 74
     3
 75
     0
 76
     0
 77
     0
 78
     0
281
     0
 65
     1
110
0.0
120
0.0
130
0.0
111
1.0
121
0.0
131
0.0
112
0.0
122
1.0
132
0.0
 79
     0
146
0.0
  0
ENDTAB
  0
TABLE
  2
LTYPE
  5
5
330
0
100
AcDbSymbolTable
 70
     1
  0
LTYPE
  5
14
330
5
100
AcDbSymbolTableRecord
100
AcDbLinetypeTableRecord
  2
ByBlock
 70
     0
  3

 72
    65
 73
     0
 40
0.0
  0
LTYPE
  5
15
330
5
100
AcDbSymbolTableRecord
100
AcDbLinetypeTableRecord
  2
ByLayer
 70
     0
  3

 72
    65
 73
     0
 40
0.0
  0
LTYPE
  5
16
330
5
100
AcDbSymbolTableRecord
100
AcDbLinetypeTableRecord
  2
Continuous
 70
     0
  3
Solid line
 72
    65
 73
     0
 40
0.0
  0
ENDTAB
  0
TABLE
  2
LAYER
  5
2
102
{ACAD_XDICTIONARY
360
116
102
}
330
0
100
AcDbSymbolTable
 70
     2
  0
LAYER
  5
10
330
2
100
AcDbSymbolTableRecord
100
AcDbLayerTableRecord
  2
0
 70
     0
 62
     7
  6
Continuous
370
    -3
390
F
  0
LAYER
  5
111
330
2
100
AcDbSymbolTableRecord
100
AcDbLayerTableRecord
  2
Defpoints
 70
     0
 62
     7
  6
Continuous
290
     0
370
    -3
390
F
  0
ENDTAB
  0
TABLE
  2
STYLE
  5
3
330
0
100
AcDbSymbolTable
 70
     2
  0
STYLE
  5
11
330
3
100
AcDbSymbolTableRecord
100
AcDbTextStyleTableRecord
  2
Standard
 70
     0
 40
0.0
 41
1.0
 50
0.0
 71
     0
 42
0.2
  3
txt
  4

  0
STYLE
  5
112
330
3
100
AcDbSymbolTableRecord
100
AcDbTextStyleTableRecord
  2
Binh
 70
     0
 40
0.0
 41
1.0
 50
0.0
 71
     0
 42
25.0
  3

  4

1001
ACAD
1000
VNI-Helve-Condense
1071
        2
  0
ENDTAB
  0
TABLE
  2
VIEW
  5
6
330
0
100
AcDbSymbolTable
 70
     0
  0
ENDTAB
  0
TABLE
  2
UCS
  5
7
330
0
100
AcDbSymbolTable
 70
     0
  0
ENDTAB
  0
TABLE
  2
APPID
  5
9
330
0
100
AcDbSymbolTable
 70
     2
  0
APPID
  5
12
330
9
100
AcDbSymbolTableRecord
100
AcDbRegAppTableRecord
  2
ACAD
 70
     0
  0
APPID
  5
115
330
9
100
AcDbSymbolTableRecord
100
AcDbRegAppTableRecord
  2
ACAD_PSEXT
 70
     0
  0
ENDTAB
  0
TABLE
  2
DIMSTYLE
  5
A
330
0
100
AcDbSymbolTable
 70
     3
100
AcDbDimStyleTable
 71
     0
  0
DIMSTYLE
105
27
330
A
100
AcDbSymbolTableRecord
100
AcDbDimStyleTableRecord
  2
Standard
 70
     0
340
11
  0
DIMSTYLE
105
113
330
A
100
AcDbSymbolTableRecord
100
AcDbDimStyleTableRecord
  2
SS
 70
     0
 40
1.5
 41
3.0
 42
2.0
 43
1.0
 44
2.0
 73
     0
 74
     0
 77
     1
140
3.0
147
0.5
176
     1
177
     1
178
     7
340
11
  0
DIMSTYLE
105
114
102
{ACAD_REACTORS
330
196
330
199
330
19C
330
19D
330
1A0
330
1A3
330
1A6
330
22C
330
22F
330
232
330
233
330
236
330
239
330
23C
102
}
330
A
100
AcDbSymbolTableRecord
100
AcDbDimStyleTableRecord
  2
TRIEU
 70
     0
 40
0.5
 41
30.0
 42
0.0
 43
0.0
 44
20.0
 73
     0
 77
     3
 78
     8
140
30.0
141
0.0
146
0.0000052631578947
147
10.0
172
     1
174
     1
176
     8
177
     8
178
     3
271
     0
272
     0
275
     1
279
     2
284
     8
340
112
342
B9
  0
ENDTAB
  0
TABLE
  2
BLOCK_RECORD
  5
1
330
0
100
AcDbSymbolTable
 70
    17
  0
BLOCK_RECORD
  5
1F
330
1
100
AcDbSymbolTableRecord
100
AcDbBlockTableRecord
  2
*Model_Space
340
22
  0
BLOCK_RECORD
  5
58
330
1
100
AcDbSymbolTableRecord
100
AcDbBlockTableRecord
  2
*Paper_Space
340
59
  0
BLOCK_RECORD
  5
5D
330
1
100
AcDbSymbolTableRecord
100
AcDbBlockTableRecord
  2
*Paper_Space0
340
5E
  0
BLOCK_RECORD
  5
B9
330
1
100
AcDbSymbolTableRecord
100
AcDbBlockTableRecord
  2
_Oblique
340
0
102
{BLKREFS
331
C2
331
C3
331
CE
331
CF
331
DA
331
DB
331
E6
331
E7
331
F2
331
F3
331
FE
331
FF
331
10A
331
10B
331
24F
331
250
331
25B
331
25C
331
266
331
267
331
270
331
271
331
27C
331
27D
331
288
331
289
331
294
331
295
102
}
  0
BLOCK_RECORD
  5
BD
330
1
100
AcDbSymbolTableRecord
100
AcDbBlockTableRecord
  2
*D2
340
0
  0
BLOCK_RECORD
  5
C9
330
1
100
AcDbSymbolTableRecord
100
AcDbBlockTableRecord
  2
*D3
340
0
  0
BLOCK_RECORD
  5
D5
330
1
100
AcDbSymbolTableRecord
100
AcDbBlockTableRecord
  2
*D4
340
0
  0
BLOCK_RECORD
  5
E1
330
1
100
AcDbSymbolTableRecord
100
AcDbBlockTableRecord
  2
*D5
340
0
  0
BLOCK_RECORD
  5
ED
330
1
100
AcDbSymbolTableRecord
100
AcDbBlockTableRecord
  2
*D6
340
0
  0
BLOCK_RECORD
  5
F9
330
1
100
AcDbSymbolTableRecord
100
AcDbBlockTableRecord
  2
*D7
340
0
  0
BLOCK_RECORD
  5
105
330
1
100
AcDbSymbolTableRecord
100
AcDbBlockTableRecord
  2
*D8
340
0
  0
BLOCK_RECORD
  5
23F
330
1
100
AcDbSymbolTableRecord
100
AcDbBlockTableRecord
  2
*D10
340
0
  0
BLOCK_RECORD
  5
24B
330
1
100
AcDbSymbolTableRecord
100
AcDbBlockTableRecord
  2
*D11
340
0
  0
BLOCK_RECORD
  5
257
330
1
100
AcDbSymbolTableRecord
100
AcDbBlockTableRecord
  2
*D12
340
0
  0
BLOCK_RECORD
  5
26C
330
1
100
AcDbSymbolTableRecord
100
AcDbBlockTableRecord
  2
*D13
340
0
  0
BLOCK_RECORD
  5
278
330
1
100
AcDbSymbolTableRecord
100
AcDbBlockTableRecord
  2
*D14
340
0
  0
BLOCK_RECORD
  5
284
330
1
100
AcDbSymbolTableRecord
100
AcDbBlockTableRecord
  2
*D15
340
0
  0
BLOCK_RECORD
  5
290
330
1
100
AcDbSymbolTableRecord
100
AcDbBlockTableRecord
  2
*D16
340
0
  0
ENDTAB
  0
ENDSEC
  0
SECTION
  2
BLOCKS
  0
BLOCK
  5
20
330
1F
100
AcDbEntity
  8
0
100
AcDbBlockBegin
  2
*Model_Space
 70
     0
 10
0.0
 20
0.0
 30
0.0
  3
*Model_Space
  1

  0
ENDBLK
  5
21
330
1F
100
AcDbEntity
  8
0
100
AcDbBlockEnd
  0
BLOCK
  5
5A
330
58
100
AcDbEntity
 67
     1
  8
0
100
AcDbBlockBegin
  2
*Paper_Space
 70
     0
 10
0.0
 20
0.0
 30
0.0
  3
*Paper_Space
  1

  0
ENDBLK
  5
5B
330
58
100
AcDbEntity
 67
     1
  8
0
100
AcDbBlockEnd
  0
BLOCK
  5
5F
330
5D
100
AcDbEntity
 67
     1
  8
0
100
AcDbBlockBegin
  2
*Paper_Space0
 70
     0
 10
0.0
 20
0.0
 30
0.0
  3
*Paper_Space0
  1

  0
ENDBLK
  5
60
330
5D
100
AcDbEntity
 67
     1
  8
0
100
AcDbBlockEnd
  0
BLOCK
  5
BA
330
B9
100
AcDbEntity
  8
0
100
AcDbBlockBegin
  2
_Oblique
 70
     0
 10
0.0
 20
0.0
 30
0.0
  3
_Oblique
  1

  0
LINE
  5
BB
330
B9
100
AcDbEntity
  8
0
  6
ByBlock
 62
     0
370
    -2
100
AcDbLine
 10
-0.5
 20
-0.5
 30
0.0
 11
0.5
 21
0.5
 31
0.0
  0
ENDBLK
  5
BC
330
B9
100
AcDbEntity
  8
0
100
AcDbBlockEnd
  0
BLOCK
  5
BE
330
BD
100
AcDbEntity
  8
0
370
    40
100
AcDbBlockBegin
  2
*D2
 70
     1
 10
0.0
 20
0.0
 30
0.0
  3
*D2
  1

  0
LINE
  5
BF
330
BD
100
AcDbEntity
  8
0
 62
     8
370
    -2
100
AcDbLine
 10
-756.5887335064883
 20
-390.3846946576668
 30
0.0
 11
-786.7995221316407
 21
-390.3846946576668
 31
0.0
  0
LINE
  5
C0
330
BD
100
AcDbEntity
  8
0
 62
     8
370
    -2
100
AcDbLine
 10
-756.5887335064883
 20
-490.3846946576668
 30
0.0
 11
-786.7995221316407
 21
-490.3846946576668
 31
0.0
  0
LINE
  5
C1
330
BD
100
AcDbEntity
  8
0
 62
     8
370
    -2
100
AcDbLine
 10
-776.7995221316407
 20
-390.3846946576668
 30
0.0
 11
-776.7995221316407
 21
-490.3846946576668
 31
0.0
  0
INSERT
  5
C2
330
BD
100
AcDbEntity
  8
0
 62
     8
370
    -2
100
AcDbBlockReference
  2
_Oblique
 10
-776.7995221316407
 20
-390.3846946576668
 30
0.0
 41
15.0
 42
15.0
 43
15.0
 50
90.0
  0
INSERT
  5
C3
330
BD
100
AcDbEntity
  8
0
 62
     8
370
    -2
100
AcDbBlockReference
  2
_Oblique
 10
-776.7995221316407
 20
-490.3846946576668
 30
0.0
 41
15.0
 42
15.0
 43
15.0
 50
270.0
  0
MTEXT
  5
C4
330
BD
100
AcDbEntity
  8
0
 62
     3
370
    40
100
AcDbMText
 10
-787.5497721316406
 20
-440.384694657667
 30
0.0
 40
15.0
 41
0.0
 71
     5
 72
     1
  1
\A1;{\H0.7667x;\C256;100}
  7
Binh
 11
0.0000000000000001
 21
1.0
 31
0.0
 73
     1
 44
1.0
1001
ACAD
1000
MTEXTBEGIN
1070
    73
1070
     1
1070
    44
1040
1.0
1070
    74
1070
     0
1000
MTEXTEND
  0
POINT
  5
C5
330
BD
100
AcDbEntity
  8
Defpoints
 62
     0
370
    40
100
AcDbPoint
 10
-756.5887335064883
 20
-390.3846946576668
 30
0.0
  0
POINT
  5
C6
330
BD
100
AcDbEntity
  8
Defpoints
 62
     0
370
    40
100
AcDbPoint
 10
-756.5887335064883
 20
-490.3846946576668
 30
0.0
  0
POINT
  5
C7
330
BD
100
AcDbEntity
  8
Defpoints
 62
     0
370
    40
100
AcDbPoint
 10
-776.7995221316407
 20
-490.3846946576668
 30
0.0
  0
ENDBLK
  5
C8
330
BD
100
AcDbEntity
  8
0
370
    40
100
AcDbBlockEnd
  0
BLOCK
  5
CA
330
C9
100
AcDbEntity
  8
0
370
    40
100
AcDbBlockBegin
  2
*D3
 70
     1
 10
0.0
 20
0.0
 30
0.0
  3
*D3
  1

  0
LINE
  5
CB
330
C9
100
AcDbEntity
  8
0
 62
     8
370
    -2
100
AcDbLine
 10
-756.5887335064883
 20
-390.3846946576669
 30
0.0
 11
-756.5887335064883
 21
-363.3209735042255
 31
0.0
  0
LINE
  5
CC
330
C9
100
AcDbEntity
  8
0
 62
     8
370
    -2
100
AcDbLine
 10
-592.5887335064883
 20
-390.3846946576669
 30
0.0
 11
-592.5887335064883
 21
-363.3209735042255
 31
0.0
  0
LINE
  5
CD
330
C9
100
AcDbEntity
  8
0
 62
     8
370
    -2
100
AcDbLine
 10
-756.5887335064883
 20
-373.3209735042255
 30
0.0
 11
-592.5887335064883
 21
-373.3209735042255
 31
0.0
  0
INSERT
  5
CE
330
C9
100
AcDbEntity
  8
0
 62
     8
370
    -2
100
AcDbBlockReference
  2
_Oblique
 10
-756.5887335064883
 20
-373.3209735042255
 30
0.0
 41
15.0
 42
15.0
 43
15.0
 50
180.0
  0
INSERT
  5
CF
330
C9
100
AcDbEntity
  8
0
 62
     8
370
    -2
100
AcDbBlockReference
  2
_Oblique
 10
-592.5887335064883
 20
-373.3209735042255
 30
0.0
 41
15.0
 42
15.0
 43
15.0
  0
MTEXT
  5
D0
330
C9
100
AcDbEntity
  8
0
 62
     3
370
    40
100
AcDbMText
 10
-674.5887335064883
 20
-362.5707235042256
 30
0.0
 40
15.0
 41
0.0
 71
     5
 72
     1
  1
\A1;{\H0.7667x;\C256;164}
  7
Binh
 73
     1
 44
1.0
1001
ACAD
1000
MTEXTBEGIN
1070
    73
1070
     1
1070
    44
1040
1.0
1070
    74
1070
     0
1000
MTEXTEND
  0
POINT
  5
D1
330
C9
100
AcDbEntity
  8
Defpoints
 62
     0
370
    40
100
AcDbPoint
 10
-756.5887335064883
 20
-390.3846946576669
 30
0.0
  0
POINT
  5
D2
330
C9
100
AcDbEntity
  8
Defpoints
 62
     0
370
    40
100
AcDbPoint
 10
-592.5887335064883
 20
-390.3846946576669
 30
0.0
  0
POINT
  5
D3
330
C9
100
AcDbEntity
  8
Defpoints
 62
     0
370
    40
100
AcDbPoint
 10
-592.5887335064883
 20
-373.3209735042255
 30
0.0
  0
ENDBLK
  5
D4
330
C9
100
AcDbEntity
  8
0
370
    40
100
AcDbBlockEnd
  0
BLOCK
  5
D6
330
D5
100
AcDbEntity
  8
0
370
    40
100
AcDbBlockBegin
  2
*D4
 70
     1
 10
0.0
 20
0.0
 30
0.0
  3
*D4
  1

  0
LINE
  5
D7
330
D5
100
AcDbEntity
  8
0
 62
     8
370
    -2
100
AcDbLine
 10
-469.036401331544
 20
-553.6776071633721
 30
0.0
 11
-440.6071890453758
 21
-553.6776071633721
 31
0.0
  0
LINE
  5
D8
330
D5
100
AcDbEntity
  8
0
 62
     8
370
    -2
100
AcDbLine
 10
-473.036401331544
 20
-603.6776071633721
 30
0.0
 11
-440.6071890453758
 21
-603.6776071633721
 31
0.0
  0
LINE
  5
D9
330
D5
100
AcDbEntity
  8
0
 62
     8
370
    -2
100
AcDbLine
 10
-450.6071890453758
 20
-553.6776071633721
 30
0.0
 11
-450.6071890453758
 21
-603.6776071633721
 31
0.0
  0
INSERT
  5
DA
330
D5
100
AcDbEntity
  8
0
 62
     8
370
    -2
100
AcDbBlockReference
  2
_Oblique
 10
-450.6071890453758
 20
-553.6776071633721
 30
0.0
 41
15.0
 42
15.0
 43
15.0
 50
90.0
  0
INSERT
  5
DB
330
D5
100
AcDbEntity
  8
0
 62
     8
370
    -2
100
AcDbBlockReference
  2
_Oblique
 10
-450.6071890453758
 20
-603.6776071633721
 30
0.0
 41
15.0
 42
15.0
 43
15.0
 50
270.0
  0
MTEXT
  5
DC
330
D5
100
AcDbEntity
  8
0
 62
     3
370
    40
100
AcDbMText
 10
-461.3574390453758
 20
-578.6776071633722
 30
0.0
 40
15.0
 41
0.0
 71
     5
 72
     1
  1
\A1;{\H0.7667x;\C256;50}
  7
Binh
 11
0.0000000000000001
 21
1.0
 31
0.0
 73
     1
 44
1.0
1001
ACAD
1000
MTEXTBEGIN
1070
    73
1070
     1
1070
    44
1040
1.0
1070
    74
1070
     0
1000
MTEXTEND
  0
POINT
  5
DD
330
D5
100
AcDbEntity
  8
Defpoints
 62
     0
370
    40
100
AcDbPoint
 10
-469.036401331544
 20
-553.6776071633721
 30
0.0
  0
POINT
  5
DE
330
D5
100
AcDbEntity
  8
Defpoints
 62
     0
370
    40
100
AcDbPoint
 10
-473.036401331544
 20
-603.6776071633721
 30
0.0
  0
POINT
  5
DF
330
D5
100
AcDbEntity
  8
Defpoints
 62
     0
370
    40
100
AcDbPoint
 10
-450.6071890453758
 20
-603.6776071633721
 30
0.0
  0
ENDBLK
  5
E0
330
D5
100
AcDbEntity
  8
0
370
    40
100
AcDbBlockEnd
  0
BLOCK
  5
E2
330
E1
100
AcDbEntity
  8
0
370
    40
100
AcDbBlockBegin
  2
*D5
 70
     1
 10
0.0
 20
0.0
 30
0.0
  3
*D5
  1

  0
LINE
  5
E3
330
E1
100
AcDbEntity
  8
0
 62
     8
370
    -2
100
AcDbLine
 10
-752.5887335064883
 20
-557.6776071633721
 30
0.0
 11
-752.5887335064883
 21
-531.1119993068869
 31
0.0
  0
LINE
  5
E4
330
E1
100
AcDbEntity
  8
0
 62
     8
370
    -2
100
AcDbLine
 10
-596.5887335064883
 20
-557.6776071633721
 30
0.0
 11
-596.5887335064883
 21
-531.1119993068869
 31
0.0
  0
LINE
  5
E5
330
E1
100
AcDbEntity
  8
0
 62
     8
370
    -2
100
AcDbLine
 10
-752.5887335064883
 20
-541.1119993068869
 30
0.0
 11
-596.5887335064883
 21
-541.1119993068869
 31
0.0
  0
INSERT
  5
E6
330
E1
100
AcDbEntity
  8
0
 62
     8
370
    -2
100
AcDbBlockReference
  2
_Oblique
 10
-752.5887335064883
 20
-541.1119993068869
 30
0.0
 41
15.0
 42
15.0
 43
15.0
 50
180.0
  0
INSERT
  5
E7
330
E1
100
AcDbEntity
  8
0
 62
     8
370
    -2
100
AcDbBlockReference
  2
_Oblique
 10
-596.5887335064883
 20
-541.1119993068869
 30
0.0
 41
15.0
 42
15.0
 43
15.0
  0
MTEXT
  5
E8
330
E1
100
AcDbEntity
  8
0
 62
     3
370
    40
100
AcDbMText
 10
-674.5887335064883
 20
-530.3617493068868
 30
0.0
 40
15.0
 41
0.0
 71
     5
 72
     1
  1
\A1;{\H0.7667x;\C256;156}
  7
Binh
 73
     1
 44
1.0
1001
ACAD
1000
MTEXTBEGIN
1070
    73
1070
     1
1070
    44
1040
1.0
1070
    74
1070
     0
1000
MTEXTEND
  0
POINT
  5
E9
330
E1
100
AcDbEntity
  8
Defpoints
 62
     0
370
    40
100
AcDbPoint
 10
-752.5887335064883
 20
-557.6776071633721
 30
0.0
  0
POINT
  5
EA
330
E1
100
AcDbEntity
  8
Defpoints
 62
     0
370
    40
100
AcDbPoint
 10
-596.5887335064883
 20
-557.6776071633721
 30
0.0
  0
POINT
  5
EB
330
E1
100
AcDbEntity
  8
Defpoints
 62
     0
370
    40
100
AcDbPoint
 10
-596.5887335064883
 20
-541.1119993068869
 30
0.0
  0
ENDBLK
  5
EC
330
E1
100
AcDbEntity
  8
0
370
    40
100
AcDbBlockEnd
  0
BLOCK
  5
EE
330
ED
100
AcDbEntity
  8
0
370
    40
100
AcDbBlockBegin
  2
*D6
 70
     1
 10
0.0
 20
0.0
 30
0.0
  3
*D6
  1

  0
LINE
  5
EF
330
ED
100
AcDbEntity
  8
0
 62
     8
370
    -2
100
AcDbLine
 10
-756.5887335064883
 20
-553.6776071633721
 30
0.0
 11
-756.5887335064883
 21
-511.465794976626
 31
0.0
  0
LINE
  5
F0
330
ED
100
AcDbEntity
  8
0
 62
     8
370
    -2
100
AcDbLine
 10
-592.5887335064883
 20
-553.6776071633721
 30
0.0
 11
-592.5887335064883
 21
-511.465794976626
 31
0.0
  0
LINE
  5
F1
330
ED
100
AcDbEntity
  8
0
 62
     8
370
    -2
100
AcDbLine
 10
-756.5887335064883
 20
-521.4657949766261
 30
0.0
 11
-592.5887335064883
 21
-521.4657949766261
 31
0.0
  0
INSERT
  5
F2
330
ED
100
AcDbEntity
  8
0
 62
     8
370
    -2
100
AcDbBlockReference
  2
_Oblique
 10
-756.5887335064883
 20
-521.4657949766261
 30
0.0
 41
15.0
 42
15.0
 43
15.0
 50
180.0
  0
INSERT
  5
F3
330
ED
100
AcDbEntity
  8
0
 62
     8
370
    -2
100
AcDbBlockReference
  2
_Oblique
 10
-592.5887335064883
 20
-521.4657949766261
 30
0.0
 41
15.0
 42
15.0
 43
15.0
  0
MTEXT
  5
F4
330
ED
100
AcDbEntity
  8
0
 62
     3
370
    40
100
AcDbMText
 10
-674.5887335064883
 20
-510.715544976626
 30
0.0
 40
15.0
 41
0.0
 71
     5
 72
     1
  1
\A1;{\H0.7667x;\C256;164}
  7
Binh
 73
     1
 44
1.0
1001
ACAD
1000
MTEXTBEGIN
1070
    73
1070
     1
1070
    44
1040
1.0
1070
    74
1070
     0
1000
MTEXTEND
  0
POINT
  5
F5
330
ED
100
AcDbEntity
  8
Defpoints
 62
     0
370
    40
100
AcDbPoint
 10
-756.5887335064883
 20
-553.6776071633721
 30
0.0
  0
POINT
  5
F6
330
ED
100
AcDbEntity
  8
Defpoints
 62
     0
370
    40
100
AcDbPoint
 10
-592.5887335064883
 20
-553.6776071633721
 30
0.0
  0
POINT
  5
F7
330
ED
100
AcDbEntity
  8
Defpoints
 62
     0
370
    40
100
AcDbPoint
 10
-592.5887335064883
 20
-521.4657949766261
 30
0.0
  0
ENDBLK
  5
F8
330
ED
100
AcDbEntity
  8
0
370
    40
100
AcDbBlockEnd
  0
BLOCK
  5
FA
330
F9
100
AcDbEntity
  8
0
370
    40
100
AcDbBlockBegin
  2
*D7
 70
     1
 10
0.0
 20
0.0
 30
0.0
  3
*D7
  1

  0
LINE
  5
FB
330
F9
100
AcDbEntity
  8
0
 62
     8
370
    -2
100
AcDbLine
 10
-565.036401331544
 20
-557.6776071633721
 30
0.0
 11
-565.036401331544
 21
-532.1235729342008
 31
0.0
  0
LINE
  5
FC
330
F9
100
AcDbEntity
  8
0
 62
     8
370
    -2
100
AcDbLine
 10
-473.036401331544
 20
-557.6776071633721
 30
0.0
 11
-473.036401331544
 21
-532.1235729342008
 31
0.0
  0
LINE
  5
FD
330
F9
100
AcDbEntity
  8
0
 62
     8
370
    -2
100
AcDbLine
 10
-565.036401331544
 20
-542.1235729342008
 30
0.0
 11
-473.036401331544
 21
-542.1235729342008
 31
0.0
  0
INSERT
  5
FE
330
F9
100
AcDbEntity
  8
0
 62
     8
370
    -2
100
AcDbBlockReference
  2
_Oblique
 10
-565.036401331544
 20
-542.1235729342008
 30
0.0
 41
15.0
 42
15.0
 43
15.0
 50
180.0
  0
INSERT
  5
FF
330
F9
100
AcDbEntity
  8
0
 62
     8
370
    -2
100
AcDbBlockReference
  2
_Oblique
 10
-473.036401331544
 20
-542.1235729342008
 30
0.0
 41
15.0
 42
15.0
 43
15.0
  0
MTEXT
  5
100
330
F9
100
AcDbEntity
  8
0
 62
     3
370
    40
100
AcDbMText
 10
-519.036401331544
 20
-531.3733229342008
 30
0.0
 40
15.0
 41
0.0
 71
     5
 72
     1
  1
\A1;{\H0.7667x;\C256;92}
  7
Binh
 73
     1
 44
1.0
1001
ACAD
1000
MTEXTBEGIN
1070
    73
1070
     1
1070
    44
1040
1.0
1070
    74
1070
     0
1000
MTEXTEND
  0
POINT
  5
101
330
F9
100
AcDbEntity
  8
Defpoints
 62
     0
370
    40
100
AcDbPoint
 10
-565.036401331544
 20
-557.6776071633721
 30
0.0
  0
POINT
  5
102
330
F9
100
AcDbEntity
  8
Defpoints
 62
     0
370
    40
100
AcDbPoint
 10
-473.036401331544
 20
-557.6776071633721
 30
0.0
  0
POINT
  5
103
330
F9
100
AcDbEntity
  8
Defpoints
 62
     0
370
    40
100
AcDbPoint
 10
-473.036401331544
 20
-542.1235729342008
 30
0.0
  0
ENDBLK
  5
104
330
F9
100
AcDbEntity
  8
0
370
    40
100
AcDbBlockEnd
  0
BLOCK
  5
106
330
105
100
AcDbEntity
  8
0
370
    40
100
AcDbBlockBegin
  2
*D8
 70
     1
 10
0.0
 20
0.0
 30
0.0
  3
*D8
  1

  0
LINE
  5
107
330
105
100
AcDbEntity
  8
0
 62
     8
370
    -2
100
AcDbLine
 10
-569.036401331544
 20
-553.6776071633721
 30
0.0
 11
-569.036401331544
 21
-513.091614277848
 31
0.0
  0
LINE
  5
108
330
105
100
AcDbEntity
  8
0
 62
     8
370
    -2
100
AcDbLine
 10
-469.036401331544
 20
-553.6776071633721
 30
0.0
 11
-469.036401331544
 21
-513.091614277848
 31
0.0
  0
LINE
  5
109
330
105
100
AcDbEntity
  8
0
 62
     8
370
    -2
100
AcDbLine
 10
-569.036401331544
 20
-523.0916142778481
 30
0.0
 11
-469.036401331544
 21
-523.0916142778481
 31
0.0
  0
INSERT
  5
10A
330
105
100
AcDbEntity
  8
0
 62
     8
370
    -2
100
AcDbBlockReference
  2
_Oblique
 10
-569.036401331544
 20
-523.0916142778481
 30
0.0
 41
15.0
 42
15.0
 43
15.0
 50
180.0
  0
INSERT
  5
10B
330
105
100
AcDbEntity
  8
0
 62
     8
370
    -2
100
AcDbBlockReference
  2
_Oblique
 10
-469.036401331544
 20
-523.0916142778481
 30
0.0
 41
15.0
 42
15.0
 43
15.0
  0
MTEXT
  5
10C
330
105
100
AcDbEntity
  8
0
 62
     3
370
    40
100
AcDbMText
 10
-519.036401331544
 20
-512.341364277848
 30
0.0
 40
15.0
 41
0.0
 71
     5
 72
     1
  1
\A1;{\H0.7667x;\C256;100}
  7
Binh
 73
     1
 44
1.0
1001
ACAD
1000
MTEXTBEGIN
1070
    73
1070
     1
1070
    44
1040
1.0
1070
    74
1070
     0
1000
MTEXTEND
  0
POINT
  5
10D
330
105
100
AcDbEntity
  8
Defpoints
 62
     0
370
    40
100
AcDbPoint
 10
-569.036401331544
 20
-553.6776071633721
 30
0.0
  0
POINT
  5
10E
330
105
100
AcDbEntity
  8
Defpoints
 62
     0
370
    40
100
AcDbPoint
 10
-469.036401331544
 20
-553.6776071633721
 30
0.0
  0
POINT
  5
10F
330
105
100
AcDbEntity
  8
Defpoints
 62
     0
370
    40
100
AcDbPoint
 10
-469.036401331544
 20
-523.0916142778481
 30
0.0
  0
ENDBLK
  5
110
330
105
100
AcDbEntity
  8
0
370
    40
100
AcDbBlockEnd
  0
BLOCK
  5
249
330
23F
100
AcDbEntity
  8
0
100
AcDbBlockBegin
  2
*D10
 70
     1
 10
0.0
 20
0.0
 30
0.0
  3
*D10
  1

  0
LINE
  5
263
330
23F
100
AcDbEntity
  8
0
 62
     8
370
    -2
100
AcDbLine
 10
284.1242071504289
 20
24.22110589045809
 30
0.0
 11
312.5534194365972
 21
24.22110589045809
 31
0.0
  0
LINE
  5
264
330
23F
100
AcDbEntity
  8
0
 62
     8
370
    -2
100
AcDbLine
 10
280.1242071504289
 20
-25.77889410954191
 30
0.0
 11
312.5534194365972
 21
-25.77889410954192
 31
0.0
  0
LINE
  5
265
330
23F
100
AcDbEntity
  8
0
 62
     8
370
    -2
100
AcDbLine
 10
302.5534194365972
 20
24.22110589045809
 30
0.0
 11
302.5534194365972
 21
-25.77889410954191
 31
0.0
  0
INSERT
  5
266
330
23F
100
AcDbEntity
  8
0
 62
     8
370
    -2
100
AcDbBlockReference
  2
_Oblique
 10
302.5534194365972
 20
24.22110589045809
 30
0.0
 41
15.0
 42
15.0
 43
15.0
 50
90.0
  0
INSERT
  5
267
330
23F
100
AcDbEntity
  8
0
 62
     8
370
    -2
100
AcDbBlockReference
  2
_Oblique
 10
302.5534194365972
 20
-25.77889410954191
 30
0.0
 41
15.0
 42
15.0
 43
15.0
 50
270.0
  0
MTEXT
  5
268
330
23F
100
AcDbEntity
  8
0
 62
     3
370
    40
100
AcDbMText
 10
291.8031694365972
 20
-0.7788941095418624
 30
0.0
 40
15.0
 41
0.0
 71
     5
 72
     1
  1
\A1;{\H0.7667x;\C256;50}
  7
Binh
 11
0.0000000000000001
 21
1.0
 31
0.0
 73
     1
 44
1.0
1001
ACAD
1000
MTEXTBEGIN
1070
    73
1070
     1
1070
    44
1040
1.0
1070
    74
1070
     0
1000
MTEXTEND
  0
POINT
  5
269
330
23F
100
AcDbEntity
  8
Defpoints
 62
     0
100
AcDbPoint
 10
284.1242071504289
 20
24.22110589045809
 30
0.0
  0
POINT
  5
26A
330
23F
100
AcDbEntity
  8
Defpoints
 62
     0
100
AcDbPoint
 10
280.1242071504289
 20
-25.77889410954191
 30
0.0
  0
POINT
  5
26B
330
23F
100
AcDbEntity
  8
Defpoints
 62
     0
100
AcDbPoint
 10
302.5534194365972
 20
-25.77889410954191
 30
0.0
  0
ENDBLK
  5
24A
330
23F
100
AcDbEntity
  8
0
100
AcDbBlockEnd
  0
BLOCK
  5
255
330
24B
100
AcDbEntity
  8
0
100
AcDbBlockBegin
  2
*D11
 70
     1
 10
0.0
 20
0.0
 30
0.0
  3
*D11
  1

  0
LINE
  5
24C
330
24B
100
AcDbEntity
  8
0
 62
     8
370
    -2
100
AcDbLine
 10
-3.428125024515318
 20
187.5140183961633
 30
0.0
 11
-33.63891364966771
 21
187.5140183961633
 31
0.0
  0
LINE
  5
24D
330
24B
100
AcDbEntity
  8
0
 62
     8
370
    -2
100
AcDbLine
 10
-3.428125024515314
 20
87.51401839616336
 30
0.0
 11
-33.63891364966774
 21
87.51401839616338
 31
0.0
  0
LINE
  5
24E
330
24B
100
AcDbEntity
  8
0
 62
     8
370
    -2
100
AcDbLine
 10
-23.63891364966772
 20
187.5140183961633
 30
0.0
 11
-23.63891364966773
 21
87.51401839616336
 31
0.0
  0
INSERT
  5
24F
330
24B
100
AcDbEntity
  8
0
 62
     8
370
    -2
100
AcDbBlockReference
  2
_Oblique
 10
-23.63891364966772
 20
187.5140183961633
 30
0.0
 41
15.0
 42
15.0
 43
15.0
 50
90.0
  0
INSERT
  5
250
330
24B
100
AcDbEntity
  8
0
 62
     8
370
    -2
100
AcDbBlockReference
  2
_Oblique
 10
-23.63891364966773
 20
87.51401839616336
 30
0.0
 41
15.0
 42
15.0
 43
15.0
 50
270.0
  0
MTEXT
  5
251
330
24B
100
AcDbEntity
  8
0
 62
     3
370
    40
100
AcDbMText
 10
-34.38916364966774
 20
137.5140183961633
 30
0.0
 40
15.0
 41
0.0
 71
     5
 72
     1
  1
\A1;{\H0.7667x;\C256;100}
  7
Binh
 11
0.0000000000000001
 21
1.0
 31
0.0
 73
     1
 44
1.0
1001
ACAD
1000
MTEXTBEGIN
1070
    73
1070
     1
1070
    44
1040
1.0
1070
    74
1070
     0
1000
MTEXTEND
  0
POINT
  5
252
330
24B
100
AcDbEntity
  8
Defpoints
 62
     0
100
AcDbPoint
 10
-3.428125024515318
 20
187.5140183961633
 30
0.0
  0
POINT
  5
253
330
24B
100
AcDbEntity
  8
Defpoints
 62
     0
100
AcDbPoint
 10
-3.428125024515314
 20
87.51401839616336
 30
0.0
  0
POINT
  5
254
330
24B
100
AcDbEntity
  8
Defpoints
 62
     0
100
AcDbPoint
 10
-23.63891364966773
 20
87.51401839616336
 30
0.0
  0
ENDBLK
  5
256
330
24B
100
AcDbEntity
  8
0
100
AcDbBlockEnd
  0
BLOCK
  5
261
330
257
100
AcDbEntity
  8
0
100
AcDbBlockBegin
  2
*D12
 70
     1
 10
0.0
 20
0.0
 30
0.0
  3
*D12
  1

  0
LINE
  5
258
330
257
100
AcDbEntity
  8
0
 62
     8
370
    -2
100
AcDbLine
 10
-3.42812502451531
 20
187.5140183961633
 30
0.0
 11
-3.428125024515308
 21
214.5777395496047
 31
0.0
  0
LINE
  5
259
330
257
100
AcDbEntity
  8
0
 62
     8
370
    -2
100
AcDbLine
 10
160.5718749754847
 20
187.5140183961633
 30
0.0
 11
160.5718749754847
 21
214.5777395496047
 31
0.0
  0
LINE
  5
25A
330
257
100
AcDbEntity
  8
0
 62
     8
370
    -2
100
AcDbLine
 10
-3.428125024515309
 20
204.5777395496047
 30
0.0
 11
160.5718749754847
 21
204.5777395496047
 31
0.0
  0
INSERT
  5
25B
330
257
100
AcDbEntity
  8
0
 62
     8
370
    -2
100
AcDbBlockReference
  2
_Oblique
 10
-3.428125024515309
 20
204.5777395496047
 30
0.0
 41
15.0
 42
15.0
 43
15.0
 50
180.0
  0
INSERT
  5
25C
330
257
100
AcDbEntity
  8
0
 62
     8
370
    -2
100
AcDbBlockReference
  2
_Oblique
 10
160.5718749754847
 20
204.5777395496047
 30
0.0
 41
15.0
 42
15.0
 43
15.0
  0
MTEXT
  5
25D
330
257
100
AcDbEntity
  8
0
 62
     3
370
    40
100
AcDbMText
 10
78.57187497548469
 20
215.3279895496047
 30
0.0
 40
15.0
 41
0.0
 71
     5
 72
     1
  1
\A1;{\H0.7667x;\C256;164}
  7
Binh
 73
     1
 44
1.0
1001
ACAD
1000
MTEXTBEGIN
1070
    73
1070
     1
1070
    44
1040
1.0
1070
    74
1070
     0
1000
MTEXTEND
  0
POINT
  5
25E
330
257
100
AcDbEntity
  8
Defpoints
 62
     0
100
AcDbPoint
 10
-3.42812502451531
 20
187.5140183961633
 30
0.0
  0
POINT
  5
25F
330
257
100
AcDbEntity
  8
Defpoints
 62
     0
100
AcDbPoint
 10
160.5718749754847
 20
187.5140183961633
 30
0.0
  0
POINT
  5
260
330
257
100
AcDbEntity
  8
Defpoints
 62
     0
100
AcDbPoint
 10
160.5718749754847
 20
204.5777395496047
 30
0.0
  0
ENDBLK
  5
262
330
257
100
AcDbEntity
  8
0
100
AcDbBlockEnd
  0
BLOCK
  5
276
330
26C
100
AcDbEntity
  8
0
100
AcDbBlockBegin
  2
*D13
 70
     1
 10
0.0
 20
0.0
 30
0.0
  3
*D13
  1

  0
LINE
  5
26D
330
26C
100
AcDbEntity
  8
0
 62
     8
370
    -2
100
AcDbLine
 10
0.5718749754846897
 20
20.2211058904581
 30
0.0
 11
0.5718749754846914
 21
46.78671374694336
 31
0.0
  0
LINE
  5
26E
330
26C
100
AcDbEntity
  8
0
 62
     8
370
    -2
100
AcDbLine
 10
156.5718749754847
 20
20.2211058904581
 30
0.0
 11
156.5718749754847
 21
46.78671374694336
 31
0.0
  0
LINE
  5
26F
330
26C
100
AcDbEntity
  8
0
 62
     8
370
    -2
100
AcDbLine
 10
0.5718749754846907
 20
36.78671374694336
 30
0.0
 11
156.5718749754847
 21
36.78671374694336
 31
0.0
  0
INSERT
  5
270
330
26C
100
AcDbEntity
  8
0
 62
     8
370
    -2
100
AcDbBlockReference
  2
_Oblique
 10
0.5718749754846907
 20
36.78671374694336
 30
0.0
 41
15.0
 42
15.0
 43
15.0
 50
180.0
  0
INSERT
  5
271
330
26C
100
AcDbEntity
  8
0
 62
     8
370
    -2
100
AcDbBlockReference
  2
_Oblique
 10
156.5718749754847
 20
36.78671374694336
 30
0.0
 41
15.0
 42
15.0
 43
15.0
  0
MTEXT
  5
272
330
26C
100
AcDbEntity
  8
0
 62
     3
370
    40
100
AcDbMText
 10
78.57187497548469
 20
47.53696374694336
 30
0.0
 40
15.0
 41
0.0
 71
     5
 72
     1
  1
\A1;{\H0.7667x;\C256;156}
  7
Binh
 73
     1
 44
1.0
1001
ACAD
1000
MTEXTBEGIN
1070
    73
1070
     1
1070
    44
1040
1.0
1070
    74
1070
     0
1000
MTEXTEND
  0
POINT
  5
273
330
26C
100
AcDbEntity
  8
Defpoints
 62
     0
100
AcDbPoint
 10
0.5718749754846897
 20
20.2211058904581
 30
0.0
  0
POINT
  5
274
330
26C
100
AcDbEntity
  8
Defpoints
 62
     0
100
AcDbPoint
 10
156.5718749754847
 20
20.2211058904581
 30
0.0
  0
POINT
  5
275
330
26C
100
AcDbEntity
  8
Defpoints
 62
     0
100
AcDbPoint
 10
156.5718749754847
 20
36.78671374694336
 30
0.0
  0
ENDBLK
  5
277
330
26C
100
AcDbEntity
  8
0
100
AcDbBlockEnd
  0
BLOCK
  5
282
330
278
100
AcDbEntity
  8
0
100
AcDbBlockBegin
  2
*D14
 70
     1
 10
0.0
 20
0.0
 30
0.0
  3
*D14
  1

  0
LINE
  5
279
330
278
100
AcDbEntity
  8
0
 62
     8
370
    -2
100
AcDbLine
 10
-3.42812502451531
 20
24.22110589045811
 30
0.0
 11
-3.428125024515307
 21
66.4329180772042
 31
0.0
  0
LINE
  5
27A
330
278
100
AcDbEntity
  8
0
 62
     8
370
    -2
100
AcDbLine
 10
160.5718749754847
 20
24.22110589045811
 30
0.0
 11
160.5718749754847
 21
66.4329180772042
 31
0.0
  0
LINE
  5
27B
330
278
100
AcDbEntity
  8
0
 62
     8
370
    -2
100
AcDbLine
 10
-3.428125024515308
 20
56.4329180772042
 30
0.0
 11
160.5718749754847
 21
56.4329180772042
 31
0.0
  0
INSERT
  5
27C
330
278
100
AcDbEntity
  8
0
 62
     8
370
    -2
100
AcDbBlockReference
  2
_Oblique
 10
-3.428125024515308
 20
56.4329180772042
 30
0.0
 41
15.0
 42
15.0
 43
15.0
 50
180.0
  0
INSERT
  5
27D
330
278
100
AcDbEntity
  8
0
 62
     8
370
    -2
100
AcDbBlockReference
  2
_Oblique
 10
160.5718749754847
 20
56.4329180772042
 30
0.0
 41
15.0
 42
15.0
 43
15.0
  0
MTEXT
  5
27E
330
278
100
AcDbEntity
  8
0
 62
     3
370
    40
100
AcDbMText
 10
78.57187497548469
 20
67.18316807720421
 30
0.0
 40
15.0
 41
0.0
 71
     5
 72
     1
  1
\A1;{\H0.7667x;\C256;164}
  7
Binh
 73
     1
 44
1.0
1001
ACAD
1000
MTEXTBEGIN
1070
    73
1070
     1
1070
    44
1040
1.0
1070
    74
1070
     0
1000
MTEXTEND
  0
POINT
  5
27F
330
278
100
AcDbEntity
  8
Defpoints
 62
     0
100
AcDbPoint
 10
-3.42812502451531
 20
24.22110589045811
 30
0.0
  0
POINT
  5
280
330
278
100
AcDbEntity
  8
Defpoints
 62
     0
100
AcDbPoint
 10
160.5718749754847
 20
24.22110589045811
 30
0.0
  0
POINT
  5
281
330
278
100
AcDbEntity
  8
Defpoints
 62
     0
100
AcDbPoint
 10
160.5718749754847
 20
56.4329180772042
 30
0.0
  0
ENDBLK
  5
283
330
278
100
AcDbEntity
  8
0
100
AcDbBlockEnd
  0
BLOCK
  5
28E
330
284
100
AcDbEntity
  8
0
100
AcDbBlockBegin
  2
*D15
 70
     1
 10
0.0
 20
0.0
 30
0.0
  3
*D15
  1

  0
LINE
  5
285
330
284
100
AcDbEntity
  8
0
 62
     8
370
    -2
100
AcDbLine
 10
188.1242071504289
 20
20.2211058904581
 30
0.0
 11
188.1242071504289
 21
45.77514011962939
 31
0.0
  0
LINE
  5
286
330
284
100
AcDbEntity
  8
0
 62
     8
370
    -2
100
AcDbLine
 10
280.1242071504289
 20
20.2211058904581
 30
0.0
 11
280.1242071504289
 21
45.77514011962939
 31
0.0
  0
LINE
  5
287
330
284
100
AcDbEntity
  8
0
 62
     8
370
    -2
100
AcDbLine
 10
188.1242071504289
 20
35.7751401196294
 30
0.0
 11
280.1242071504289
 21
35.7751401196294
 31
0.0
  0
INSERT
  5
288
330
284
100
AcDbEntity
  8
0
 62
     8
370
    -2
100
AcDbBlockReference
  2
_Oblique
 10
188.1242071504289
 20
35.7751401196294
 30
0.0
 41
15.0
 42
15.0
 43
15.0
 50
180.0
  0
INSERT
  5
289
330
284
100
AcDbEntity
  8
0
 62
     8
370
    -2
100
AcDbBlockReference
  2
_Oblique
 10
280.1242071504289
 20
35.7751401196294
 30
0.0
 41
15.0
 42
15.0
 43
15.0
  0
MTEXT
  5
28A
330
284
100
AcDbEntity
  8
0
 62
     3
370
    40
100
AcDbMText
 10
234.1242071504289
 20
46.52539011962939
 30
0.0
 40
15.0
 41
0.0
 71
     5
 72
     1
  1
\A1;{\H0.7667x;\C256;92}
  7
Binh
 73
     1
 44
1.0
1001
ACAD
1000
MTEXTBEGIN
1070
    73
1070
     1
1070
    44
1040
1.0
1070
    74
1070
     0
1000
MTEXTEND
  0
POINT
  5
28B
330
284
100
AcDbEntity
  8
Defpoints
 62
     0
100
AcDbPoint
 10
188.1242071504289
 20
20.2211058904581
 30
0.0
  0
POINT
  5
28C
330
284
100
AcDbEntity
  8
Defpoints
 62
     0
100
AcDbPoint
 10
280.1242071504289
 20
20.2211058904581
 30
0.0
  0
POINT
  5
28D
330
284
100
AcDbEntity
  8
Defpoints
 62
     0
100
AcDbPoint
 10
280.1242071504289
 20
35.7751401196294
 30
0.0
  0
ENDBLK
  5
28F
330
284
100
AcDbEntity
  8
0
100
AcDbBlockEnd
  0
BLOCK
  5
29A
330
290
100
AcDbEntity
  8
0
100
AcDbBlockBegin
  2
*D16
 70
     1
 10
0.0
 20
0.0
 30
0.0
  3
*D16
  1

  0
LINE
  5
291
330
290
100
AcDbEntity
  8
0
 62
     8
370
    -2
100
AcDbLine
 10
184.1242071504289
 20
24.22110589045811
 30
0.0
 11
184.1242071504289
 21
64.80709877598219
 31
0.0
  0
LINE
  5
292
330
290
100
AcDbEntity
  8
0
 62
     8
370
    -2
100
AcDbLine
 10
284.1242071504289
 20
24.22110589045811
 30
0.0
 11
284.1242071504289
 21
64.80709877598219
 31
0.0
  0
LINE
  5
293
330
290
100
AcDbEntity
  8
0
 62
     8
370
    -2
100
AcDbLine
 10
184.1242071504289
 20
54.80709877598219
 30
0.0
 11
284.1242071504289
 21
54.80709877598219
 31
0.0
  0
INSERT
  5
294
330
290
100
AcDbEntity
  8
0
 62
     8
370
    -2
100
AcDbBlockReference
  2
_Oblique
 10
184.1242071504289
 20
54.80709877598219
 30
0.0
 41
15.0
 42
15.0
 43
15.0
 50
180.0
  0
INSERT
  5
295
330
290
100
AcDbEntity
  8
0
 62
     8
370
    -2
100
AcDbBlockReference
  2
_Oblique
 10
284.1242071504289
 20
54.80709877598219
 30
0.0
 41
15.0
 42
15.0
 43
15.0
  0
MTEXT
  5
296
330
290
100
AcDbEntity
  8
0
 62
     3
370
    40
100
AcDbMText
 10
234.1242071504289
 20
65.5573487759822
 30
0.0
 40
15.0
 41
0.0
 71
     5
 72
     1
  1
\A1;{\H0.7667x;\C256;100}
  7
Binh
 73
     1
 44
1.0
1001
ACAD
1000
MTEXTBEGIN
1070
    73
1070
     1
1070
    44
1040
1.0
1070
    74
1070
     0
1000
MTEXTEND
  0
POINT
  5
297
330
290
100
AcDbEntity
  8
Defpoints
 62
     0
100
AcDbPoint
 10
184.1242071504289
 20
24.22110589045811
 30
0.0
  0
POINT
  5
298
330
290
100
AcDbEntity
  8
Defpoints
 62
     0
100
AcDbPoint
 10
284.1242071504289
 20
24.22110589045811
 30
0.0
  0
POINT
  5
299
330
290
100
AcDbEntity
  8
Defpoints
 62
     0
100
AcDbPoint
 10
284.1242071504289
 20
54.80709877598219
 30
0.0
  0
ENDBLK
  5
29B
330
290
100
AcDbEntity
  8
0
100
AcDbBlockEnd
  0
ENDSEC
  0
SECTION
  2
ENTITIES
  0
LWPOLYLINE
  5
1AF
330
1F
100
AcDbEntity
  8
0
100
AcDbPolyline
 90
        4
 70
     1
 43
0.0
 10
0.5718749754846897
 20
183.5140183961633
 10
156.5718749754847
 20
183.5140183961633
 10
156.5718749754847
 20
91.51401839616337
 10
0.5718749754846897
 20
91.51401839616337
  0
LWPOLYLINE
  5
1B0
102
{ACAD_REACTORS
330
22E
330
231
102
}
330
1F
100
AcDbEntity
  8
0
100
AcDbPolyline
 90
        4
 70
     1
 43
0.0
 10
-3.42812502451531
 20
187.5140183961633
 10
160.5718749754847
 20
187.5140183961633
 10
160.5718749754847
 20
87.51401839616336
 10
-3.42812502451531
 20
87.51401839616336
  0
LWPOLYLINE
  5
1B1
330
1F
100
AcDbEntity
  8
0
 62
     5
100
AcDbPolyline
 90
        4
 70
     1
 43
0.0
 10
3.571874975484689
 20
180.5140183961633
 10
153.5718749754847
 20
180.5140183961633
 10
153.5718749754847
 20
94.51401839616336
 10
3.571874975484689
 20
94.51401839616336
  0
LWPOLYLINE
  5
1B2
330
1F
100
AcDbEntity
  8
0
100
AcDbPolyline
 90
        4
 70
     1
 43
0.0
 10
130.5718749754847
 20
97.51401839616336
 10
147.5718749754847
 20
97.51401839616336
 10
147.5718749754847
 20
114.5140183961633
 10
130.5718749754847
 20
114.5140183961633
  0
LWPOLYLINE
  5
1B3
330
1F
100
AcDbEntity
  8
0
100
AcDbPolyline
 90
        4
 70
     1
 43
0.0
 10
110.5718749754847
 20
97.51401839616336
 10
127.5718749754847
 20
97.51401839616336
 10
127.5718749754847
 20
114.5140183961633
 10
110.5718749754847
 20
114.5140183961633
  0
LWPOLYLINE
  5
1B4
330
1F
100
AcDbEntity
  8
0
100
AcDbPolyline
 90
        4
 70
     1
 43
0.0
 10
90.57187497548468
 20
97.51401839616336
 10
107.5718749754847
 20
97.51401839616336
 10
107.5718749754847
 20
114.5140183961633
 10
90.57187497548468
 20
114.5140183961633
  0
LWPOLYLINE
  5
1B5
330
1F
100
AcDbEntity
  8
0
100
AcDbPolyline
 90
        4
 70
     1
 43
0.0
 10
70.57187497548468
 20
97.51401839616336
 10
87.5718749754847
 20
97.51401839616336
 10
87.5718749754847
 20
114.5140183961633
 10
70.57187497548468
 20
114.5140183961633
  0
LWPOLYLINE
  5
1B6
330
1F
100
AcDbEntity
  8
0
100
AcDbPolyline
 90
        4
 70
     1
 43
0.0
 10
50.57187497548468
 20
97.51401839616336
 10
67.57187497548469
 20
97.51401839616336
 10
67.57187497548469
 20
114.5140183961633
 10
50.57187497548468
 20
114.5140183961633
  0
LWPOLYLINE
  5
1B7
330
1F
100
AcDbEntity
  8
0
100
AcDbPolyline
 90
        4
 70
     1
 43
0.0
 10
30.57187497548469
 20
97.51401839616336
 10
47.57187497548469
 20
97.51401839616336
 10
47.57187497548469
 20
114.5140183961633
 10
30.57187497548469
 20
114.5140183961633
  0
LWPOLYLINE
  5
1B8
330
1F
100
AcDbEntity
  8
0
100
AcDbPolyline
 90
        4
 70
     1
 43
0.0
 10
10.57187497548469
 20
97.51401839616336
 10
27.57187497548469
 20
97.51401839616336
 10
27.57187497548469
 20
114.5140183961633
 10
10.57187497548469
 20
114.5140183961633
  0
MTEXT
  5
1B9
330
1F
100
AcDbEntity
  8
0
100
AcDbMText
 10
15.41907429747064
 20
112.4689306368128
 30
0.0
 40
3.0
 41
13.86216225870657
 71
     1
 72
     5
  1
{\fTimes New Roman|b0|i0|c0|p18;ENT}
 73
     1
 44
1.0
1001
ACAD
1000
MTEXTBEGIN
1070
    73
1070
     1
1070
    44
1040
1.0
1070
    74
1070
     0
1000
MTEXTEND
  0
MTEXT
  5
1BA
330
1F
100
AcDbEntity
  8
0
100
AcDbMText
 10
36.15143596453711
 20
112.4689306368128
 30
0.0
 40
3.0
 41
13.86216225870657
 71
     1
 72
     5
  1
{\fTimes New Roman|b0|i0|c0|p18;UP}
 73
     1
 44
1.0
1001
ACAD
1000
MTEXTBEGIN
1070
    73
1070
     1
1070
    44
1040
1.0
1070
    74
1070
     0
1000
MTEXTEND
  0
MTEXT
  5
1BB
330
1F
100
AcDbEntity
  8
0
100
AcDbMText
 10
53.22026552334595
 20
112.4689306368128
 30
0.0
 40
3.0
 41
13.86216225870657
 71
     1
 72
     5
  1
{\fTimes New Roman|b0|i0|c0|p18;DOWN}
 73
     1
 44
1.0
1001
ACAD
1000
MTEXTBEGIN
1070
    73
1070
     1
1070
    44
1040
1.0
1070
    74
1070
     0
1000
MTEXTEND
  0
MTEXT
  5
1BC
330
1F
100
AcDbEntity
  8
0
100
AcDbMText
 10
74.14149726281542
 20
112.4689306368128
 30
0.0
 40
3.0
 41
13.86216225870657
 71
     1
 72
     5
  1
{\fTimes New Roman|b0|i0|c0|p18;TRK}
 73
     1
 44
1.0
1001
ACAD
1000
MTEXTBEGIN
1070
    73
1070
     1
1070
    44
1040
1.0
1070
    74
1070
     0
1000
MTEXTEND
  0
MTEXT
  5
1BD
330
1F
100
AcDbEntity
  8
0
100
AcDbMText
 10
93.22026552334595
 20
112.4689306368128
 30
0.0
 40
3.0
 41
13.86216225870657
 71
     1
 72
     5
  1
{\fTimes New Roman|b0|i0|c0|p18;LEFT}
 73
     1
 44
1.0
1001
ACAD
1000
MTEXTBEGIN
1070
    73
1070
     1
1070
    44
1040
1.0
1070
    74
1070
     0
1000
MTEXTEND
  0
MTEXT
  5
1BE
330
1F
100
AcDbEntity
  8
0
100
AcDbMText
 10
113.2202655233459
 20
112.4689306368128
 30
0.0
 40
3.0
 41
13.86216225870657
 71
     1
 72
     5
  1
{\fTimes New Roman|b0|i0|c0|p18;RIGHT}
 73
     1
 44
1.0
1001
ACAD
1000
MTEXTBEGIN
1070
    73
1070
     1
1070
    44
1040
1.0
1070
    74
1070
     0
1000
MTEXTEND
  0
MTEXT
  5
1BF
330
1F
100
AcDbEntity
  8
0
100
AcDbMText
 10
134.4039083306443
 20
112.4689306368128
 30
0.0
 40
3.0
 41
13.86216225870657
 71
     1
 72
     5
  1
{\fTimes New Roman|b0|i0|c0|p18;ESC}
 73
     1
 44
1.0
1001
ACAD
1000
MTEXTBEGIN
1070
    73
1070
     1
1070
    44
1040
1.0
1070
    74
1070
     0
1000
MTEXTEND
  0
LWPOLYLINE
  5
1C0
330
1F
100
AcDbEntity
  8
0
100
AcDbPolyline
 90
        4
 70
     1
 43
0.0
 10
24.57187497548469
 20
165.5140183961633
 10
130.5718749754847
 20
165.5140183961633
 10
130.5718749754847
 20
126.5140183961633
 10
24.57187497548469
 20
126.5140183961633
  0
MTEXT
  5
1C1
330
1F
100
AcDbEntity
  8
0
100
AcDbMText
 10
58.50799224511721
 20
148.6164971184402
 30
0.0
 40
5.0
 41
44.79584331544697
 71
     1
 72
     5
  1
{\fTimes New Roman|b0|i0|c0|p18;DDC-42-D}
 73
     1
 44
1.0
1001
ACAD
1000
MTEXTBEGIN
1070
    73
1070
     1
1070
    44
1040
1.0
1070
    74
1070
     0
1000
MTEXTEND
  0
MTEXT
  5
1C2
330
1F
100
AcDbEntity
  8
0
100
AcDbMText
 10
58.20577072567485
 20
136.4667192729647
 30
0.0
 40
2.0
 41
58.17921187641059
 71
     1
 72
     5
  1
{\fTimes New Roman|b0|i0|c0|p18;DDC Controller}
 73
     1
 44
1.0
1001
ACAD
1000
MTEXTBEGIN
1070
    73
1070
     1
1070
    44
1040
1.0
1070
    74
1070
     0
1000
MTEXTEND
  0
LINE
  5
1C3
330
1F
100
AcDbEntity
  8
0
100
AcDbLine
 10
-3.42812502451531
 20
24.22110589045811
 30
0.0
 11
-3.42812502451531
 21
20.2211058904581
 31
0.0
  0
LINE
  5
1C4
330
1F
100
AcDbEntity
  8
0
100
AcDbLine
 10
0.5718749754846897
 20
-25.7788941095419
 30
0.0
 11
156.5718749754847
 21
-25.7788941095419
 31
0.0
  0
LINE
  5
1C5
330
1F
100
AcDbEntity
  8
0
100
AcDbLine
 10
160.5718749754847
 20
20.2211058904581
 30
0.0
 11
160.5718749754847
 21
24.22110589045811
 31
0.0
  0
LINE
  5
1C6
102
{ACAD_REACTORS
330
238
102
}
330
1F
100
AcDbEntity
  8
0
100
AcDbLine
 10
160.5718749754847
 20
24.22110589045811
 30
0.0
 11
-3.42812502451531
 21
24.22110589045811
 31
0.0
  0
LINE
  5
1C7
102
{ACAD_REACTORS
330
235
102
}
330
1F
100
AcDbEntity
  8
0
100
AcDbLine
 10
0.5718749754846897
 20
20.2211058904581
 30
0.0
 11
0.5718749754846897
 21
-25.7788941095419
 31
0.0
  0
LINE
  5
1C8
102
{ACAD_REACTORS
330
235
102
}
330
1F
100
AcDbEntity
  8
0
100
AcDbLine
 10
156.5718749754847
 20
20.2211058904581
 30
0.0
 11
156.5718749754847
 21
-25.7788941095419
 31
0.0
  0
LINE
  5
1C9
330
1F
100
AcDbEntity
  8
0
100
AcDbLine
 10
-3.42812502451531
 20
20.2211058904581
 30
0.0
 11
160.5718749754847
 21
20.2211058904581
 31
0.0
  0
LINE
  5
1CA
330
1F
100
AcDbEntity
  8
0
 62
   254
100
AcDbLine
 10
80.57187497548468
 20
-0.7788941095418949
 30
0.0
 11
144.5718749754847
 21
-0.7788941095418949
 31
0.0
  0
LINE
  5
1CB
330
1F
100
AcDbEntity
  8
0
100
AcDbLine
 10
80.57187497548468
 20
-0.7788941095418949
 30
0.0
 11
80.57187497548468
 21
-25.7788941095419
 31
0.0
  0
LWPOLYLINE
  5
1CC
330
1F
100
AcDbEntity
  8
0
100
AcDbPolyline
 90
        4
 70
     1
 43
0.0
 10
24.89965354673237
 20
-22.38242804448878
 10
25.89965354673237
 20
-22.38242804448878
 10
25.89965354673237
 20
-12.38242804448878
 10
24.89965354673237
 20
-12.38242804448878
  0
LWPOLYLINE
  5
1CD
330
1F
100
AcDbEntity
  8
0
100
AcDbPolyline
 90
        4
 70
     1
 43
0.0
 10
26.89965354673237
 20
-22.38242804448878
 10
27.89965354673237
 20
-22.38242804448878
 10
27.89965354673237
 20
-12.38242804448878
 10
26.89965354673237
 20
-12.38242804448878
  0
LWPOLYLINE
  5
1CE
330
1F
100
AcDbEntity
  8
0
100
AcDbPolyline
 90
        4
 70
     1
 43
0.0
 10
28.89965354673237
 20
-22.38242804448878
 10
29.89965354673237
 20
-22.38242804448878
 10
29.89965354673237
 20
-12.38242804448878
 10
28.89965354673237
 20
-12.38242804448878
  0
LWPOLYLINE
  5
1CF
330
1F
100
AcDbEntity
  8
0
100
AcDbPolyline
 90
        4
 70
     1
 43
0.0
 10
30.89965354673237
 20
-22.38242804448878
 10
31.89965354673237
 20
-22.38242804448878
 10
31.89965354673237
 20
-12.38242804448878
 10
30.89965354673237
 20
-12.38242804448878
  0
LWPOLYLINE
  5
1D0
330
1F
100
AcDbEntity
  8
0
100
AcDbPolyline
 90
        4
 70
     1
 43
0.0
 10
32.89965354673237
 20
-22.38242804448878
 10
33.89965354673237
 20
-22.38242804448878
 10
33.89965354673237
 20
-12.38242804448878
 10
32.89965354673237
 20
-12.38242804448878
  0
LWPOLYLINE
  5
1D1
330
1F
100
AcDbEntity
  8
0
100
AcDbPolyline
 90
        4
 70
     1
 43
0.0
 10
34.89965354673237
 20
-22.38242804448878
 10
35.89965354673237
 20
-22.38242804448878
 10
35.89965354673237
 20
-12.38242804448878
 10
34.89965354673237
 20
-12.38242804448878
  0
LWPOLYLINE
  5
1D2
330
1F
100
AcDbEntity
  8
0
100
AcDbPolyline
 90
        4
 70
     1
 43
0.0
 10
36.89965354673237
 20
-22.38242804448878
 10
37.89965354673237
 20
-22.38242804448878
 10
37.89965354673237
 20
-12.38242804448878
 10
36.89965354673237
 20
-12.38242804448878
  0
LWPOLYLINE
  5
1D3
330
1F
100
AcDbEntity
  8
0
100
AcDbPolyline
 90
        4
 70
     1
 43
0.0
 10
38.89965354673237
 20
-22.38242804448878
 10
39.89965354673237
 20
-22.38242804448878
 10
39.89965354673237
 20
-12.38242804448878
 10
38.89965354673237
 20
-12.38242804448878
  0
LWPOLYLINE
  5
1D4
330
1F
100
AcDbEntity
  8
0
100
AcDbPolyline
 90
        4
 70
     1
 43
0.0
 10
40.89965354673236
 20
-22.38242804448878
 10
41.89965354673236
 20
-22.38242804448878
 10
41.89965354673236
 20
-12.38242804448878
 10
40.89965354673236
 20
-12.38242804448878
  0
LWPOLYLINE
  5
1D5
330
1F
100
AcDbEntity
  8
0
100
AcDbPolyline
 90
        4
 70
     1
 43
0.0
 10
42.89965354673237
 20
-22.38242804448878
 10
43.89965354673236
 20
-22.38242804448878
 10
43.89965354673236
 20
-12.38242804448878
 10
42.89965354673237
 20
-12.38242804448878
  0
LWPOLYLINE
  5
1D6
330
1F
100
AcDbEntity
  8
0
100
AcDbPolyline
 90
        4
 70
     1
 43
0.0
 10
44.89965354673237
 20
-22.38242804448878
 10
45.89965354673236
 20
-22.38242804448878
 10
45.89965354673236
 20
-12.38242804448878
 10
44.89965354673237
 20
-12.38242804448878
  0
LWPOLYLINE
  5
1D7
330
1F
100
AcDbEntity
  8
0
100
AcDbPolyline
 90
        4
 70
     1
 43
0.0
 10
46.89965354673236
 20
-22.38242804448878
 10
47.89965354673237
 20
-22.38242804448878
 10
47.89965354673237
 20
-12.38242804448878
 10
46.89965354673236
 20
-12.38242804448878
  0
LWPOLYLINE
  5
1D8
330
1F
100
AcDbEntity
  8
0
100
AcDbPolyline
 90
        4
 70
     1
 43
0.0
 10
48.89965354673236
 20
-22.38242804448878
 10
49.89965354673237
 20
-22.38242804448878
 10
49.89965354673237
 20
-12.38242804448878
 10
48.89965354673236
 20
-12.38242804448878
  0
LWPOLYLINE
  5
1D9
330
1F
100
AcDbEntity
  8
0
100
AcDbPolyline
 90
        4
 70
     1
 43
0.0
 10
50.89965354673236
 20
-22.38242804448878
 10
51.89965354673237
 20
-22.38242804448878
 10
51.89965354673237
 20
-12.38242804448878
 10
50.89965354673236
 20
-12.38242804448878
  0
LWPOLYLINE
  5
1DA
330
1F
100
AcDbEntity
  8
0
100
AcDbPolyline
 90
        4
 70
     1
 43
0.0
 10
52.89965354673237
 20
-22.38242804448878
 10
53.89965354673236
 20
-22.38242804448878
 10
53.89965354673236
 20
-12.38242804448878
 10
52.89965354673237
 20
-12.38242804448878
  0
LWPOLYLINE
  5
1DB
330
1F
100
AcDbEntity
  8
0
100
AcDbPolyline
 90
        4
 70
     1
 43
0.0
 10
54.89965354673237
 20
-22.38242804448878
 10
55.89965354673236
 20
-22.38242804448878
 10
55.89965354673236
 20
-12.38242804448878
 10
54.89965354673237
 20
-12.38242804448878
  0
LINE
  5
1DC
330
1F
100
AcDbEntity
  8
0
100
AcDbLine
 10
0.5718749754846897
 20
-25.7788941095419
 30
0.0
 11
40.57187497548468
 21
-25.7788941095419
 31
0.0
  0
LINE
  5
1DD
330
1F
100
AcDbEntity
  8
0
100
AcDbLine
 10
144.5718749754847
 20
-0.7788941095418949
 30
0.0
 11
144.5718749754847
 21
-25.7788941095419
 31
0.0
  0
LINE
  5
1DE
330
1F
100
AcDbEntity
  8
0
100
AcDbLine
 10
144.5718749754847
 20
-15.77889410954189
 30
0.0
 11
140.0718749754849
 21
-15.77889410954189
 31
0.0
  0
LINE
  5
1DF
330
1F
100
AcDbEntity
  8
0
100
AcDbLine
 10
85.0718749754847
 20
-15.77889410954189
 30
0.0
 11
80.57187497548468
 21
-15.77889410954189
 31
0.0
  0
LWPOLYLINE
  5
1E0
330
1F
100
AcDbEntity
  8
0
100
AcDbPolyline
 90
        2
 70
     0
 43
0.0
 10
188.1242071504289
 20
-25.7788941095419
 10
280.1242071504289
 20
-25.7788941095419
  0
LWPOLYLINE
  5
1E1
102
{ACAD_REACTORS
330
23E
102
}
330
1F
100
AcDbEntity
  8
0
100
AcDbPolyline
 90
        4
 70
     0
 43
0.0
 10
284.1242071504289
 20
20.2211058904581
 10
284.1242071504289
 20
24.22110589045811
 10
184.1242071504289
 20
24.22110589045811
 10
184.1242071504289
 20
20.2211058904581
  0
LINE
  5
1E2
330
1F
100
AcDbEntity
  8
0
100
AcDbLine
 10
184.1242071504289
 20
20.2211058904581
 30
0.0
 11
284.1242071504289
 21
20.2211058904581
 31
0.0
  0
LINE
  5
1E3
330
1F
100
AcDbEntity
  8
0
100
AcDbLine
 10
184.1242071504289
 20
20.2211058904581
 30
0.0
 11
188.1242071504289
 21
20.2211058904581
 31
0.0
  0
LINE
  5
1E4
102
{ACAD_REACTORS
330
23B
102
}
330
1F
100
AcDbEntity
  8
0
100
AcDbLine
 10
188.1242071504289
 20
20.2211058904581
 30
0.0
 11
188.1242071504289
 21
-25.7788941095419
 31
0.0
  0
LINE
  5
1E5
102
{ACAD_REACTORS
330
23B
102
}
330
1F
100
AcDbEntity
  8
0
100
AcDbLine
 10
280.1242071504289
 20
20.2211058904581
 30
0.0
 11
280.1242071504289
 21
-25.7788941095419
 31
0.0
  0
LWPOLYLINE
  5
1E6
330
1F
100
AcDbEntity
  8
0
100
AcDbPolyline
 90
        4
 70
     1
 43
0.0
 10
223.7837236809485
 20
-9.315698974634003
 10
244.4646906199094
 20
-9.315698974634003
 10
244.4646906199094
 20
-7.189098908507773
 10
223.7837236809485
 20
-7.189098908507773
  0
LWPOLYLINE
  5
1E7
330
1F
100
AcDbEntity
  8
0
 62
     4
100
AcDbPolyline
 90
        4
 70
     0
 43
0.0
 10
105.0718749754847
 20
-0.7788941095418949
 10
85.0718749754847
 20
-0.7788941095418949
 10
85.0718749754847
 20
-16.77889410954189
 10
105.0718749754847
 20
-16.77889410954189
  0
LWPOLYLINE
  5
1E8
330
1F
100
AcDbEntity
  8
0
 62
     4
100
AcDbPolyline
 90
        2
 70
     0
 43
0.0
 10
105.0718749754847
 20
-15.27889410954189
 10
105.0718749754847
 20
-8.778894109541894
  0
LINE
  5
1E9
330
1F
100
AcDbEntity
  8
0
 62
     4
100
AcDbLine
 10
105.0718749754847
 20
-8.778894109541894
 30
0.0
 11
85.0718749754847
 21
-8.778894109541894
 31
0.0
  0
LINE
  5
1EA
330
1F
100
AcDbEntity
  8
0
 62
     4
100
AcDbLine
 10
100.0718749754847
 20
-15.27889410954189
 30
0.0
 11
100.0718749754847
 21
-8.778894109541894
 31
0.0
  0
LINE
  5
1EB
330
1F
100
AcDbEntity
  8
0
 62
     4
100
AcDbLine
 10
90.0718749754847
 20
-15.27889410954189
 30
0.0
 11
90.0718749754847
 21
-8.778894109541894
 31
0.0
  0
LINE
  5
1EC
330
1F
100
AcDbEntity
  8
0
 62
     4
100
AcDbLine
 10
105.0718749754847
 20
-15.27889410954189
 30
0.0
 11
85.0718749754847
 21
-15.27889410954189
 31
0.0
  0
LWPOLYLINE
  5
1ED
330
1F
100
AcDbEntity
  8
0
 62
     4
100
AcDbPolyline
 90
        4
 70
     1
 43
0.0
 10
104.6959754757056
 20
-14.30074589786845
 10
100.4472493646326
 20
-14.30074589786845
 10
100.4472493646326
 20
-9.006201641024105
 10
104.6959754757056
 20
-9.006201641024105
  0
LWPOLYLINE
  5
1EE
330
1F
100
AcDbEntity
  8
0
 62
     4
100
AcDbPolyline
 90
        4
 70
     1
 43
0.0
 10
99.69545036507454
 20
-14.30074589786845
 10
95.44672425400156
 20
-14.30074589786845
 10
95.44672425400156
 20
-9.006201641024105
 10
99.69545036507454
 20
-9.006201641024105
  0
LWPOLYLINE
  5
1EF
330
1F
100
AcDbEntity
  8
0
 62
     4
100
AcDbPolyline
 90
        4
 70
     1
 43
0.0
 10
94.70755202837066
 20
-14.30074589786845
 10
90.45882591729791
 20
-14.30074589786845
 10
90.45882591729791
 20
-9.006201641024105
 10
94.70755202837066
 20
-9.006201641024105
  0
LWPOLYLINE
  5
1F0
330
1F
100
AcDbEntity
  8
0
 62
     4
100
AcDbPolyline
 90
        4
 70
     1
 43
0.0
 10
89.68938463082352
 20
-14.30074589786845
 10
85.44065851975053
 20
-14.30074589786845
 10
85.44065851975053
 20
-9.006201641024105
 10
89.68938463082352
 20
-9.006201641024105
  0
LINE
  5
1F1
330
1F
100
AcDbEntity
  8
0
 62
     0
100
AcDbLine
 10
104.6959754757056
 20
-10.80237612673117
 30
0.0
 11
100.4472493646326
 21
-10.80237612673117
 31
0.0
  0
LINE
  5
1F2
330
1F
100
AcDbEntity
  8
0
 62
     0
100
AcDbLine
 10
99.69545036507454
 20
-10.80237612673117
 30
0.0
 11
95.44672425400156
 21
-10.80237612673117
 31
0.0
  0
LINE
  5
1F3
330
1F
100
AcDbEntity
  8
0
 62
     0
100
AcDbLine
 10
94.70755202837066
 20
-10.80237612673117
 30
0.0
 11
90.45882591729791
 21
-10.80237612673117
 31
0.0
  0
LINE
  5
1F4
330
1F
100
AcDbEntity
  8
0
 62
     0
100
AcDbLine
 10
89.68938463082352
 20
-10.80237612673117
 30
0.0
 11
85.44065851975053
 21
-10.80237612673117
 31
0.0
  0
LINE
  5
1F5
330
1F
100
AcDbEntity
  8
0
 62
     4
100
AcDbLine
 10
105.0718749754847
 20
-1.278894109541894
 30
0.0
 11
85.0718749754847
 21
-1.278894109541894
 31
0.0
  0
LWPOLYLINE
  5
1F6
330
1F
100
AcDbEntity
  8
0
 62
     4
100
AcDbPolyline
 90
        2
 70
     0
 43
0.0
 10
105.0718749754847
 20
-8.778894109541894
 10
105.0718749754847
 20
-15.27889410954189
  0
LWPOLYLINE
  5
1F7
330
1F
100
AcDbEntity
  8
0
 62
     4
100
AcDbPolyline
 90
        2
 70
     0
 43
0.0
 10
105.0718749754847
 20
-16.77889410954189
 10
125.0718749754848
 20
-16.77889410954189
  0
LWPOLYLINE
  5
1F8
330
1F
100
AcDbEntity
  8
0
 62
     4
100
AcDbPolyline
 90
        2
 70
     0
 43
0.0
 10
125.0718749754848
 20
-15.27889410954189
 10
125.0718749754848
 20
-8.778894109541894
  0
LWPOLYLINE
  5
1F9
330
1F
100
AcDbEntity
  8
0
 62
     4
100
AcDbPolyline
 90
        2
 70
     0
 43
0.0
 10
125.0718749754848
 20
-0.7788941095418949
 10
105.0718749754847
 20
-0.7788941095418949
  0
LINE
  5
1FA
330
1F
100
AcDbEntity
  8
0
 62
     4
100
AcDbLine
 10
115.0718749754848
 20
-15.27889410954189
 30
0.0
 11
115.0718749754848
 21
-8.778894109541894
 31
0.0
  0
LINE
  5
1FB
330
1F
100
AcDbEntity
  8
0
 62
     4
100
AcDbLine
 10
125.0718749754848
 20
-8.778894109541894
 30
0.0
 11
105.0718749754847
 21
-8.778894109541894
 31
0.0
  0
LINE
  5
1FC
330
1F
100
AcDbEntity
  8
0
 62
     4
100
AcDbLine
 10
120.0718749754848
 20
-15.27889410954189
 30
0.0
 11
120.0718749754848
 21
-8.778894109541894
 31
0.0
  0
LINE
  5
1FD
330
1F
100
AcDbEntity
  8
0
 62
     4
100
AcDbLine
 10
125.0718749754848
 20
-15.27889410954189
 30
0.0
 11
105.0718749754847
 21
-15.27889410954189
 31
0.0
  0
LWPOLYLINE
  5
1FE
330
1F
100
AcDbEntity
  8
0
 62
     4
100
AcDbPolyline
 90
        4
 70
     1
 43
0.0
 10
124.6959754757056
 20
-14.30074589786845
 10
120.4472493646328
 20
-14.30074589786845
 10
120.4472493646328
 20
-9.006201641024105
 10
124.6959754757056
 20
-9.006201641024105
  0
LWPOLYLINE
  5
1FF
330
1F
100
AcDbEntity
  8
0
 62
     4
100
AcDbPolyline
 90
        4
 70
     1
 43
0.0
 10
119.6954503650745
 20
-14.30074589786845
 10
115.4467242540017
 20
-14.30074589786845
 10
115.4467242540017
 20
-9.006201641024105
 10
119.6954503650745
 20
-9.006201641024105
  0
LWPOLYLINE
  5
200
330
1F
100
AcDbEntity
  8
0
 62
     4
100
AcDbPolyline
 90
        4
 70
     1
 43
0.0
 10
114.7075520283707
 20
-14.30074589786845
 10
110.4588259172979
 20
-14.30074589786845
 10
110.4588259172979
 20
-9.006201641024105
 10
114.7075520283707
 20
-9.006201641024105
  0
LWPOLYLINE
  5
201
330
1F
100
AcDbEntity
  8
0
 62
     4
100
AcDbPolyline
 90
        4
 70
     1
 43
0.0
 10
109.6893846308235
 20
-14.30074589786845
 10
105.4406585197505
 20
-14.30074589786845
 10
105.4406585197505
 20
-9.006201641024105
 10
109.6893846308235
 20
-9.006201641024105
  0
LINE
  5
202
330
1F
100
AcDbEntity
  8
0
 62
     0
100
AcDbLine
 10
124.6959754757056
 20
-10.80237612673117
 30
0.0
 11
120.4472493646328
 21
-10.80237612673117
 31
0.0
  0
LINE
  5
203
330
1F
100
AcDbEntity
  8
0
 62
     0
100
AcDbLine
 10
119.6954503650745
 20
-10.80237612673117
 30
0.0
 11
115.4467242540017
 21
-10.80237612673117
 31
0.0
  0
LINE
  5
204
330
1F
100
AcDbEntity
  8
0
 62
     0
100
AcDbLine
 10
114.7075520283707
 20
-10.80237612673117
 30
0.0
 11
110.4588259172979
 21
-10.80237612673117
 31
0.0
  0
LINE
  5
205
330
1F
100
AcDbEntity
  8
0
 62
     0
100
AcDbLine
 10
109.6893846308235
 20
-10.80237612673117
 30
0.0
 11
105.4406585197505
 21
-10.80237612673117
 31
0.0
  0
LINE
  5
206
330
1F
100
AcDbEntity
  8
0
 62
     4
100
AcDbLine
 10
125.0718749754848
 20
-1.278894109541894
 30
0.0
 11
105.0718749754847
 21
-1.278894109541894
 31
0.0
  0
LWPOLYLINE
  5
207
330
1F
100
AcDbEntity
  8
0
 62
     4
100
AcDbPolyline
 90
        2
 70
     0
 43
0.0
 10
125.0718749754848
 20
-8.778894109541894
 10
125.0718749754848
 20
-15.27889410954189
  0
LWPOLYLINE
  5
208
330
1F
100
AcDbEntity
  8
0
 62
     4
100
AcDbPolyline
 90
        2
 70
     0
 43
0.0
 10
125.0718749754848
 20
-16.77889410954189
 10
140.0718749754849
 20
-16.77889410954189
  0
LWPOLYLINE
  5
209
330
1F
100
AcDbEntity
  8
0
 62
     4
100
AcDbPolyline
 90
        2
 70
     0
 43
0.0
 10
140.0718749754849
 20
-0.7788941095418949
 10
125.0718749754848
 20
-0.7788941095418949
  0
LINE
  5
20A
330
1F
100
AcDbEntity
  8
0
 62
     4
100
AcDbLine
 10
140.0718749754849
 20
-16.77889410954189
 30
0.0
 11
140.0718749754849
 21
-0.7788941095418949
 31
0.0
  0
LINE
  5
20B
330
1F
100
AcDbEntity
  8
0
 62
     4
100
AcDbLine
 10
140.0718749754849
 20
-8.778894109541894
 30
0.0
 11
125.0718749754848
 21
-8.778894109541894
 31
0.0
  0
LINE
  5
20C
330
1F
100
AcDbEntity
  8
0
 62
     4
100
AcDbLine
 10
140.0718749754849
 20
-15.27889410954189
 30
0.0
 11
140.0718749754849
 21
-8.778894109541894
 31
0.0
  0
LINE
  5
20D
330
1F
100
AcDbEntity
  8
0
 62
     4
100
AcDbLine
 10
130.0718749754849
 20
-15.27889410954189
 30
0.0
 11
130.0718749754849
 21
-8.778894109541894
 31
0.0
  0
LINE
  5
20E
330
1F
100
AcDbEntity
  8
0
 62
     4
100
AcDbLine
 10
140.0718749754849
 20
-15.27889410954189
 30
0.0
 11
125.0718749754848
 21
-15.27889410954189
 31
0.0
  0
LWPOLYLINE
  5
20F
330
1F
100
AcDbEntity
  8
0
 62
     4
100
AcDbPolyline
 90
        4
 70
     1
 43
0.0
 10
139.6954503650745
 20
-14.30074589786845
 10
135.4467242540018
 20
-14.30074589786845
 10
135.4467242540018
 20
-9.006201641024105
 10
139.6954503650745
 20
-9.006201641024105
  0
LWPOLYLINE
  5
210
330
1F
100
AcDbEntity
  8
0
 62
     4
100
AcDbPolyline
 90
        4
 70
     1
 43
0.0
 10
134.7075520283709
 20
-14.30074589786845
 10
130.4588259172979
 20
-14.30074589786845
 10
130.4588259172979
 20
-9.006201641024105
 10
134.7075520283709
 20
-9.006201641024105
  0
LWPOLYLINE
  5
211
330
1F
100
AcDbEntity
  8
0
 62
     4
100
AcDbPolyline
 90
        4
 70
     1
 43
0.0
 10
129.6893846308235
 20
-14.30074589786845
 10
125.4406585197506
 20
-14.30074589786845
 10
125.4406585197506
 20
-9.006201641024105
 10
129.6893846308235
 20
-9.006201641024105
  0
LINE
  5
212
330
1F
100
AcDbEntity
  8
0
 62
     0
100
AcDbLine
 10
139.6954503650745
 20
-10.80237612673117
 30
0.0
 11
135.4467242540018
 21
-10.80237612673117
 31
0.0
  0
LINE
  5
213
330
1F
100
AcDbEntity
  8
0
 62
     0
100
AcDbLine
 10
134.7075520283709
 20
-10.80237612673117
 30
0.0
 11
130.4588259172979
 21
-10.80237612673117
 31
0.0
  0
LINE
  5
214
330
1F
100
AcDbEntity
  8
0
 62
     0
100
AcDbLine
 10
129.6893846308235
 20
-10.80237612673117
 30
0.0
 11
125.4406585197506
 21
-10.80237612673117
 31
0.0
  0
LINE
  5
215
330
1F
100
AcDbEntity
  8
0
 62
     4
100
AcDbLine
 10
140.0718749754849
 20
-1.278894109541894
 30
0.0
 11
125.0718749754848
 21
-1.278894109541894
 31
0.0
  0
MTEXT
  5
216
330
1F
100
AcDbEntity
  8
0
100
AcDbMText
 10
135.83579540221
 20
-33.73859925837228
 30
0.0
 40
2.339449541284403
 41
16.3873234010998
 71
     1
 72
     5
  1
{\fTimes New Roman|b0|i0|c0|p18;24VAC}
 11
0.0000000000000001
 21
1.0
 31
0.0
 73
     1
 44
1.0
1001
ACAD
1000
MTEXTBEGIN
1070
    73
1070
     1
1070
    44
1040
1.0
1070
    74
1070
     0
1000
MTEXTEND
  0
MTEXT
  5
217
330
1F
100
AcDbEntity
  8
0
100
AcDbMText
 10
130.7357954022102
 20
-33.73859925837228
 30
0.0
 40
2.339449541284403
 41
16.3873234010998
 71
     1
 72
     5
  1
{\fTimes New Roman|b0|i0|c0|p18;OVAC}
 11
0.0000000000000001
 21
1.0
 31
0.0
 73
     1
 44
1.0
1001
ACAD
1000
MTEXTBEGIN
1070
    73
1070
     1
1070
    44
1040
1.0
1070
    74
1070
     0
1000
MTEXTEND
  0
MTEXT
  5
218
330
1F
100
AcDbEntity
  8
0
100
AcDbMText
 10
125.6357954022101
 20
-33.73859925837228
 30
0.0
 40
2.339449541284403
 41
16.3873234010998
 71
     1
 72
     5
  1
{\fTimes New Roman|b0|i0|c0|p18;UI 01}
 11
0.0000000000000001
 21
1.0
 31
0.0
 73
     1
 44
1.0
1001
ACAD
1000
MTEXTBEGIN
1070
    73
1070
     1
1070
    44
1040
1.0
1070
    74
1070
     0
1000
MTEXTEND
  0
MTEXT
  5
219
330
1F
100
AcDbEntity
  8
0
100
AcDbMText
 10
120.5357954022101
 20
-33.73859925837228
 30
0.0
 40
2.339449541284403
 41
16.3873234010998
 71
     1
 72
     5
  1
{\fTimes New Roman|b0|i0|c0|p18;UI 02}
 11
0.0000000000000001
 21
1.0
 31
0.0
 73
     1
 44
1.0
1001
ACAD
1000
MTEXTBEGIN
1070
    73
1070
     1
1070
    44
1040
1.0
1070
    74
1070
     0
1000
MTEXTEND
  0
MTEXT
  5
21A
330
1F
100
AcDbEntity
  8
0
100
AcDbMText
 10
115.43579540221
 20
-33.73859925837228
 30
0.0
 40
2.339449541284403
 41
16.3873234010998
 71
     1
 72
     5
  1
{\fTimes New Roman|b0|i0|c0|p18;COM IN}
 11
0.0000000000000001
 21
1.0
 31
0.0
 73
     1
 44
1.0
1001
ACAD
1000
MTEXTBEGIN
1070
    73
1070
     1
1070
    44
1040
1.0
1070
    74
1070
     0
1000
MTEXTEND
  0
MTEXT
  5
21B
330
1F
100
AcDbEntity
  8
0
100
AcDbMText
 10
110.3357954022101
 20
-33.73859925837228
 30
0.0
 40
2.339449541284403
 41
16.3873234010998
 71
     1
 72
     5
  1
{\fTimes New Roman|b0|i0|c0|p18;UI 03}
 11
0.0000000000000001
 21
1.0
 31
0.0
 73
     1
 44
1.0
1001
ACAD
1000
MTEXTBEGIN
1070
    73
1070
     1
1070
    44
1040
1.0
1070
    74
1070
     0
1000
MTEXTEND
  0
MTEXT
  5
21C
330
1F
100
AcDbEntity
  8
0
100
AcDbMText
 10
105.23579540221
 20
-33.73859925837228
 30
0.0
 40
2.339449541284403
 41
16.3873234010998
 71
     1
 72
     5
  1
{\fTimes New Roman|b0|i0|c0|p18;UI 04}
 11
0.0000000000000001
 21
1.0
 31
0.0
 73
     1
 44
1.0
1001
ACAD
1000
MTEXTBEGIN
1070
    73
1070
     1
1070
    44
1040
1.0
1070
    74
1070
     0
1000
MTEXTEND
  0
MTEXT
  5
21D
330
1F
100
AcDbEntity
  8
0
100
AcDbMText
 10
100.1357954022101
 20
-33.73859925837228
 30
0.0
 40
2.339449541284403
 41
16.3873234010998
 71
     1
 72
     5
  1
{\fTimes New Roman|b0|i0|c0|p18;COM IN}
 11
0.0000000000000001
 21
1.0
 31
0.0
 73
     1
 44
1.0
1001
ACAD
1000
MTEXTBEGIN
1070
    73
1070
     1
1070
    44
1040
1.0
1070
    74
1070
     0
1000
MTEXTEND
  0
MTEXT
  5
21E
330
1F
100
AcDbEntity
  8
0
100
AcDbMText
 10
95.0357954022102
 20
-33.73859925837228
 30
0.0
 40
2.339449541284403
 41
16.3873234010998
 71
     1
 72
     5
  1
{\fTimes New Roman|b0|i0|c0|p18;UO 01}
 11
0.0000000000000001
 21
1.0
 31
0.0
 73
     1
 44
1.0
1001
ACAD
1000
MTEXTBEGIN
1070
    73
1070
     1
1070
    44
1040
1.0
1070
    74
1070
     0
1000
MTEXTEND
  0
MTEXT
  5
21F
330
1F
100
AcDbEntity
  8
0
100
AcDbMText
 10
89.93579540221018
 20
-33.73859925837228
 30
0.0
 40
2.339449541284403
 41
16.3873234010998
 71
     1
 72
     5
  1
{\fTimes New Roman|b0|i0|c0|p18;UO 02}
 11
0.0000000000000001
 21
1.0
 31
0.0
 73
     1
 44
1.0
1001
ACAD
1000
MTEXTBEGIN
1070
    73
1070
     1
1070
    44
1040
1.0
1070
    74
1070
     0
1000
MTEXTEND
  0
MTEXT
  5
220
330
1F
100
AcDbEntity
  8
0
100
AcDbMText
 10
84.83579540221015
 20
-33.73859925837228
 30
0.0
 40
2.339449541284403
 41
16.3873234010998
 71
     1
 72
     5
  1
{\fTimes New Roman|b0|i0|c0|p18;COM OUT}
 11
0.0000000000000001
 21
1.0
 31
0.0
 73
     1
 44
1.0
1001
ACAD
1000
MTEXTBEGIN
1070
    73
1070
     1
1070
    44
1040
1.0
1070
    74
1070
     0
1000
MTEXTEND
  0
LINE
  5
221
330
1F
100
AcDbEntity
  8
0
100
AcDbLine
 10
87.58436980452941
 20
-33.86750092841435
 30
0.0
 11
87.58436980452941
 21
-16.77889410954189
 31
0.0
  0
LINE
  5
222
330
1F
100
AcDbEntity
  8
0
100
AcDbLine
 10
92.68436980452955
 20
-33.86750092841435
 30
0.0
 11
92.68436980452955
 21
-16.77889410954189
 31
0.0
  0
LINE
  5
223
330
1F
100
AcDbEntity
  8
0
100
AcDbLine
 10
97.78436980452946
 20
-33.86750092841435
 30
0.0
 11
97.78436980452946
 21
-16.77889410954189
 31
0.0
  0
LINE
  5
224
330
1F
100
AcDbEntity
  8
0
100
AcDbLine
 10
102.8843698045295
 20
-33.86750092841435
 30
0.0
 11
102.8843698045295
 21
-16.77889410954189
 31
0.0
  0
LINE
  5
225
330
1F
100
AcDbEntity
  8
0
100
AcDbLine
 10
107.9843698045295
 20
-33.86750092841435
 30
0.0
 11
107.9843698045295
 21
-16.77889410954189
 31
0.0
  0
LINE
  5
226
330
1F
100
AcDbEntity
  8
0
100
AcDbLine
 10
113.0843698045294
 20
-33.86750092841435
 30
0.0
 11
113.0843698045294
 21
-16.77889410954189
 31
0.0
  0
LINE
  5
227
330
1F
100
AcDbEntity
  8
0
100
AcDbLine
 10
118.1843698045295
 20
-33.86750092841435
 30
0.0
 11
118.1843698045295
 21
-16.77889410954189
 31
0.0
  0
LINE
  5
228
330
1F
100
AcDbEntity
  8
0
100
AcDbLine
 10
123.2843698045294
 20
-33.86750092841435
 30
0.0
 11
123.2843698045294
 21
-16.77889410954189
 31
0.0
  0
LINE
  5
229
330
1F
100
AcDbEntity
  8
0
100
AcDbLine
 10
128.3843698045293
 20
-33.86750092841435
 30
0.0
 11
128.3843698045293
 21
-16.77889410954189
 31
0.0
  0
LINE
  5
22A
330
1F
100
AcDbEntity
  8
0
100
AcDbLine
 10
133.4843698045295
 20
-33.86750092841435
 30
0.0
 11
133.4843698045295
 21
-16.77889410954189
 31
0.0
  0
LINE
  5
22B
330
1F
100
AcDbEntity
  8
0
100
AcDbLine
 10
138.5843698045294
 20
-33.86750092841435
 30
0.0
 11
138.5843698045294
 21
-16.77889410954189
 31
0.0
  0
DIMENSION
  5
22C
102
{ACAD_XDICTIONARY
360
22D
102
}
102
{ACAD_REACTORS
330
22E
102
}
330
1F
100
AcDbEntity
  8
0
370
    40
100
AcDbDimension
  2
*D11
 10
-23.63891364966773
 20
87.51401839616336
 30
0.0
 11
-34.38916364966774
 21
137.5140183961633
 31
0.0
 70
    32
  1
{\H0.7667x;\C256;100}
 71
     5
 42
100.0
  3
TRIEU
100
AcDbAlignedDimension
 13
-3.42812502451531
 23
187.5140183961633
 33
0.0
 14
-3.42812502451531
 24
87.51401839616336
 34
0.0
 50
90.0
100
AcDbRotatedDimension
  0
DIMENSION
  5
22F
102
{ACAD_XDICTIONARY
360
230
102
}
102
{ACAD_REACTORS
330
231
102
}
330
1F
100
AcDbEntity
  8
0
 62
     1
370
    40
100
AcDbDimension
  2
*D12
 10
160.5718749754847
 20
204.5777395496047
 30
0.0
 11
78.57187497548469
 21
215.3279895496047
 31
0.0
 70
    32
  1
{\H0.7667x;\C256;164}
 71
     5
 42
164.0
  3
TRIEU
100
AcDbAlignedDimension
 13
-3.42812502451531
 23
187.5140183961633
 33
0.0
 14
160.5718749754847
 24
187.5140183961633
 34
0.0
100
AcDbRotatedDimension
  0
DIMENSION
  5
232
330
1F
100
AcDbEntity
  8
0
370
    40
100
AcDbDimension
  2
*D10
 10
302.5534194365972
 20
-25.77889410954191
 30
0.0
 11
291.8031694365972
 21
-0.7788941095418624
 31
0.0
 70
    32
  1
{\H0.7667x;\C256;50}
 71
     5
 42
50.0
  3
TRIEU
100
AcDbAlignedDimension
 13
284.1242071504289
 23
24.22110589045811
 33
0.0
 14
280.1242071504289
 24
-25.7788941095419
 34
0.0
 50
90.0
100
AcDbRotatedDimension
  0
DIMENSION
  5
233
102
{ACAD_XDICTIONARY
360
234
102
}
102
{ACAD_REACTORS
330
235
102
}
330
1F
100
AcDbEntity
  8
0
370
    40
100
AcDbDimension
  2
*D13
 10
156.5718749754847
 20
36.78671374694336
 30
0.0
 11
78.57187497548469
 21
47.53696374694336
 31
0.0
 70
    32
  1
{\H0.7667x;\C256;156}
 71
     5
 42
156.0
  3
TRIEU
100
AcDbAlignedDimension
 13
0.5718749754846897
 23
20.2211058904581
 33
0.0
 14
156.5718749754847
 24
20.2211058904581
 34
0.0
100
AcDbRotatedDimension
  0
DIMENSION
  5
236
102
{ACAD_XDICTIONARY
360
237
102
}
102
{ACAD_REACTORS
330
238
102
}
330
1F
100
AcDbEntity
  8
0
370
    40
100
AcDbDimension
  2
*D14
 10
160.5718749754847
 20
56.4329180772042
 30
0.0
 11
78.57187497548469
 21
67.18316807720421
 31
0.0
 70
    32
  1
{\H0.7667x;\C256;164}
 71
     5
 42
164.0
  3
TRIEU
100
AcDbAlignedDimension
 13
-3.42812502451531
 23
24.22110589045811
 33
0.0
 14
160.5718749754847
 24
24.22110589045811
 34
0.0
100
AcDbRotatedDimension
  0
DIMENSION
  5
239
102
{ACAD_XDICTIONARY
360
23A
102
}
102
{ACAD_REACTORS
330
23B
102
}
330
1F
100
AcDbEntity
  8
0
370
    40
100
AcDbDimension
  2
*D15
 10
280.1242071504289
 20
35.7751401196294
 30
0.0
 11
234.1242071504289
 21
46.52539011962939
 31
0.0
 70
    32
  1
{\H0.7667x;\C256;92}
 71
     5
 42
91.99999999999997
  3
TRIEU
100
AcDbAlignedDimension
 13
188.1242071504289
 23
20.2211058904581
 33
0.0
 14
280.1242071504289
 24
20.2211058904581
 34
0.0
100
AcDbRotatedDimension
  0
DIMENSION
  5
23C
102
{ACAD_XDICTIONARY
360
23D
102
}
102
{ACAD_REACTORS
330
23E
102
}
330
1F
100
AcDbEntity
  8
0
370
    40
100
AcDbDimension
  2
*D16
 10
284.1242071504289
 20
54.80709877598219
 30
0.0
 11
234.1242071504289
 21
65.5573487759822
 31
0.0
 70
    32
  1
{\H0.7667x;\C256;100}
 71
     5
 42
99.99999999999998
  3
TRIEU
100
AcDbAlignedDimension
 13
184.1242071504289
 23
24.22110589045811
 33
0.0
 14
284.1242071504289
 24
24.22110589045811
 34
0.0
100
AcDbRotatedDimension
  0
ENDSEC
  0
SECTION
  2
OBJECTS
  0
DICTIONARY
  5
C
330
0
100
AcDbDictionary
281
     1
  3
ACAD_COLOR
350
73
  3
ACAD_GROUP
350
D
  3
ACAD_LAYOUT
350
1A
  3
ACAD_MATERIAL
350
72
  3
ACAD_MLINESTYLE
350
17
  3
ACAD_PLOTSETTINGS
350
19
  3
ACAD_PLOTSTYLENAME
350
E
  3
ACAD_TABLESTYLE
350
86
  3
ACAD_VISUALSTYLE
350
99
  3
AcDbVariableDictionary
350
66
  3
DWGPROPS
350
29E
  0
DICTIONARY
  5
116
330
2
100
AcDbDictionary
280
     1
281
     1
  3
ACAD_LAYERSTATES
360
117
  0
DICTIONARY
  5
22D
330
22C
100
AcDbDictionary
280
     1
281
     1
  3
ACAD_DIMASSOC
360
22E
  0
DICTIONARY
  5
230
330
22F
100
AcDbDictionary
280
     1
281
     1
  3
ACAD_DIMASSOC
360
231
  0
DICTIONARY
  5
234
330
233
100
AcDbDictionary
280
     1
281
     1
  3
ACAD_DIMASSOC
360
235
  0
DICTIONARY
  5
237
330
236
100
AcDbDictionary
280
     1
281
     1
  3
ACAD_DIMASSOC
360
238
  0
DICTIONARY
  5
23A
330
239
100
AcDbDictionary
280
     1
281
     1
  3
ACAD_DIMASSOC
360
23B
  0
DICTIONARY
  5
23D
330
23C
100
AcDbDictionary
280
     1
281
     1
  3
ACAD_DIMASSOC
360
23E
  0
DICTIONARY
  5
73
102
{ACAD_REACTORS
330
C
102
}
330
C
100
AcDbDictionary
281
     1
  0
DICTIONARY
  5
D
102
{ACAD_REACTORS
330
C
102
}
330
C
100
AcDbDictionary
281
     1
  0
DICTIONARY
  5
1A
102
{ACAD_REACTORS
330
C
102
}
330
C
100
AcDbDictionary
281
     1
  3
Layout1
350
59
  3
Layout2
350
5E
  3
Model
350
22
  0
DICTIONARY
  5
72
102
{ACAD_REACTORS
330
C
102
}
330
C
100
AcDbDictionary
281
     1
  3
ByBlock
350
97
  3
ByLayer
350
96
  3
Global
350
98
  0
DICTIONARY
  5
17
102
{ACAD_REACTORS
330
C
102
}
330
C
100
AcDbDictionary
281
     1
  3
Standard
350
18
  0
DICTIONARY
  5
19
102
{ACAD_REACTORS
330
C
102
}
330
C
100
AcDbDictionary
281
     1
  0
ACDBDICTIONARYWDFLT
  5
E
102
{ACAD_REACTORS
330
C
102
}
330
C
100
AcDbDictionary
281
     1
  3
Normal
350
F
100
AcDbDictionaryWithDefault
340
F
  0
DICTIONARY
  5
86
102
{ACAD_REACTORS
330
C
102
}
330
C
100
AcDbDictionary
281
     1
  3
Standard
350
87
  0
DICTIONARY
  5
99
102
{ACAD_REACTORS
330
C
102
}
330
C
100
AcDbDictionary
281
     1
  3
2dWireframe
350
9F
  3
3D Hidden
350
A1
  3
3dWireframe
350
A0
  3
Basic
350
9E
  3
Brighten
350
A5
  3
ColorChange
350
A9
  3
Conceptual
350
A2
  3
Dim
350
A4
  3
Facepattern
350
A8
  3
Flat
350
9A
  3
FlatWithEdges
350
9B
  3
Gouraud
350
9C
  3
GouraudWithEdges
350
9D
  3
Linepattern
350
A7
  3
Realistic
350
A3
  3
Thicken
350
A6
  0
DICTIONARY
  5
66
102
{ACAD_REACTORS
330
C
102
}
330
C
100
AcDbDictionary
281
     1
  3
CTABLESTYLE
350
89
  3
DIMASSOC
350
67
  3
HIDETEXT
350
6B
  3
INDEXCTL
350
29D
  3
SORTENTS
350
29C
  0
XRECORD
  5
29E
102
{ACAD_REACTORS
330
C
102
}
330
C
100
AcDbXrecord
280
     1
  1
DWGPROPS COOKIE
  2

  3

  4

  6

  7

  8
Administrator
  9

300
=
301
=
302
=
303
=
304
=
305
=
306
=
307
=
308
=
309
=
 40
0.0008601157407407
 41
2458472.371593658
 42
2458472.372450625
  1

 90
        0
  0
DICTIONARY
  5
117
102
{ACAD_REACTORS
330
116
102
}
330
116
100
AcDbDictionary
281
     1
  0
DIMASSOC
  5
22E
102
{ACAD_REACTORS
330
22D
102
}
330
22D
100
AcDbDimAssoc
330
22C
 90
        3
 70
     0
 71
     0
  1
AcDbOsnapPointRef
 72
    13
331
1B0
 73
     2
 91
        1
 40
0.0
 10
0.0
 20
0.0
 30
2.000000000000000E+50
 75
     0
  1
AcDbOsnapPointRef
 72
     1
331
1B0
 73
     2
 91
        3
 40
1.0
 10
0.0
 20
0.0
 30
2.000000000000000E+50
 75
     0
  0
DIMASSOC
  5
231
102
{ACAD_REACTORS
330
230
102
}
330
230
100
AcDbDimAssoc
330
22F
 90
        2
 70
     0
 71
     0
  1
AcDbOsnapPointRef
 72
     1
331
1B0
 73
     2
 91
        1
 40
1.0
 10
0.0
 20
0.0
 30
2.000000000000000E+50
 75
     0
  0
DIMASSOC
  5
235
102
{ACAD_REACTORS
330
234
102
}
330
234
100
AcDbDimAssoc
330
233
 90
        3
 70
     0
 71
     0
  1
AcDbOsnapPointRef
 72
    13
331
1C7
 73
     2
 91
        0
 40
0.0
 10
0.0
 20
0.0
 30
2.000000000000000E+50
 75
     0
  1
AcDbOsnapPointRef
 72
    13
331
1C8
 73
     2
 91
        0
 40
0.0
 10
0.0
 20
0.0
 30
2.000000000000000E+50
 75
     0
  0
DIMASSOC
  5
238
102
{ACAD_REACTORS
330
237
102
}
330
237
100
AcDbDimAssoc
330
236
 90
        3
 70
     0
 71
     0
  1
AcDbOsnapPointRef
 72
     1
331
1C6
 73
     2
 91
        0
 40
1.0
 10
0.0
 20
0.0
 30
2.000000000000000E+50
 75
     0
  1
AcDbOsnapPointRef
 72
    13
331
1C6
 73
     2
 91
        0
 40
0.0
 10
0.0
 20
0.0
 30
2.000000000000000E+50
 75
     0
  0
DIMASSOC
  5
23B
102
{ACAD_REACTORS
330
23A
102
}
330
23A
100
AcDbDimAssoc
330
239
 90
        3
 70
     0
 71
     0
  1
AcDbOsnapPointRef
 72
    13
331
1E4
 73
     2
 91
        0
 40
0.0
 10
0.0
 20
0.0
 30
2.000000000000000E+50
 75
     0
  1
AcDbOsnapPointRef
 72
    13
331
1E5
 73
     2
 91
        0
 40
0.0
 10
0.0
 20
0.0
 30
2.000000000000000E+50
 75
     0
  0
DIMASSOC
  5
23E
102
{ACAD_REACTORS
330
23D
102
}
330
23D
100
AcDbDimAssoc
330
23C
 90
        1
 70
     0
 71
     0
  1
AcDbOsnapPointRef
 72
     1
331
1E1
 73
     2
 91
        2
 40
1.0
 10
0.0
 20
0.0
 30
2.000000000000000E+50
 75
     0
  0
LAYOUT
  5
59
102
{ACAD_XDICTIONARY
360
2A1
102
}
102
{ACAD_REACTORS
330
1A
102
}
330
1A
100
AcDbPlotSettings
  1

  2
None
  4

  6

 40
0.0
 41
0.0
 42
0.0
 43
0.0
 44
0.0
 45
0.0
 46
0.0
 47
0.0
 48
0.0
 49
0.0
140
0.0
141
0.0
142
1.0
143
1.0
 70
   688
 72
     0
 73
     0
 74
     5
  7

 75
    16
147
1.0
148
0.0
149
0.0
100
AcDbLayout
  1
Layout1
 70
     1
 71
     1
 10
0.0
 20
0.0
 11
12.0
 21
9.0
 12
0.0
 22
0.0
 32
0.0
 14
0.0
 24
0.0
 34
0.0
 15
0.0
 25
0.0
 35
0.0
146
0.0
 13
0.0
 23
0.0
 33
0.0
 16
1.0
 26
0.0
 36
0.0
 17
0.0
 27
1.0
 37
0.0
 76
     0
330
58
  0
LAYOUT
  5
5E
102
{ACAD_XDICTIONARY
360
2A3
102
}
102
{ACAD_REACTORS
330
1A
102
}
330
1A
100
AcDbPlotSettings
  1

  2
None
  4

  6

 40
0.0
 41
0.0
 42
0.0
 43
0.0
 44
0.0
 45
0.0
 46
0.0
 47
0.0
 48
0.0
 49
0.0
140
0.0
141
0.0
142
1.0
143
1.0
 70
   688
 72
     0
 73
     0
 74
     5
  7

 75
    16
147
1.0
148
0.0
149
0.0
100
AcDbLayout
  1
Layout2
 70
     1
 71
     2
 10
0.0
 20
0.0
 11
12.0
 21
9.0
 12
0.0
 22
0.0
 32
0.0
 14
0.0
 24
0.0
 34
0.0
 15
0.0
 25
0.0
 35
0.0
146
0.0
 13
0.0
 23
0.0
 33
0.0
 16
1.0
 26
0.0
 36
0.0
 17
0.0
 27
1.0
 37
0.0
 76
     0
330
5D
  0
LAYOUT
  5
22
102
{ACAD_XDICTIONARY
360
29F
102
}
102
{ACAD_REACTORS
330
1A
102
}
330
1A
100
AcDbPlotSettings
  1

  2
none_device
  4
ANSI_A_(8.50_x_11.00_Inches)
  6

 40
6.349999904632568
 41
19.04999923706055
 42
6.350006103515625
 43
19.04998779296875
 44
215.8999938964844
 45
279.3999938964844
 46
0.0
 47
0.0
 48
0.0
 49
0.0
140
0.0
141
0.0
142
1.0
143
2.584895464708373
 70
 11952
 72
     0
 73
     1
 74
     0
  7

 75
     0
147
0.3868628397755418
148
0.0
149
0.0
100
AcDbLayout
  1
Model
 70
     1
 71
     0
 10
0.0
 20
0.0
 11
12.0
 21
9.0
 12
0.0
 22
0.0
 32
0.0
 14
0.0
 24
0.0
 34
0.0
 15
0.0
 25
0.0
 35
0.0
146
0.0
 13
0.0
 23
0.0
 33
0.0
 16
1.0
 26
0.0
 36
0.0
 17
0.0
 27
1.0
 37
0.0
 76
     0
330
1F
331
94
  0
MATERIAL
  5
97
102
{ACAD_XDICTIONARY
360
2A9
102
}
102
{ACAD_REACTORS
330
72
102
}
330
72
100
AcDbMaterial
  1
ByBlock
  0
MATERIAL
  5
96
102
{ACAD_XDICTIONARY
360
2A7
102
}
102
{ACAD_REACTORS
330
72
102
}
330
72
100
AcDbMaterial
  1
ByLayer
  0
MATERIAL
  5
98
102
{ACAD_XDICTIONARY
360
2AB
102
}
102
{ACAD_REACTORS
330
72
102
}
330
72
100
AcDbMaterial
  1
Global
  0
MLINESTYLE
  5
18
102
{ACAD_REACTORS
330
17
102
}
330
17
100
AcDbMlineStyle
  2
STANDARD
 70
     0
  3

 62
   256
 51
90.0
 52
90.0
 71
     2
 49
0.5
 62
   256
  6
BYLAYER
 49
-0.5
 62
   256
  6
BYLAYER
  0
ACDBPLACEHOLDER
  5
F
102
{ACAD_REACTORS
330
E
102
}
330
E
  0
TABLESTYLE
  5
87
102
{ACAD_XDICTIONARY
360
2A5
102
}
102
{ACAD_REACTORS
330
86
102
}
330
86
100
AcDbTableStyle
  3
Standard
 70
     0
 71
     0
 40
0.06
 41
0.06
280
     0
281
     0
  7
Standard
140
0.18
170
     2
 62
     0
 63
     7
283
     0
274
    -2
284
     1
 64
     0
275
    -2
285
     1
 65
     0
276
    -2
286
     1
 66
     0
277
    -2
287
     1
 67
     0
278
    -2
288
     1
 68
     0
279
    -2
289
     1
 69
     0
  7
Standard
140
0.25
170
     5
 62
     0
 63
     7
283
     0
274
    -2
284
     1
 64
     0
275
    -2
285
     1
 65
     0
276
    -2
286
     1
 66
     0
277
    -2
287
     1
 67
     0
278
    -2
288
     1
 68
     0
279
    -2
289
     1
 69
     0
  7
Standard
140
0.18
170
     5
 62
     0
 63
     7
283
     0
274
    -2
284
     1
 64
     0
275
    -2
285
     1
 65
     0
276
    -2
286
     1
 66
     0
277
    -2
287
     1
 67
     0
278
    -2
288
     1
 68
     0
279
    -2
289
     1
 69
     0
  0
VISUALSTYLE
  5
9F
102
{ACAD_REACTORS
330
99
102
}
330
99
100
AcDbVisualStyle
  2
2dWireframe
 70
     4
 71
     0
 72
     2
 73
     1
 90
        0
 40
-0.6
 41
-30.0
 62
     5
 63
     7
 74
     1
 91
        4
 64
     7
 65
   257
 75
     1
175
     1
 42
1.0
 92
        0
 66
   257
 43
1.0
 76
     1
 77
     6
 78
     2
 67
     7
 79
     5
170
     0
171
     0
290
     0
174
     0
 93
        1
 44
0.0
173
     0
291
     0
 45
0.0
1001
ACAD
1000
AcDbSavedByObjectVersion
1070
     0
  0
VISUALSTYLE
  5
A1
102
{ACAD_REACTORS
330
99
102
}
330
99
100
AcDbVisualStyle
  2
3D Hidden
 70
     6
 71
     1
 72
     2
 73
     2
 90
        0
 40
-0.6
 41
-30.0
 62
     5
 63
     7
 74
     2
 91
        2
 64
     7
 65
   257
 75
     2
175
     1
 42
40.0
 92
        0
 66
   257
 43
1.0
 76
     1
 77
     6
 78
     2
 67
     7
 79
     3
170
     0
171
     0
290
     0
174
     0
 93
        1
 44
0.0
173
     0
291
     0
 45
0.0
1001
ACAD
1000
AcDbSavedByObjectVersion
1070
     0
  0
VISUALSTYLE
  5
A0
102
{ACAD_REACTORS
330
99
102
}
330
99
100
AcDbVisualStyle
  2
3dWireframe
 70
     5
 71
     0
 72
     2
 73
     1
 90
        0
 40
-0.6
 41
-30.0
 62
     5
 63
     7
 74
     1
 91
        4
 64
     7
 65
   257
 75
     1
175
     1
 42
1.0
 92
        0
 66
   257
 43
1.0
 76
     1
 77
     6
 78
     2
 67
     7
 79
     5
170
     0
171
     0
290
     0
174
     0
 93
        1
 44
0.0
173
     0
291
     0
 45
0.0
1001
ACAD
1000
AcDbSavedByObjectVersion
1070
     0
  0
VISUALSTYLE
  5
9E
102
{ACAD_REACTORS
330
99
102
}
330
99
100
AcDbVisualStyle
  2
Basic
 70
     7
 71
     1
 72
     0
 73
     1
 90
        0
 40
-0.6
 41
-30.0
 62
     5
 63
     7
 74
     0
 91
        4
 64
     7
 65
   257
 75
     1
175
     1
 42
1.0
 92
        8
 66
     7
 43
1.0
 76
     1
 77
     6
 78
     2
 67
     7
 79
     5
170
     0
171
     0
290
     0
174
     0
 93
        1
 44
0.0
173
     0
291
     1
 45
0.0
1001
ACAD
1000
AcDbSavedByObjectVersion
1070
     0
  0
VISUALSTYLE
  5
A5
102
{ACAD_REACTORS
330
99
102
}
330
99
100
AcDbVisualStyle
  2
Brighten
 70
    12
 71
     2
 72
     2
 73
     1
 90
        0
 40
-0.6
 41
-30.0
 62
     5
 63
     7
 74
     1
 91
        4
 64
     7
 65
   257
 75
     1
175
     1
 42
1.0
 92
        8
 66
     7
 43
1.0
 76
     1
 77
     6
 78
     2
 67
     7
 79
     5
170
     0
171
     0
290
     0
174
     0
 93
        1
 44
50.0
173
     0
291
     1
 45
0.0
1001
ACAD
1000
AcDbSavedByObjectVersion
1070
     0
  0
VISUALSTYLE
  5
A9
102
{ACAD_REACTORS
330
99
102
}
330
99
100
AcDbVisualStyle
  2
ColorChange
 70
    16
 71
     2
 72
     2
 73
     3
 90
        0
 40
-0.6
 41
-30.0
 62
     5
 63
     8
 74
     1
 91
        4
 64
     7
 65
   257
 75
     1
175
     1
 42
1.0
 92
        8
 66
     8
 43
1.0
 76
     1
 77
     6
 78
     2
 67
     7
 79
     5
170
     0
171
     0
290
     0
174
     0
 93
        1
 44
0.0
173
     0
291
     1
 45
0.0
1001
ACAD
1000
AcDbSavedByObjectVersion
1070
     0
  0
VISUALSTYLE
  5
A2
102
{ACAD_REACTORS
330
99
102
}
330
99
100
AcDbVisualStyle
  2
Conceptual
 70
     9
 71
     3
 72
     2
 73
     1
 90
        0
 40
-0.6
 41
-30.0
 62
     5
 63
     7
 74
     2
 91
        2
 64
     7
 65
   257
 75
     1
175
     1
 42
40.0
 92
        8
 66
     7
 43
1.0
 76
     1
 77
     6
 78
     2
 67
     7
 79
     3
170
     0
171
     0
290
     0
174
     0
 93
        1
 44
0.0
173
     0
291
     0
 45
0.0
1001
ACAD
1000
AcDbSavedByObjectVersion
1070
     0
  0
VISUALSTYLE
  5
A4
102
{ACAD_REACTORS
330
99
102
}
330
99
100
AcDbVisualStyle
  2
Dim
 70
    11
 71
     2
 72
     2
 73
     1
 90
        0
 40
-0.6
 41
-30.0
 62
     5
 63
     7
 74
     1
 91
        4
 64
     7
 65
   257
 75
     1
175
     1
 42
1.0
 92
        8
 66
     7
 43
1.0
 76
     1
 77
     6
 78
     2
 67
     7
 79
     5
170
     0
171
     0
290
     0
174
     0
 93
        1
 44
-50.0
173
     0
291
     1
 45
0.0
1001
ACAD
1000
AcDbSavedByObjectVersion
1070
     0
  0
VISUALSTYLE
  5
A8
102
{ACAD_REACTORS
330
99
102
}
330
99
100
AcDbVisualStyle
  2
Facepattern
 70
    15
 71
     2
 72
     2
 73
     1
 90
        0
 40
-0.6
 41
-30.0
 62
     5
 63
     7
 74
     1
 91
        4
 64
     7
 65
   257
 75
     1
175
     1
 42
1.0
 92
        8
 66
     7
 43
1.0
 76
     1
 77
     6
 78
     2
 67
     7
 79
     5
170
     0
171
     0
290
     0
174
     0
 93
        1
 44
0.0
173
     0
291
     1
 45
0.0
1001
ACAD
1000
AcDbSavedByObjectVersion
1070
     0
  0
VISUALSTYLE
  5
9A
102
{ACAD_REACTORS
330
99
102
}
330
99
100
AcDbVisualStyle
  2
Flat
 70
     0
 71
     2
 72
     1
 73
     1
 90
        2
 40
-0.6
 41
30.0
 62
     5
 63
     7
 74
     0
 91
        4
 64
     7
 65
   257
 75
     1
175
     1
 42
1.0
 92
        8
 66
     7
 43
1.0
 76
     1
 77
     6
 78
     2
 67
     7
 79
     5
170
     0
171
     0
290
     0
174
     0
 93
        1
 44
0.0
173
     0
291
     1
 45
0.0
1001
ACAD
1000
AcDbSavedByObjectVersion
1070
     0
  0
VISUALSTYLE
  5
9B
102
{ACAD_REACTORS
330
99
102
}
330
99
100
AcDbVisualStyle
  2
FlatWithEdges
 70
     1
 71
     2
 72
     1
 73
     1
 90
        2
 40
-0.6
 41
30.0
 62
     5
 63
     7
 74
     1
 91
        4
 64
     7
 65
   257
 75
     1
175
     1
 42
1.0
 92
        0
 66
   257
 43
1.0
 76
     1
 77
     6
 78
     2
 67
     7
 79
     5
170
     0
171
     0
290
     0
174
     0
 93
        1
 44
0.0
173
     0
291
     1
 45
0.0
1001
ACAD
1000
AcDbSavedByObjectVersion
1070
     0
  0
VISUALSTYLE
  5
9C
102
{ACAD_REACTORS
330
99
102
}
330
99
100
AcDbVisualStyle
  2
Gouraud
 70
     2
 71
     2
 72
     2
 73
     1
 90
        2
 40
-0.6
 41
30.0
 62
     5
 63
     7
 74
     0
 91
        4
 64
     7
 65
   257
 75
     1
175
     1
 42
1.0
 92
        0
 66
     7
 43
1.0
 76
     1
 77
     6
 78
     2
 67
     7
 79
     5
170
     0
171
     0
290
     0
174
     0
 93
        1
 44
0.0
173
     0
291
     1
 45
0.0
1001
ACAD
1000
AcDbSavedByObjectVersion
1070
     0
  0
VISUALSTYLE
  5
9D
102
{ACAD_REACTORS
330
99
102
}
330
99
100
AcDbVisualStyle
  2
GouraudWithEdges
 70
     3
 71
     2
 72
     2
 73
     1
 90
        2
 40
-0.6
 41
30.0
 62
     5
 63
     7
 74
     1
 91
        4
 64
     7
 65
   257
 75
     1
175
     1
 42
1.0
 92
        0
 66
   257
 43
1.0
 76
     1
 77
     6
 78
     2
 67
     7
 79
     5
170
     0
171
     0
290
     0
174
     0
 93
        1
 44
0.0
173
     0
291
     1
 45
0.0
1001
ACAD
1000
AcDbSavedByObjectVersion
1070
     0
  0
VISUALSTYLE
  5
A7
102
{ACAD_REACTORS
330
99
102
}
330
99
100
AcDbVisualStyle
  2
Linepattern
 70
    14
 71
     2
 72
     2
 73
     1
 90
        0
 40
-0.6
 41
-30.0
 62
     5
 63
     7
 74
     1
 91
        4
 64
     7
 65
   257
 75
     7
175
     7
 42
1.0
 92
        8
 66
     7
 43
1.0
 76
     1
 77
     6
 78
     2
 67
     7
 79
     5
170
     0
171
     0
290
     0
174
     0
 93
        1
 44
0.0
173
     0
291
     1
 45
0.0
1001
ACAD
1000
AcDbSavedByObjectVersion
1070
     0
  0
VISUALSTYLE
  5
A3
102
{ACAD_REACTORS
330
99
102
}
330
99
100
AcDbVisualStyle
  2
Realistic
 70
     8
 71
     2
 72
     2
 73
     1
 90
        0
 40
-0.6
 41
-30.0
 62
     5
 63
     7
 74
     1
 91
        0
 64
     7
 65
   257
 75
     1
175
     1
 42
1.0
 92
        8
 66
     8
 43
1.0
 76
     1
 77
     6
 78
     2
 67
     7
 79
     5
170
     0
171
     0
290
     0
174
     0
 93
       13
 44
0.0
173
     0
291
     0
 45
0.0
1001
ACAD
1000
AcDbSavedByObjectVersion
1070
     0
  0
VISUALSTYLE
  5
A6
102
{ACAD_REACTORS
330
99
102
}
330
99
100
AcDbVisualStyle
  2
Thicken
 70
    13
 71
     2
 72
     2
 73
     1
 90
        0
 40
-0.6
 41
-30.0
 62
     5
 63
     7
 74
     1
 91
        4
 64
     7
 65
   257
 75
     1
175
     1
 42
1.0
 92
       12
 66
     7
 43
1.0
 76
     1
 77
     6
 78
     2
 67
     7
 79
     5
170
     0
171
     0
290
     0
174
     0
 93
        1
 44
0.0
173
     0
291
     1
 45
0.0
1001
ACAD
1000
AcDbSavedByObjectVersion
1070
     0
  0
DICTIONARYVAR
  5
89
102
{ACAD_REACTORS
330
66
102
}
330
66
100
DictionaryVariables
280
     0
  1
STANDARD
  0
DICTIONARYVAR
  5
67
102
{ACAD_REACTORS
330
66
102
}
330
66
100
DictionaryVariables
280
     0
  1
2
  0
DICTIONARYVAR
  5
6B
102
{ACAD_REACTORS
330
66
102
}
330
66
100
DictionaryVariables
280
     0
  1
1
  0
DICTIONARYVAR
  5
29D
102
{ACAD_REACTORS
330
66
102
}
330
66
100
DictionaryVariables
280
     0
  1
0
  0
DICTIONARYVAR
  5
29C
102
{ACAD_REACTORS
330
66
102
}
330
66
100
DictionaryVariables
280
     0
  1
127
  0
DICTIONARY
  5
2A1
330
59
100
AcDbDictionary
280
     1
281
     1
  3
ACAD_XREC_ROUNDTRIP
360
2A2
  0
DICTIONARY
  5
2A3
330
5E
100
AcDbDictionary
280
     1
281
     1
  3
ACAD_XREC_ROUNDTRIP
360
2A4
  0
DICTIONARY
  5
29F
330
22
100
AcDbDictionary
280
     1
281
     1
  3
ACAD_XREC_ROUNDTRIP
360
2A0
  0
DICTIONARY
  5
2A9
330
97
100
AcDbDictionary
280
     1
281
     1
  3
ACAD_XREC_ROUNDTRIP
360
2AA
  0
DICTIONARY
  5
2A7
330
96
100
AcDbDictionary
280
     1
281
     1
  3
ACAD_XREC_ROUNDTRIP
360
2A8
  0
DICTIONARY
  5
2AB
330
98
100
AcDbDictionary
280
     1
281
     1
  3
ACAD_XREC_ROUNDTRIP
360
2AC
  0
DICTIONARY
  5
2A5
330
87
100
AcDbDictionary
280
     1
281
     1
  3
ACAD_XREC_ROUNDTRIP
360
2A6
  0
XRECORD
  5
2A2
102
{ACAD_REACTORS
330
2A1
102
}
330
2A1
100
AcDbXrecord
280
     1
102
SHADEPLOT
 70
     0
102
SHADEPLOTRESLEVEL
 70
     2
102
SHADEPLOTCUSTOMDPI
 70
   300
  0
XRECORD
  5
2A4
102
{ACAD_REACTORS
330
2A3
102
}
330
2A3
100
AcDbXrecord
280
     1
102
SHADEPLOT
 70
     0
102
SHADEPLOTRESLEVEL
 70
     2
102
SHADEPLOTCUSTOMDPI
 70
   300
  0
XRECORD
  5
2A0
102
{ACAD_REACTORS
330
29F
102
}
330
29F
100
AcDbXrecord
280
     1
102
SHADEPLOT
 70
     0
102
SHADEPLOTRESLEVEL
 70
     2
102
SHADEPLOTCUSTOMDPI
 70
   300
  0
XRECORD
  5
2AA
102
{ACAD_REACTORS
330
2A9
102
}
330
2A9
100
AcDbXrecord
280
     1
102
MATERIAL
148
0.0
149
0.0
149
0.0
 93
        0
 94
       63
282
     0
 72
     1
 77
     1
171
     1
175
     1
179
     1
273
     0
  0
XRECORD
  5
2A8
102
{ACAD_REACTORS
330
2A7
102
}
330
2A7
100
AcDbXrecord
280
     1
102
MATERIAL
148
0.0
149
0.0
149
0.0
 93
        0
 94
       63
282
     0
 72
     1
 77
     1
171
     1
175
     1
179
     1
273
     0
  0
XRECORD
  5
2AC
102
{ACAD_REACTORS
330
2AB
102
}
330
2AB
100
AcDbXrecord
280
     1
102
MATERIAL
148
0.0
149
0.0
149
0.0
 93
        0
 94
       63
282
     0
 72
     1
 77
     1
171
     1
175
     1
179
     1
273
     0
  0
XRECORD
  5
2A6
102
{ACAD_REACTORS
330
2A5
102
}
330
2A5
100
AcDbXrecord
280
     1
102
ACAD_ROUNDTRIP_PRE2007_TABLESTYLE
 90
      512
 91
        0
  1

 92
      512
 93
        0
  2

 94
      512
 95
        0
  3

  0
ENDSEC
  0
EOF
