  0
SECTION
  2
HEADER
  9
$ACADVER
  1
AC1015
  9
$ACADMAINTVER
 70
    20
  9
$DWGCODEPAGE
  3
ANSI_1252
  9
$INSBASE
 10
0.0
 20
0.0
 30
0.0
  9
$EXTMIN
 10
45.01433903053785
 20
16.77210118642742
 30
0.0
  9
$EXTMAX
 10
370.5315212218484
 20
259.5156727820875
 30
0.0
  9
$LIMMIN
 10
0.0
 20
0.0
  9
$LIMMAX
 10
12.0
 20
9.0
  9
$ORTHOMODE
 70
     0
  9
$REGENMODE
 70
     1
  9
$FILLMODE
 70
     1
  9
$QTEXTMODE
 70
     0
  9
$MIRRTEXT
 70
     0
  9
$LTSCALE
 40
1.0
  9
$ATTMODE
 70
     1
  9
$TEXTSIZE
 40
0.2
  9
$TRACEWID
 40
0.05
  9
$TEXTSTYLE
  7
Standard
  9
$CLAYER
  8
0
  9
$CELTYPE
  6
ByLayer
  9
$CECOLOR
 62
   256
  9
$CELTSCALE
 40
1.0
  9
$DISPSILH
 70
     0
  9
$DIMSCALE
 40
1.0
  9
$DIMASZ
 40
0.18
  9
$DIMEXO
 40
0.0625
  9
$DIMDLI
 40
0.38
  9
$DIMRND
 40
0.0
  9
$DIMDLE
 40
0.0
  9
$DIMEXE
 40
0.18
  9
$DIMTP
 40
0.0
  9
$DIMTM
 40
0.0
  9
$DIMTXT
 40
0.18
  9
$DIMCEN
 40
0.09
  9
$DIMTSZ
 40
0.0
  9
$DIMTOL
 70
     0
  9
$DIMLIM
 70
     0
  9
$DIMTIH
 70
     1
  9
$DIMTOH
 70
     1
  9
$DIMSE1
 70
     0
  9
$DIMSE2
 70
     0
  9
$DIMTAD
 70
     0
  9
$DIMZIN
 70
     0
  9
$DIMBLK
  1

  9
$DIMASO
 70
     1
  9
$DIMSHO
 70
     1
  9
$DIMPOST
  1

  9
$DIMAPOST
  1

  9
$DIMALT
 70
     0
  9
$DIMALTD
 70
     2
  9
$DIMALTF
 40
25.4
  9
$DIMLFAC
 40
1.0
  9
$DIMTOFL
 70
     0
  9
$DIMTVP
 40
0.0
  9
$DIMTIX
 70
     0
  9
$DIMSOXD
 70
     0
  9
$DIMSAH
 70
     0
  9
$DIMBLK1
  1

  9
$DIMBLK2
  1

  9
$DIMSTYLE
  2
Standard
  9
$DIMCLRD
 70
     0
  9
$DIMCLRE
 70
     0
  9
$DIMCLRT
 70
     0
  9
$DIMTFAC
 40
1.0
  9
$DIMGAP
 40
0.09
  9
$DIMJUST
 70
     0
  9
$DIMSD1
 70
     0
  9
$DIMSD2
 70
     0
  9
$DIMTOLJ
 70
     1
  9
$DIMTZIN
 70
     0
  9
$DIMALTZ
 70
     0
  9
$DIMALTTZ
 70
     0
  9
$DIMUPT
 70
     0
  9
$DIMDEC
 70
     4
  9
$DIMTDEC
 70
     4
  9
$DIMALTU
 70
     2
  9
$DIMALTTD
 70
     2
  9
$DIMTXSTY
  7
Standard
  9
$DIMAUNIT
 70
     0
  9
$DIMADEC
 70
     0
  9
$DIMALTRND
 40
0.0
  9
$DIMAZIN
 70
     0
  9
$DIMDSEP
 70
    46
  9
$DIMATFIT
 70
     3
  9
$DIMFRAC
 70
     0
  9
$DIMLDRBLK
  1

  9
$DIMLUNIT
 70
     2
  9
$DIMLWD
 70
    -2
  9
$DIMLWE
 70
    -2
  9
$DIMTMOVE
 70
     0
  9
$LUNITS
 70
     2
  9
$LUPREC
 70
     4
  9
$SKETCHINC
 40
0.1
  9
$FILLETRAD
 40
0.0
  9
$AUNITS
 70
     0
  9
$AUPREC
 70
     0
  9
$MENU
  1
.
  9
$ELEVATION
 40
0.0
  9
$PELEVATION
 40
0.0
  9
$THICKNESS
 40
0.0
  9
$LIMCHECK
 70
     0
  9
$CHAMFERA
 40
0.0
  9
$CHAMFERB
 40
0.0
  9
$CHAMFERC
 40
0.0
  9
$CHAMFERD
 40
0.0
  9
$SKPOLY
 70
     0
  9
$TDCREATE
 40
2458472.427121343
  9
$TDUCREATE
 40
2458472.135454676
  9
$TDUPDATE
 40
2458472.427490614
  9
$TDUUPDATE
 40
2458472.135823947
  9
$TDINDWG
 40
0.0003729977
  9
$TDUSRTIMER
 40
0.0003729398
  9
$USRTIMER
 70
     1
  9
$ANGBASE
 50
0.0
  9
$ANGDIR
 70
     0
  9
$PDMODE
 70
     0
  9
$PDSIZE
 40
0.0
  9
$PLINEWID
 40
0.0
  9
$SPLFRAME
 70
     0
  9
$SPLINETYPE
 70
     6
  9
$SPLINESEGS
 70
     8
  9
$HANDSEED
  5
424
  9
$SURFTAB1
 70
     6
  9
$SURFTAB2
 70
     6
  9
$SURFTYPE
 70
     6
  9
$SURFU
 70
     6
  9
$SURFV
 70
     6
  9
$UCSBASE
  2

  9
$UCSNAME
  2

  9
$UCSORG
 10
0.0
 20
0.0
 30
0.0
  9
$UCSXDIR
 10
1.0
 20
0.0
 30
0.0
  9
$UCSYDIR
 10
0.0
 20
1.0
 30
0.0
  9
$UCSORTHOREF
  2

  9
$UCSORTHOVIEW
 70
     0
  9
$UCSORGTOP
 10
0.0
 20
0.0
 30
0.0
  9
$UCSORGBOTTOM
 10
0.0
 20
0.0
 30
0.0
  9
$UCSORGLEFT
 10
0.0
 20
0.0
 30
0.0
  9
$UCSORGRIGHT
 10
0.0
 20
0.0
 30
0.0
  9
$UCSORGFRONT
 10
0.0
 20
0.0
 30
0.0
  9
$UCSORGBACK
 10
0.0
 20
0.0
 30
0.0
  9
$PUCSBASE
  2

  9
$PUCSNAME
  2

  9
$PUCSORG
 10
0.0
 20
0.0
 30
0.0
  9
$PUCSXDIR
 10
1.0
 20
0.0
 30
0.0
  9
$PUCSYDIR
 10
0.0
 20
1.0
 30
0.0
  9
$PUCSORTHOREF
  2

  9
$PUCSORTHOVIEW
 70
     0
  9
$PUCSORGTOP
 10
0.0
 20
0.0
 30
0.0
  9
$PUCSORGBOTTOM
 10
0.0
 20
0.0
 30
0.0
  9
$PUCSORGLEFT
 10
0.0
 20
0.0
 30
0.0
  9
$PUCSORGRIGHT
 10
0.0
 20
0.0
 30
0.0
  9
$PUCSORGFRONT
 10
0.0
 20
0.0
 30
0.0
  9
$PUCSORGBACK
 10
0.0
 20
0.0
 30
0.0
  9
$USERI1
 70
     0
  9
$USERI2
 70
     0
  9
$USERI3
 70
     0
  9
$USERI4
 70
     0
  9
$USERI5
 70
     0
  9
$USERR1
 40
0.0
  9
$USERR2
 40
0.0
  9
$USERR3
 40
0.0
  9
$USERR4
 40
0.0
  9
$USERR5
 40
0.0
  9
$WORLDVIEW
 70
     1
  9
$SHADEDGE
 70
     3
  9
$SHADEDIF
 70
    70
  9
$TILEMODE
 70
     1
  9
$MAXACTVP
 70
    64
  9
$PINSBASE
 10
0.0
 20
0.0
 30
0.0
  9
$PLIMCHECK
 70
     0
  9
$PEXTMIN
 10
0.0
 20
0.0
 30
0.0
  9
$PEXTMAX
 10
0.0
 20
0.0
 30
0.0
  9
$PLIMMIN
 10
0.0
 20
0.0
  9
$PLIMMAX
 10
12.0
 20
9.0
  9
$UNITMODE
 70
     0
  9
$VISRETAIN
 70
     1
  9
$PLINEGEN
 70
     0
  9
$PSLTSCALE
 70
     1
  9
$TREEDEPTH
 70
  3020
  9
$CMLSTYLE
  2
Standard
  9
$CMLJUST
 70
     0
  9
$CMLSCALE
 40
1.0
  9
$PROXYGRAPHICS
 70
     1
  9
$MEASUREMENT
 70
     0
  9
$CELWEIGHT
370
    -1
  9
$ENDCAPS
280
     0
  9
$JOINSTYLE
280
     0
  9
$LWDISPLAY
290
     0
  9
$INSUNITS
 70
     1
  9
$HYPERLINKBASE
  1

  9
$STYLESHEET
  1

  9
$XEDIT
290
     1
  9
$CEPSNTYPE
380
     0
  9
$PSTYLEMODE
290
     1
  9
$FINGERPRINTGUID
  2
{602BF294-B262-430D-A729-C7C325B0B9A6}
  9
$VERSIONGUID
  2
{68B0D2A7-1FB0-40AC-BFB9-40FD6ADEAD4F}
  9
$EXTNAMES
290
     1
  9
$PSVPSCALE
 40
0.0
  9
$OLESTARTUP
290
     0
  0
ENDSEC
  0
SECTION
  2
CLASSES
  0
CLASS
  1
ACDBDICTIONARYWDFLT
  2
AcDbDictionaryWithDefault
  3
ObjectDBX Classes
 90
        0
280
     0
281
     0
  0
CLASS
  1
ACDBPLACEHOLDER
  2
AcDbPlaceHolder
  3
ObjectDBX Classes
 90
        0
280
     0
281
     0
  0
CLASS
  1
LAYOUT
  2
AcDbLayout
  3
ObjectDBX Classes
 90
        0
280
     0
281
     0
  0
CLASS
  1
DICTIONARYVAR
  2
AcDbDictionaryVar
  3
ObjectDBX Classes
 90
        0
280
     0
281
     0
  0
CLASS
  1
TABLESTYLE
  2
AcDbTableStyle
  3
ObjectDBX Classes
 90
     4095
280
     0
281
     0
  0
CLASS
  1
MATERIAL
  2
AcDbMaterial
  3
ObjectDBX Classes
 90
     1153
280
     0
281
     0
  0
CLASS
  1
VISUALSTYLE
  2
AcDbVisualStyle
  3
ObjectDBX Classes
 90
     4095
280
     0
281
     0
  0
CLASS
  1
DIMASSOC
  2
AcDbDimAssoc
  3
"AcDbDimAssoc|Product Desc:     AcDim ARX App For Dimension|Company:          Autodesk, Inc.|WEB Address:      www.autodesk.com"
 90
        0
280
     0
281
     0
  0
CLASS
  1
SORTENTSTABLE
  2
AcDbSortentsTable
  3
ObjectDBX Classes
 90
        0
280
     0
281
     0
  0
ENDSEC
  0
SECTION
  2
TABLES
  0
TABLE
  2
VPORT
  5
8
330
0
100
AcDbSymbolTable
 70
     1
  0
VPORT
  5
94
330
8
100
AcDbSymbolTableRecord
100
AcDbViewportTableRecord
  2
*Active
 70
     0
 10
0.0
 20
0.0
 11
1.0
 21
1.0
 12
181.3574955816761
 22
70.25172917580499
 13
0.0
 23
0.0
 14
0.5
 24
0.5
 15
0.5
 25
0.5
 16
0.0
 26
0.0
 36
1.0
 17
0.0
 27
0.0
 37
0.0
 40
416.7691936831747
 41
2.189852700490998
 42
50.0
 43
0.0
 44
0.0
 50
0.0
 51
0.0
 71
     0
 72
  1000
 73
     1
 74
     3
 75
     0
 76
     0
 77
     0
 78
     0
281
     0
 65
     1
110
0.0
120
0.0
130
0.0
111
1.0
121
0.0
131
0.0
112
0.0
122
1.0
132
0.0
 79
     0
146
0.0
  0
ENDTAB
  0
TABLE
  2
LTYPE
  5
5
330
0
100
AcDbSymbolTable
 70
     1
  0
LTYPE
  5
14
330
5
100
AcDbSymbolTableRecord
100
AcDbLinetypeTableRecord
  2
ByBlock
 70
     0
  3

 72
    65
 73
     0
 40
0.0
  0
LTYPE
  5
15
330
5
100
AcDbSymbolTableRecord
100
AcDbLinetypeTableRecord
  2
ByLayer
 70
     0
  3

 72
    65
 73
     0
 40
0.0
  0
LTYPE
  5
16
330
5
100
AcDbSymbolTableRecord
100
AcDbLinetypeTableRecord
  2
Continuous
 70
     0
  3
Solid line
 72
    65
 73
     0
 40
0.0
  0
ENDTAB
  0
TABLE
  2
LAYER
  5
2
102
{ACAD_XDICTIONARY
360
10A
102
}
330
0
100
AcDbSymbolTable
 70
     2
  0
LAYER
  5
10
330
2
100
AcDbSymbolTableRecord
100
AcDbLayerTableRecord
  2
0
 70
     0
 62
     7
  6
Continuous
370
    -3
390
F
  0
LAYER
  5
105
330
2
100
AcDbSymbolTableRecord
100
AcDbLayerTableRecord
  2
Defpoints
 70
     0
 62
     7
  6
Continuous
290
     0
370
    -3
390
F
  0
ENDTAB
  0
TABLE
  2
STYLE
  5
3
330
0
100
AcDbSymbolTable
 70
     2
  0
STYLE
  5
11
330
3
100
AcDbSymbolTableRecord
100
AcDbTextStyleTableRecord
  2
Standard
 70
     0
 40
0.0
 41
1.0
 50
0.0
 71
     0
 42
0.2
  3
txt
  4

  0
STYLE
  5
106
330
3
100
AcDbSymbolTableRecord
100
AcDbTextStyleTableRecord
  2
Binh
 70
     0
 40
0.0
 41
1.0
 50
0.0
 71
     0
 42
25.0
  3

  4

1001
ACAD
1000
VNI-Helve-Condense
1071
        2
  0
ENDTAB
  0
TABLE
  2
VIEW
  5
6
330
0
100
AcDbSymbolTable
 70
     0
  0
ENDTAB
  0
TABLE
  2
UCS
  5
7
330
0
100
AcDbSymbolTable
 70
     0
  0
ENDTAB
  0
TABLE
  2
APPID
  5
9
330
0
100
AcDbSymbolTable
 70
     2
  0
APPID
  5
12
330
9
100
AcDbSymbolTableRecord
100
AcDbRegAppTableRecord
  2
ACAD
 70
     0
  0
APPID
  5
109
330
9
100
AcDbSymbolTableRecord
100
AcDbRegAppTableRecord
  2
ACAD_PSEXT
 70
     0
  0
ENDTAB
  0
TABLE
  2
DIMSTYLE
  5
A
330
0
100
AcDbSymbolTable
 70
     3
100
AcDbDimStyleTable
 71
     0
  0
DIMSTYLE
105
27
330
A
100
AcDbSymbolTableRecord
100
AcDbDimStyleTableRecord
  2
Standard
 70
     0
340
11
  0
DIMSTYLE
105
107
330
A
100
AcDbSymbolTableRecord
100
AcDbDimStyleTableRecord
  2
SS
 70
     0
 40
1.5
 41
3.0
 42
2.0
 43
1.0
 44
2.0
 73
     0
 74
     0
 77
     1
140
3.0
147
0.5
176
     1
177
     1
178
     7
340
11
  0
DIMSTYLE
105
108
102
{ACAD_REACTORS
330
24D
330
250
330
253
330
256
330
259
330
25C
330
3A7
330
3AA
330
3AD
330
3B0
330
3B3
330
3B6
102
}
330
A
100
AcDbSymbolTableRecord
100
AcDbDimStyleTableRecord
  2
TRIEU
 70
     0
 40
0.5
 41
30.0
 42
0.0
 43
0.0
 44
20.0
 73
     0
 77
     3
 78
     8
140
30.0
141
0.0
146
0.0000052631578947
147
10.0
172
     1
174
     1
176
     8
177
     8
178
     3
271
     0
272
     0
275
     1
279
     2
284
     8
340
106
342
B9
  0
ENDTAB
  0
TABLE
  2
BLOCK_RECORD
  5
1
330
0
100
AcDbSymbolTable
 70
    15
  0
BLOCK_RECORD
  5
1F
330
1
100
AcDbSymbolTableRecord
100
AcDbBlockTableRecord
  2
*Model_Space
340
22
  0
BLOCK_RECORD
  5
58
330
1
100
AcDbSymbolTableRecord
100
AcDbBlockTableRecord
  2
*Paper_Space
340
59
  0
BLOCK_RECORD
  5
5D
330
1
100
AcDbSymbolTableRecord
100
AcDbBlockTableRecord
  2
*Paper_Space0
340
5E
  0
BLOCK_RECORD
  5
B9
330
1
100
AcDbSymbolTableRecord
100
AcDbBlockTableRecord
  2
_Oblique
340
0
102
{BLKREFS
331
C2
331
C3
331
CE
331
CF
331
F2
331
F3
331
FE
331
FF
331
DA
331
DB
331
E6
331
E7
331
3D5
331
3D6
331
3E1
331
3E2
331
3ED
331
3EE
331
3F9
331
3FA
331
404
331
405
331
40D
331
40E
102
}
  0
BLOCK_RECORD
  5
BD
330
1
100
AcDbSymbolTableRecord
100
AcDbBlockTableRecord
  2
*D2
340
0
  0
BLOCK_RECORD
  5
C9
330
1
100
AcDbSymbolTableRecord
100
AcDbBlockTableRecord
  2
*D3
340
0
  0
BLOCK_RECORD
  5
D5
330
1
100
AcDbSymbolTableRecord
100
AcDbBlockTableRecord
  2
*D4
340
0
  0
BLOCK_RECORD
  5
E1
330
1
100
AcDbSymbolTableRecord
100
AcDbBlockTableRecord
  2
*D5
340
0
  0
BLOCK_RECORD
  5
ED
330
1
100
AcDbSymbolTableRecord
100
AcDbBlockTableRecord
  2
*D6
340
0
  0
BLOCK_RECORD
  5
F9
330
1
100
AcDbSymbolTableRecord
100
AcDbBlockTableRecord
  2
*D7
340
0
  0
BLOCK_RECORD
  5
3B9
330
1
100
AcDbSymbolTableRecord
100
AcDbBlockTableRecord
  2
*D9
340
0
  0
BLOCK_RECORD
  5
3C5
330
1
100
AcDbSymbolTableRecord
100
AcDbBlockTableRecord
  2
*D10
340
0
  0
BLOCK_RECORD
  5
3D1
330
1
100
AcDbSymbolTableRecord
100
AcDbBlockTableRecord
  2
*D11
340
0
  0
BLOCK_RECORD
  5
3DD
330
1
100
AcDbSymbolTableRecord
100
AcDbBlockTableRecord
  2
*D12
340
0
  0
BLOCK_RECORD
  5
3E9
330
1
100
AcDbSymbolTableRecord
100
AcDbBlockTableRecord
  2
*D13
340
0
  0
BLOCK_RECORD
  5
3F5
330
1
100
AcDbSymbolTableRecord
100
AcDbBlockTableRecord
  2
*D14
340
0
  0
ENDTAB
  0
ENDSEC
  0
SECTION
  2
BLOCKS
  0
BLOCK
  5
20
330
1F
100
AcDbEntity
  8
0
100
AcDbBlockBegin
  2
*Model_Space
 70
     0
 10
0.0
 20
0.0
 30
0.0
  3
*Model_Space
  1

  0
ENDBLK
  5
21
330
1F
100
AcDbEntity
  8
0
100
AcDbBlockEnd
  0
BLOCK
  5
5A
330
58
100
AcDbEntity
 67
     1
  8
0
100
AcDbBlockBegin
  2
*Paper_Space
 70
     0
 10
0.0
 20
0.0
 30
0.0
  3
*Paper_Space
  1

  0
ENDBLK
  5
5B
330
58
100
AcDbEntity
 67
     1
  8
0
100
AcDbBlockEnd
  0
BLOCK
  5
5F
330
5D
100
AcDbEntity
 67
     1
  8
0
100
AcDbBlockBegin
  2
*Paper_Space0
 70
     0
 10
0.0
 20
0.0
 30
0.0
  3
*Paper_Space0
  1

  0
ENDBLK
  5
60
330
5D
100
AcDbEntity
 67
     1
  8
0
100
AcDbBlockEnd
  0
BLOCK
  5
BA
330
B9
100
AcDbEntity
  8
0
100
AcDbBlockBegin
  2
_Oblique
 70
     0
 10
0.0
 20
0.0
 30
0.0
  3
_Oblique
  1

  0
LINE
  5
BB
330
B9
100
AcDbEntity
  8
0
  6
ByBlock
 62
     0
370
    -2
100
AcDbLine
 10
-0.5
 20
-0.5
 30
0.0
 11
0.5
 21
0.5
 31
0.0
  0
ENDBLK
  5
BC
330
B9
100
AcDbEntity
  8
0
100
AcDbBlockEnd
  0
BLOCK
  5
BE
330
BD
100
AcDbEntity
  8
0
370
    40
100
AcDbBlockBegin
  2
*D2
 70
     1
 10
0.0
 20
0.0
 30
0.0
  3
*D2
  1

  0
LINE
  5
BF
330
BD
100
AcDbEntity
  8
0
 62
     8
370
    -2
100
AcDbLine
 10
-285.7795337872051
 20
-1919.76898123473
 30
0.0
 11
-285.7795337872051
 21
-1897.899361347436
 31
0.0
  0
LINE
  5
C0
330
BD
100
AcDbEntity
  8
0
 62
     8
370
    -2
100
AcDbLine
 10
-167.2795337889294
 20
-1919.76898123473
 30
0.0
 11
-167.2795337889294
 21
-1897.899361347436
 31
0.0
  0
LINE
  5
C1
330
BD
100
AcDbEntity
  8
0
 62
     8
370
    -2
100
AcDbLine
 10
-285.7795337872051
 20
-1907.899361347437
 30
0.0
 11
-167.2795337889294
 21
-1907.899361347437
 31
0.0
  0
INSERT
  5
C2
330
BD
100
AcDbEntity
  8
0
 62
     8
370
    -2
100
AcDbBlockReference
  2
_Oblique
 10
-285.7795337872051
 20
-1907.899361347437
 30
0.0
 41
15.0
 42
15.0
 43
15.0
 50
180.0
  0
INSERT
  5
C3
330
BD
100
AcDbEntity
  8
0
 62
     8
370
    -2
100
AcDbBlockReference
  2
_Oblique
 10
-167.2795337889294
 20
-1907.899361347437
 30
0.0
 41
15.0
 42
15.0
 43
15.0
  0
MTEXT
  5
C4
330
BD
100
AcDbEntity
  8
0
 62
     3
370
    40
100
AcDbMText
 10
-226.5295337880673
 20
-1897.149111347436
 30
0.0
 40
15.0
 41
0.0
 71
     5
 72
     1
  1
\A1;{\H0.7667x;\C256;119}
  7
Binh
 73
     1
 44
1.0
1001
ACAD
1000
MTEXTBEGIN
1070
    73
1070
     1
1070
    44
1040
1.0
1070
    74
1070
     0
1000
MTEXTEND
  0
POINT
  5
C5
330
BD
100
AcDbEntity
  8
Defpoints
 62
     0
370
    40
100
AcDbPoint
 10
-285.7795337872051
 20
-1919.76898123473
 30
0.0
  0
POINT
  5
C6
330
BD
100
AcDbEntity
  8
Defpoints
 62
     0
370
    40
100
AcDbPoint
 10
-167.2795337889294
 20
-1919.76898123473
 30
0.0
  0
POINT
  5
C7
330
BD
100
AcDbEntity
  8
Defpoints
 62
     0
370
    40
100
AcDbPoint
 10
-167.2795337889294
 20
-1907.899361347437
 30
0.0
  0
ENDBLK
  5
C8
330
BD
100
AcDbEntity
  8
0
370
    40
100
AcDbBlockEnd
  0
BLOCK
  5
CA
330
C9
100
AcDbEntity
  8
0
370
    40
100
AcDbBlockBegin
  2
*D3
 70
     1
 10
0.0
 20
0.0
 30
0.0
  3
*D3
  1

  0
LINE
  5
CB
330
C9
100
AcDbEntity
  8
0
 62
     8
370
    -2
100
AcDbLine
 10
-284.7795337872045
 20
-1918.76898123473
 30
0.0
 11
-308.1150435917032
 21
-1918.76898123473
 31
0.0
  0
LINE
  5
CC
330
C9
100
AcDbEntity
  8
0
 62
     8
370
    -2
100
AcDbLine
 10
-285.7795337872055
 20
-1973.76898123473
 30
0.0
 11
-308.1150435917032
 21
-1973.76898123473
 31
0.0
  0
LINE
  5
CD
330
C9
100
AcDbEntity
  8
0
 62
     8
370
    -2
100
AcDbLine
 10
-298.1150435917032
 20
-1918.76898123473
 30
0.0
 11
-298.1150435917032
 21
-1973.76898123473
 31
0.0
  0
INSERT
  5
CE
330
C9
100
AcDbEntity
  8
0
 62
     8
370
    -2
100
AcDbBlockReference
  2
_Oblique
 10
-298.1150435917032
 20
-1918.76898123473
 30
0.0
 41
15.0
 42
15.0
 43
15.0
 50
90.0
  0
INSERT
  5
CF
330
C9
100
AcDbEntity
  8
0
 62
     8
370
    -2
100
AcDbBlockReference
  2
_Oblique
 10
-298.1150435917032
 20
-1973.76898123473
 30
0.0
 41
15.0
 42
15.0
 43
15.0
 50
270.0
  0
MTEXT
  5
D0
330
C9
100
AcDbEntity
  8
0
 62
     3
370
    40
100
AcDbMText
 10
-308.865293591703
 20
-1946.26898123473
 30
0.0
 40
15.0
 41
0.0
 71
     5
 72
     1
  1
\A1;{\H0.7667x;\C256;55}
  7
Binh
 11
0.0000000000000001
 21
1.0
 31
0.0
 73
     1
 44
1.0
1001
ACAD
1000
MTEXTBEGIN
1070
    73
1070
     1
1070
    44
1040
1.0
1070
    74
1070
     0
1000
MTEXTEND
  0
POINT
  5
D1
330
C9
100
AcDbEntity
  8
Defpoints
 62
     0
370
    40
100
AcDbPoint
 10
-284.7795337872045
 20
-1918.76898123473
 30
0.0
  0
POINT
  5
D2
330
C9
100
AcDbEntity
  8
Defpoints
 62
     0
370
    40
100
AcDbPoint
 10
-285.7795337872055
 20
-1973.76898123473
 30
0.0
  0
POINT
  5
D3
330
C9
100
AcDbEntity
  8
Defpoints
 62
     0
370
    40
100
AcDbPoint
 10
-298.1150435917032
 20
-1973.76898123473
 30
0.0
  0
ENDBLK
  5
D4
330
C9
100
AcDbEntity
  8
0
370
    40
100
AcDbBlockEnd
  0
BLOCK
  5
D6
330
D5
100
AcDbEntity
  8
0
370
    40
100
AcDbBlockBegin
  2
*D4
 70
     1
 10
0.0
 20
0.0
 30
0.0
  3
*D4
  1

  0
LINE
  5
D7
330
D5
100
AcDbEntity
  8
0
 62
     8
370
    -2
100
AcDbLine
 10
-56.513358457099
 20
-1918.76898123473
 30
0.0
 11
10.90163859960735
 21
-1918.76898123473
 31
0.0
  0
LINE
  5
D8
330
D5
100
AcDbEntity
  8
0
 62
     8
370
    -2
100
AcDbLine
 10
-34.51335845709894
 20
-1973.76898123473
 30
0.0
 11
10.90163859960735
 21
-1973.76898123473
 31
0.0
  0
LINE
  5
D9
330
D5
100
AcDbEntity
  8
0
 62
     8
370
    -2
100
AcDbLine
 10
0.901638599607358
 20
-1918.76898123473
 30
0.0
 11
0.9016385996073484
 21
-1973.76898123473
 31
0.0
  0
INSERT
  5
DA
330
D5
100
AcDbEntity
  8
0
 62
     8
370
    -2
100
AcDbBlockReference
  2
_Oblique
 10
0.901638599607358
 20
-1918.76898123473
 30
0.0
 41
15.0
 42
15.0
 43
15.0
 50
90.0
  0
INSERT
  5
DB
330
D5
100
AcDbEntity
  8
0
 62
     8
370
    -2
100
AcDbBlockReference
  2
_Oblique
 10
0.9016385996073484
 20
-1973.76898123473
 30
0.0
 41
15.0
 42
15.0
 43
15.0
 50
270.0
  0
MTEXT
  5
DC
330
D5
100
AcDbEntity
  8
0
 62
     3
370
    40
100
AcDbMText
 10
-9.848611400392421
 20
-1946.26898123473
 30
0.0
 40
15.0
 41
0.0
 71
     5
 72
     1
  1
\A1;{\H0.7667x;\C256;55}
  7
Binh
 11
0.0000000000000001
 21
1.0
 31
0.0
 73
     1
 44
1.0
1001
ACAD
1000
MTEXTBEGIN
1070
    73
1070
     1
1070
    44
1040
1.0
1070
    74
1070
     0
1000
MTEXTEND
  0
POINT
  5
DD
330
D5
100
AcDbEntity
  8
Defpoints
 62
     0
370
    40
100
AcDbPoint
 10
-56.513358457099
 20
-1918.76898123473
 30
0.0
  0
POINT
  5
DE
330
D5
100
AcDbEntity
  8
Defpoints
 62
     0
370
    40
100
AcDbPoint
 10
-34.51335845709894
 20
-1973.76898123473
 30
0.0
  0
POINT
  5
DF
330
D5
100
AcDbEntity
  8
Defpoints
 62
     0
370
    40
100
AcDbPoint
 10
0.9016385996073484
 20
-1973.76898123473
 30
0.0
  0
ENDBLK
  5
E0
330
D5
100
AcDbEntity
  8
0
370
    40
100
AcDbBlockEnd
  0
BLOCK
  5
E2
330
E1
100
AcDbEntity
  8
0
370
    40
100
AcDbBlockBegin
  2
*D5
 70
     1
 10
0.0
 20
0.0
 30
0.0
  3
*D5
  1

  0
LINE
  5
E3
330
E1
100
AcDbEntity
  8
0
 62
     8
370
    -2
100
AcDbLine
 10
-138.0936064395841
 20
-1971.075236047552
 30
0.0
 11
-138.0936064395841
 21
-1898.279707262069
 31
0.0
  0
LINE
  5
E4
330
E1
100
AcDbEntity
  8
0
 62
     8
370
    -2
100
AcDbLine
 10
-22.51335845709903
 20
-1948.055544527755
 30
0.0
 11
-22.51335845709903
 21
-1898.279707262069
 31
0.0
  0
LINE
  5
E5
330
E1
100
AcDbEntity
  8
0
 62
     8
370
    -2
100
AcDbLine
 10
-138.0936064395841
 20
-1908.279707262069
 30
0.0
 11
-22.51335845709903
 21
-1908.279707262069
 31
0.0
  0
INSERT
  5
E6
330
E1
100
AcDbEntity
  8
0
 62
     8
370
    -2
100
AcDbBlockReference
  2
_Oblique
 10
-138.0936064395841
 20
-1908.279707262069
 30
0.0
 41
15.0
 42
15.0
 43
15.0
 50
180.0
  0
INSERT
  5
E7
330
E1
100
AcDbEntity
  8
0
 62
     8
370
    -2
100
AcDbBlockReference
  2
_Oblique
 10
-22.51335845709903
 20
-1908.279707262069
 30
0.0
 41
15.0
 42
15.0
 43
15.0
  0
MTEXT
  5
E8
330
E1
100
AcDbEntity
  8
0
 62
     3
370
    40
100
AcDbMText
 10
-80.3034824483416
 20
-1897.529457262069
 30
0.0
 40
15.0
 41
0.0
 71
     5
 72
     1
  1
\A1;{\H0.7667x;\C256;116}
  7
Binh
 73
     1
 44
1.0
1001
ACAD
1000
MTEXTBEGIN
1070
    73
1070
     1
1070
    44
1040
1.0
1070
    74
1070
     0
1000
MTEXTEND
  0
POINT
  5
E9
330
E1
100
AcDbEntity
  8
Defpoints
 62
     0
370
    40
100
AcDbPoint
 10
-138.0936064395841
 20
-1971.075236047552
 30
0.0
  0
POINT
  5
EA
330
E1
100
AcDbEntity
  8
Defpoints
 62
     0
370
    40
100
AcDbPoint
 10
-22.51335845709903
 20
-1948.055544527755
 30
0.0
  0
POINT
  5
EB
330
E1
100
AcDbEntity
  8
Defpoints
 62
     0
370
    40
100
AcDbPoint
 10
-22.51335845709903
 20
-1908.279707262069
 30
0.0
  0
ENDBLK
  5
EC
330
E1
100
AcDbEntity
  8
0
370
    40
100
AcDbBlockEnd
  0
BLOCK
  5
EE
330
ED
100
AcDbEntity
  8
0
370
    40
100
AcDbBlockBegin
  2
*D6
 70
     1
 10
0.0
 20
0.0
 30
0.0
  3
*D6
  1

  0
LINE
  5
EF
330
ED
100
AcDbEntity
  8
0
 62
     8
370
    -2
100
AcDbLine
 10
-285.7795337872052
 20
-1773.126448980541
 30
0.0
 11
-285.7795337872052
 21
-1745.02590963907
 31
0.0
  0
LINE
  5
F0
330
ED
100
AcDbEntity
  8
0
 62
     8
370
    -2
100
AcDbLine
 10
-167.2795337872051
 20
-1773.126448980541
 30
0.0
 11
-167.2795337872051
 21
-1745.02590963907
 31
0.0
  0
LINE
  5
F1
330
ED
100
AcDbEntity
  8
0
 62
     8
370
    -2
100
AcDbLine
 10
-285.7795337872052
 20
-1755.02590963907
 30
0.0
 11
-167.2795337872051
 21
-1755.02590963907
 31
0.0
  0
INSERT
  5
F2
330
ED
100
AcDbEntity
  8
0
 62
     8
370
    -2
100
AcDbBlockReference
  2
_Oblique
 10
-285.7795337872052
 20
-1755.02590963907
 30
0.0
 41
15.0
 42
15.0
 43
15.0
 50
180.0
  0
INSERT
  5
F3
330
ED
100
AcDbEntity
  8
0
 62
     8
370
    -2
100
AcDbBlockReference
  2
_Oblique
 10
-167.2795337872051
 20
-1755.02590963907
 30
0.0
 41
15.0
 42
15.0
 43
15.0
  0
MTEXT
  5
F4
330
ED
100
AcDbEntity
  8
0
 62
     3
370
    40
100
AcDbMText
 10
-226.5295337872052
 20
-1744.27565963907
 30
0.0
 40
15.0
 41
0.0
 71
     5
 72
     1
  1
\A1;{\H0.7667x;\C256;119}
  7
Binh
 73
     1
 44
1.0
1001
ACAD
1000
MTEXTBEGIN
1070
    73
1070
     1
1070
    44
1040
1.0
1070
    74
1070
     0
1000
MTEXTEND
  0
POINT
  5
F5
330
ED
100
AcDbEntity
  8
Defpoints
 62
     0
370
    40
100
AcDbPoint
 10
-285.7795337872052
 20
-1773.126448980541
 30
0.0
  0
POINT
  5
F6
330
ED
100
AcDbEntity
  8
Defpoints
 62
     0
370
    40
100
AcDbPoint
 10
-167.2795337872051
 20
-1773.126448980541
 30
0.0
  0
POINT
  5
F7
330
ED
100
AcDbEntity
  8
Defpoints
 62
     0
370
    40
100
AcDbPoint
 10
-167.2795337872051
 20
-1755.02590963907
 30
0.0
  0
ENDBLK
  5
F8
330
ED
100
AcDbEntity
  8
0
370
    40
100
AcDbBlockEnd
  0
BLOCK
  5
FA
330
F9
100
AcDbEntity
  8
0
370
    40
100
AcDbBlockBegin
  2
*D7
 70
     1
 10
0.0
 20
0.0
 30
0.0
  3
*D7
  1

  0
LINE
  5
FB
330
F9
100
AcDbEntity
  8
0
 62
     8
370
    -2
100
AcDbLine
 10
-167.279533787205
 20
-1773.126448980541
 30
0.0
 11
-128.0936064395841
 21
-1773.126448980541
 31
0.0
  0
LINE
  5
FC
330
F9
100
AcDbEntity
  8
0
 62
     8
370
    -2
100
AcDbLine
 10
-167.279533787205
 20
-1873.626448980541
 30
0.0
 11
-128.0936064395841
 21
-1873.626448980541
 31
0.0
  0
LINE
  5
FD
330
F9
100
AcDbEntity
  8
0
 62
     8
370
    -2
100
AcDbLine
 10
-138.0936064395841
 20
-1773.126448980541
 30
0.0
 11
-138.0936064395841
 21
-1873.626448980541
 31
0.0
  0
INSERT
  5
FE
330
F9
100
AcDbEntity
  8
0
 62
     8
370
    -2
100
AcDbBlockReference
  2
_Oblique
 10
-138.0936064395841
 20
-1773.126448980541
 30
0.0
 41
15.0
 42
15.0
 43
15.0
 50
90.0
  0
INSERT
  5
FF
330
F9
100
AcDbEntity
  8
0
 62
     8
370
    -2
100
AcDbBlockReference
  2
_Oblique
 10
-138.0936064395841
 20
-1873.626448980541
 30
0.0
 41
15.0
 42
15.0
 43
15.0
 50
270.0
  0
MTEXT
  5
100
330
F9
100
AcDbEntity
  8
0
 62
     3
370
    40
100
AcDbMText
 10
-148.8438564395839
 20
-1823.376448980541
 30
0.0
 40
15.0
 41
0.0
 71
     5
 72
     1
  1
\A1;{\H0.7667x;\C256;101}
  7
Binh
 11
0.0000000000000001
 21
1.0
 31
0.0
 73
     1
 44
1.0
1001
ACAD
1000
MTEXTBEGIN
1070
    73
1070
     1
1070
    44
1040
1.0
1070
    74
1070
     0
1000
MTEXTEND
  0
POINT
  5
101
330
F9
100
AcDbEntity
  8
Defpoints
 62
     0
370
    40
100
AcDbPoint
 10
-167.279533787205
 20
-1773.126448980541
 30
0.0
  0
POINT
  5
102
330
F9
100
AcDbEntity
  8
Defpoints
 62
     0
370
    40
100
AcDbPoint
 10
-167.279533787205
 20
-1873.626448980541
 30
0.0
  0
POINT
  5
103
330
F9
100
AcDbEntity
  8
Defpoints
 62
     0
370
    40
100
AcDbPoint
 10
-138.0936064395841
 20
-1873.626448980541
 30
0.0
  0
ENDBLK
  5
104
330
F9
100
AcDbEntity
  8
0
370
    40
100
AcDbBlockEnd
  0
BLOCK
  5
3C3
330
3B9
100
AcDbEntity
  8
0
100
AcDbBlockBegin
  2
*D9
 70
     1
 10
0.0
 20
0.0
 30
0.0
  3
*D9
  1

  0
LINE
  5
401
330
3B9
100
AcDbEntity
  8
0
 62
     8
370
    -2
100
AcDbLine
 10
73.85034883503599
 20
78.27210118642732
 30
0.0
 11
73.85034883503599
 21
100.1417210737208
 31
0.0
  0
LINE
  5
402
330
3B9
100
AcDbEntity
  8
0
 62
     8
370
    -2
100
AcDbLine
 10
192.3503488333116
 20
78.27210118642732
 30
0.0
 11
192.3503488333116
 21
100.1417210737208
 31
0.0
  0
LINE
  5
403
330
3B9
100
AcDbEntity
  8
0
 62
     8
370
    -2
100
AcDbLine
 10
73.85034883503599
 20
90.14172107372086
 30
0.0
 11
192.3503488333116
 21
90.14172107372086
 31
0.0
  0
INSERT
  5
404
330
3B9
100
AcDbEntity
  8
0
 62
     8
370
    -2
100
AcDbBlockReference
  2
_Oblique
 10
73.85034883503599
 20
90.14172107372086
 30
0.0
 41
15.0
 42
15.0
 43
15.0
 50
180.0
  0
INSERT
  5
405
330
3B9
100
AcDbEntity
  8
0
 62
     8
370
    -2
100
AcDbBlockReference
  2
_Oblique
 10
192.3503488333116
 20
90.14172107372086
 30
0.0
 41
15.0
 42
15.0
 43
15.0
  0
MTEXT
  5
406
330
3B9
100
AcDbEntity
  8
0
 62
     3
370
    40
100
AcDbMText
 10
133.1003488341738
 20
100.8919710737208
 30
0.0
 40
15.0
 41
0.0
 71
     5
 72
     1
  1
\A1;{\H0.7667x;\C256;119}
  7
Binh
 73
     1
 44
1.0
1001
ACAD
1000
MTEXTBEGIN
1070
    73
1070
     1
1070
    44
1040
1.0
1070
    74
1070
     0
1000
MTEXTEND
  0
POINT
  5
407
330
3B9
100
AcDbEntity
  8
Defpoints
 62
     0
100
AcDbPoint
 10
73.85034883503599
 20
78.27210118642732
 30
0.0
  0
POINT
  5
408
330
3B9
100
AcDbEntity
  8
Defpoints
 62
     0
100
AcDbPoint
 10
192.3503488333116
 20
78.27210118642732
 30
0.0
  0
POINT
  5
409
330
3B9
100
AcDbEntity
  8
Defpoints
 62
     0
100
AcDbPoint
 10
192.3503488333116
 20
90.14172107372086
 30
0.0
  0
ENDBLK
  5
3C4
330
3B9
100
AcDbEntity
  8
0
100
AcDbBlockEnd
  0
BLOCK
  5
3CF
330
3C5
100
AcDbEntity
  8
0
100
AcDbBlockBegin
  2
*D10
 70
     1
 10
0.0
 20
0.0
 30
0.0
  3
*D10
  1

  0
LINE
  5
40A
330
3C5
100
AcDbEntity
  8
0
 62
     8
370
    -2
100
AcDbLine
 10
74.85034883503651
 20
79.27210118642744
 30
0.0
 11
51.51483903053787
 21
79.27210118642744
 31
0.0
  0
LINE
  5
40B
330
3C5
100
AcDbEntity
  8
0
 62
     8
370
    -2
100
AcDbLine
 10
73.85034883503549
 20
24.27210118642744
 30
0.0
 11
51.51483903053786
 21
24.27210118642744
 31
0.0
  0
LINE
  5
40C
330
3C5
100
AcDbEntity
  8
0
 62
     8
370
    -2
100
AcDbLine
 10
61.51483903053787
 20
79.27210118642744
 30
0.0
 11
61.51483903053786
 21
24.27210118642744
 31
0.0
  0
INSERT
  5
40D
330
3C5
100
AcDbEntity
  8
0
 62
     8
370
    -2
100
AcDbBlockReference
  2
_Oblique
 10
61.51483903053787
 20
79.27210118642744
 30
0.0
 41
15.0
 42
15.0
 43
15.0
 50
90.0
  0
INSERT
  5
40E
330
3C5
100
AcDbEntity
  8
0
 62
     8
370
    -2
100
AcDbBlockReference
  2
_Oblique
 10
61.51483903053786
 20
24.27210118642744
 30
0.0
 41
15.0
 42
15.0
 43
15.0
 50
270.0
  0
MTEXT
  5
40F
330
3C5
100
AcDbEntity
  8
0
 62
     3
370
    40
100
AcDbMText
 10
50.76458903053785
 20
51.77210118642745
 30
0.0
 40
15.0
 41
0.0
 71
     5
 72
     1
  1
\A1;{\H0.7667x;\C256;55}
  7
Binh
 11
0.0000000000000001
 21
1.0
 31
0.0
 73
     1
 44
1.0
1001
ACAD
1000
MTEXTBEGIN
1070
    73
1070
     1
1070
    44
1040
1.0
1070
    74
1070
     0
1000
MTEXTEND
  0
POINT
  5
410
330
3C5
100
AcDbEntity
  8
Defpoints
 62
     0
100
AcDbPoint
 10
74.85034883503651
 20
79.27210118642744
 30
0.0
  0
POINT
  5
411
330
3C5
100
AcDbEntity
  8
Defpoints
 62
     0
100
AcDbPoint
 10
73.85034883503549
 20
24.27210118642744
 30
0.0
  0
POINT
  5
412
330
3C5
100
AcDbEntity
  8
Defpoints
 62
     0
100
AcDbPoint
 10
61.51483903053786
 20
24.27210118642744
 30
0.0
  0
ENDBLK
  5
3D0
330
3C5
100
AcDbEntity
  8
0
100
AcDbBlockEnd
  0
BLOCK
  5
3DB
330
3D1
100
AcDbEntity
  8
0
100
AcDbBlockBegin
  2
*D11
 70
     1
 10
0.0
 20
0.0
 30
0.0
  3
*D11
  1

  0
LINE
  5
3D2
330
3D1
100
AcDbEntity
  8
0
 62
     8
370
    -2
100
AcDbLine
 10
303.116524165142
 20
79.27210118642744
 30
0.0
 11
370.5315212218484
 21
79.27210118642742
 31
0.0
  0
LINE
  5
3D3
330
3D1
100
AcDbEntity
  8
0
 62
     8
370
    -2
100
AcDbLine
 10
325.1165241651421
 20
24.27210118642744
 30
0.0
 11
370.5315212218484
 21
24.27210118642742
 31
0.0
  0
LINE
  5
3D4
330
3D1
100
AcDbEntity
  8
0
 62
     8
370
    -2
100
AcDbLine
 10
360.5315212218484
 20
79.27210118642742
 30
0.0
 11
360.5315212218484
 21
24.27210118642742
 31
0.0
  0
INSERT
  5
3D5
330
3D1
100
AcDbEntity
  8
0
 62
     8
370
    -2
100
AcDbBlockReference
  2
_Oblique
 10
360.5315212218484
 20
79.27210118642742
 30
0.0
 41
15.0
 42
15.0
 43
15.0
 50
90.0
  0
INSERT
  5
3D6
330
3D1
100
AcDbEntity
  8
0
 62
     8
370
    -2
100
AcDbBlockReference
  2
_Oblique
 10
360.5315212218484
 20
24.27210118642742
 30
0.0
 41
15.0
 42
15.0
 43
15.0
 50
270.0
  0
MTEXT
  5
3D7
330
3D1
100
AcDbEntity
  8
0
 62
     3
370
    40
100
AcDbMText
 10
349.7812712218484
 20
51.77210118642748
 30
0.0
 40
15.0
 41
0.0
 71
     5
 72
     1
  1
\A1;{\H0.7667x;\C256;55}
  7
Binh
 11
0.0000000000000001
 21
1.0
 31
0.0
 73
     1
 44
1.0
1001
ACAD
1000
MTEXTBEGIN
1070
    73
1070
     1
1070
    44
1040
1.0
1070
    74
1070
     0
1000
MTEXTEND
  0
POINT
  5
3D8
330
3D1
100
AcDbEntity
  8
Defpoints
 62
     0
100
AcDbPoint
 10
303.116524165142
 20
79.27210118642744
 30
0.0
  0
POINT
  5
3D9
330
3D1
100
AcDbEntity
  8
Defpoints
 62
     0
100
AcDbPoint
 10
325.1165241651421
 20
24.27210118642744
 30
0.0
  0
POINT
  5
3DA
330
3D1
100
AcDbEntity
  8
Defpoints
 62
     0
100
AcDbPoint
 10
360.5315212218484
 20
24.27210118642742
 30
0.0
  0
ENDBLK
  5
3DC
330
3D1
100
AcDbEntity
  8
0
100
AcDbBlockEnd
  0
BLOCK
  5
3E7
330
3DD
100
AcDbEntity
  8
0
100
AcDbBlockBegin
  2
*D12
 70
     1
 10
0.0
 20
0.0
 30
0.0
  3
*D12
  1

  0
LINE
  5
3DE
330
3DD
100
AcDbEntity
  8
0
 62
     8
370
    -2
100
AcDbLine
 10
221.5362761826569
 20
26.9658463736058
 30
0.0
 11
221.5362761826569
 21
99.76137515908828
 31
0.0
  0
LINE
  5
3DF
330
3DD
100
AcDbEntity
  8
0
 62
     8
370
    -2
100
AcDbLine
 10
337.1165241651421
 20
49.98553789340245
 30
0.0
 11
337.1165241651421
 21
99.76137515908828
 31
0.0
  0
LINE
  5
3E0
330
3DD
100
AcDbEntity
  8
0
 62
     8
370
    -2
100
AcDbLine
 10
221.5362761826569
 20
89.76137515908828
 30
0.0
 11
337.1165241651421
 21
89.76137515908828
 31
0.0
  0
INSERT
  5
3E1
330
3DD
100
AcDbEntity
  8
0
 62
     8
370
    -2
100
AcDbBlockReference
  2
_Oblique
 10
221.5362761826569
 20
89.76137515908828
 30
0.0
 41
15.0
 42
15.0
 43
15.0
 50
180.0
  0
INSERT
  5
3E2
330
3DD
100
AcDbEntity
  8
0
 62
     8
370
    -2
100
AcDbBlockReference
  2
_Oblique
 10
337.1165241651421
 20
89.76137515908828
 30
0.0
 41
15.0
 42
15.0
 43
15.0
  0
MTEXT
  5
3E3
330
3DD
100
AcDbEntity
  8
0
 62
     3
370
    40
100
AcDbMText
 10
279.3264001738995
 20
100.5116251590883
 30
0.0
 40
15.0
 41
0.0
 71
     5
 72
     1
  1
\A1;{\H0.7667x;\C256;116}
  7
Binh
 73
     1
 44
1.0
1001
ACAD
1000
MTEXTBEGIN
1070
    73
1070
     1
1070
    44
1040
1.0
1070
    74
1070
     0
1000
MTEXTEND
  0
POINT
  5
3E4
330
3DD
100
AcDbEntity
  8
Defpoints
 62
     0
100
AcDbPoint
 10
221.5362761826569
 20
26.9658463736058
 30
0.0
  0
POINT
  5
3E5
330
3DD
100
AcDbEntity
  8
Defpoints
 62
     0
100
AcDbPoint
 10
337.1165241651421
 20
49.98553789340245
 30
0.0
  0
POINT
  5
3E6
330
3DD
100
AcDbEntity
  8
Defpoints
 62
     0
100
AcDbPoint
 10
337.1165241651421
 20
89.76137515908828
 30
0.0
  0
ENDBLK
  5
3E8
330
3DD
100
AcDbEntity
  8
0
100
AcDbBlockEnd
  0
BLOCK
  5
3F3
330
3E9
100
AcDbEntity
  8
0
100
AcDbBlockBegin
  2
*D13
 70
     1
 10
0.0
 20
0.0
 30
0.0
  3
*D13
  1

  0
LINE
  5
3EA
330
3E9
100
AcDbEntity
  8
0
 62
     8
370
    -2
100
AcDbLine
 10
73.85034883503587
 20
224.9146334406167
 30
0.0
 11
73.85034883503587
 21
253.0151727820875
 31
0.0
  0
LINE
  5
3EB
330
3E9
100
AcDbEntity
  8
0
 62
     8
370
    -2
100
AcDbLine
 10
192.3503488350359
 20
224.9146334406167
 30
0.0
 11
192.3503488350359
 21
253.0151727820875
 31
0.0
  0
LINE
  5
3EC
330
3E9
100
AcDbEntity
  8
0
 62
     8
370
    -2
100
AcDbLine
 10
73.85034883503587
 20
243.0151727820875
 30
0.0
 11
192.3503488350359
 21
243.0151727820875
 31
0.0
  0
INSERT
  5
3ED
330
3E9
100
AcDbEntity
  8
0
 62
     8
370
    -2
100
AcDbBlockReference
  2
_Oblique
 10
73.85034883503587
 20
243.0151727820875
 30
0.0
 41
15.0
 42
15.0
 43
15.0
 50
180.0
  0
INSERT
  5
3EE
330
3E9
100
AcDbEntity
  8
0
 62
     8
370
    -2
100
AcDbBlockReference
  2
_Oblique
 10
192.3503488350359
 20
243.0151727820875
 30
0.0
 41
15.0
 42
15.0
 43
15.0
  0
MTEXT
  5
3EF
330
3E9
100
AcDbEntity
  8
0
 62
     3
370
    40
100
AcDbMText
 10
133.1003488350359
 20
253.7654227820874
 30
0.0
 40
15.0
 41
0.0
 71
     5
 72
     1
  1
\A1;{\H0.7667x;\C256;119}
  7
Binh
 73
     1
 44
1.0
1001
ACAD
1000
MTEXTBEGIN
1070
    73
1070
     1
1070
    44
1040
1.0
1070
    74
1070
     0
1000
MTEXTEND
  0
POINT
  5
3F0
330
3E9
100
AcDbEntity
  8
Defpoints
 62
     0
100
AcDbPoint
 10
73.85034883503587
 20
224.9146334406167
 30
0.0
  0
POINT
  5
3F1
330
3E9
100
AcDbEntity
  8
Defpoints
 62
     0
100
AcDbPoint
 10
192.3503488350359
 20
224.9146334406167
 30
0.0
  0
POINT
  5
3F2
330
3E9
100
AcDbEntity
  8
Defpoints
 62
     0
100
AcDbPoint
 10
192.3503488350359
 20
243.0151727820875
 30
0.0
  0
ENDBLK
  5
3F4
330
3E9
100
AcDbEntity
  8
0
100
AcDbBlockEnd
  0
BLOCK
  5
3FF
330
3F5
100
AcDbEntity
  8
0
100
AcDbBlockBegin
  2
*D14
 70
     1
 10
0.0
 20
0.0
 30
0.0
  3
*D14
  1

  0
LINE
  5
3F6
330
3F5
100
AcDbEntity
  8
0
 62
     8
370
    -2
100
AcDbLine
 10
192.3503488350359
 20
224.9146334406167
 30
0.0
 11
231.536276182657
 21
224.9146334406167
 31
0.0
  0
LINE
  5
3F7
330
3F5
100
AcDbEntity
  8
0
 62
     8
370
    -2
100
AcDbLine
 10
192.3503488350359
 20
124.4146334406167
 30
0.0
 11
231.5362761826569
 21
124.4146334406167
 31
0.0
  0
LINE
  5
3F8
330
3F5
100
AcDbEntity
  8
0
 62
     8
370
    -2
100
AcDbLine
 10
221.536276182657
 20
224.9146334406167
 30
0.0
 11
221.5362761826569
 21
124.4146334406167
 31
0.0
  0
INSERT
  5
3F9
330
3F5
100
AcDbEntity
  8
0
 62
     8
370
    -2
100
AcDbBlockReference
  2
_Oblique
 10
221.536276182657
 20
224.9146334406167
 30
0.0
 41
15.0
 42
15.0
 43
15.0
 50
90.0
  0
INSERT
  5
3FA
330
3F5
100
AcDbEntity
  8
0
 62
     8
370
    -2
100
AcDbBlockReference
  2
_Oblique
 10
221.5362761826569
 20
124.4146334406167
 30
0.0
 41
15.0
 42
15.0
 43
15.0
 50
270.0
  0
MTEXT
  5
3FB
330
3F5
100
AcDbEntity
  8
0
 62
     3
370
    40
100
AcDbMText
 10
210.7860261826569
 20
174.6646334406168
 30
0.0
 40
15.0
 41
0.0
 71
     5
 72
     1
  1
\A1;{\H0.7667x;\C256;101}
  7
Binh
 11
0.0000000000000001
 21
1.0
 31
0.0
 73
     1
 44
1.0
1001
ACAD
1000
MTEXTBEGIN
1070
    73
1070
     1
1070
    44
1040
1.0
1070
    74
1070
     0
1000
MTEXTEND
  0
POINT
  5
3FC
330
3F5
100
AcDbEntity
  8
Defpoints
 62
     0
100
AcDbPoint
 10
192.3503488350359
 20
224.9146334406167
 30
0.0
  0
POINT
  5
3FD
330
3F5
100
AcDbEntity
  8
Defpoints
 62
     0
100
AcDbPoint
 10
192.3503488350359
 20
124.4146334406167
 30
0.0
  0
POINT
  5
3FE
330
3F5
100
AcDbEntity
  8
Defpoints
 62
     0
100
AcDbPoint
 10
221.5362761826569
 20
124.4146334406167
 30
0.0
  0
ENDBLK
  5
400
330
3F5
100
AcDbEntity
  8
0
100
AcDbBlockEnd
  0
ENDSEC
  0
SECTION
  2
ENTITIES
  0
LWPOLYLINE
  5
267
330
1F
100
AcDbEntity
  8
0
100
AcDbPolyline
 90
        2
 70
     0
 43
0.0
 10
73.85034883503587
 20
124.4146334406167
 10
73.85034883503587
 20
224.9146334406167
  0
LWPOLYLINE
  5
268
330
1F
100
AcDbEntity
  8
0
100
AcDbPolyline
 90
        2
 70
     0
 43
0.0
 10
192.3503488350359
 20
224.9146334406167
 10
192.3503488350359
 20
124.4146334406167
  0
LWPOLYLINE
  5
269
330
1F
100
AcDbEntity
  8
0
 62
     4
100
AcDbPolyline
 90
        2
 70
     0
 43
0.0
 10
78.85034883503587
 20
226.4088994956627
 10
99.25034883503597
 20
226.4088994956627
  0
LWPOLYLINE
  5
26A
330
1F
100
AcDbEntity
  8
0
100
AcDbPolyline
 90
        2
 70
     0
 43
0.0
 10
73.85034883503587
 20
134.6646334406167
 10
73.85034883503587
 20
214.6646334406167
  0
LWPOLYLINE
  5
26B
330
1F
100
AcDbEntity
  8
0
100
AcDbPolyline
 90
        2
 70
     0
 43
0.0
 10
80.3061000889147
 20
214.6646334406167
 10
185.3061000889147
 20
214.6646334406167
  0
LWPOLYLINE
  5
26C
330
1F
100
AcDbEntity
  8
0
100
AcDbPolyline
 90
        2
 70
     0
 43
0.0
 10
192.3503488350359
 20
214.6646334406167
 10
192.3503488350359
 20
134.6646334406167
  0
LWPOLYLINE
  5
26D
330
1F
100
AcDbEntity
  8
0
100
AcDbPolyline
 90
        2
 70
     0
 43
0.0
 10
185.3061000889147
 20
134.6646334406167
 10
182.3061000889147
 20
134.6646334406167
  0
LWPOLYLINE
  5
26E
330
1F
100
AcDbEntity
  8
0
100
AcDbPolyline
 90
        2
 70
     0
 43
0.0
 10
179.3061000889147
 20
134.6646334406167
 10
176.3061000889147
 20
134.6646334406167
  0
LWPOLYLINE
  5
26F
330
1F
100
AcDbEntity
  8
0
100
AcDbPolyline
 90
        2
 70
     0
 43
0.0
 10
173.3061000889147
 20
134.6646334406167
 10
170.3061000889147
 20
134.6646334406167
  0
LWPOLYLINE
  5
270
330
1F
100
AcDbEntity
  8
0
100
AcDbPolyline
 90
        2
 70
     0
 43
0.0
 10
167.3061000889147
 20
134.6646334406167
 10
164.3061000889147
 20
134.6646334406167
  0
LWPOLYLINE
  5
271
330
1F
100
AcDbEntity
  8
0
100
AcDbPolyline
 90
        2
 70
     0
 43
0.0
 10
161.3061000889147
 20
134.6646334406167
 10
158.3061000889147
 20
134.6646334406167
  0
LWPOLYLINE
  5
272
330
1F
100
AcDbEntity
  8
0
100
AcDbPolyline
 90
        2
 70
     0
 43
0.0
 10
155.3061000889147
 20
134.6646334406167
 10
152.3061000889147
 20
134.6646334406167
  0
LWPOLYLINE
  5
273
330
1F
100
AcDbEntity
  8
0
100
AcDbPolyline
 90
        2
 70
     0
 43
0.0
 10
149.3061000889147
 20
134.6646334406167
 10
146.3061000889147
 20
134.6646334406167
  0
LWPOLYLINE
  5
274
330
1F
100
AcDbEntity
  8
0
100
AcDbPolyline
 90
        2
 70
     0
 43
0.0
 10
143.3061000889147
 20
134.6646334406167
 10
140.3061000889147
 20
134.6646334406167
  0
LWPOLYLINE
  5
275
330
1F
100
AcDbEntity
  8
0
100
AcDbPolyline
 90
        2
 70
     0
 43
0.0
 10
137.3061000889147
 20
134.6646334406167
 10
134.3061000889147
 20
134.6646334406167
  0
LWPOLYLINE
  5
276
330
1F
100
AcDbEntity
  8
0
100
AcDbPolyline
 90
        2
 70
     0
 43
0.0
 10
131.3061000889147
 20
134.6646334406167
 10
128.3061000889147
 20
134.6646334406167
  0
LWPOLYLINE
  5
277
330
1F
100
AcDbEntity
  8
0
100
AcDbPolyline
 90
        2
 70
     0
 43
0.0
 10
125.3061000889147
 20
134.6646334406167
 10
122.3061000889147
 20
134.6646334406167
  0
LWPOLYLINE
  5
278
330
1F
100
AcDbEntity
  8
0
100
AcDbPolyline
 90
        2
 70
     0
 43
0.0
 10
119.3061000889147
 20
134.6646334406167
 10
116.3061000889147
 20
134.6646334406167
  0
LWPOLYLINE
  5
279
330
1F
100
AcDbEntity
  8
0
100
AcDbPolyline
 90
        2
 70
     0
 43
0.0
 10
113.3061000889147
 20
134.6646334406167
 10
110.3061000889147
 20
134.6646334406167
  0
LWPOLYLINE
  5
27A
330
1F
100
AcDbEntity
  8
0
100
AcDbPolyline
 90
        2
 70
     0
 43
0.0
 10
107.3061000889147
 20
134.6646334406167
 10
104.3061000889147
 20
134.6646334406167
  0
LWPOLYLINE
  5
27B
330
1F
100
AcDbEntity
  8
0
100
AcDbPolyline
 90
        2
 70
     0
 43
0.0
 10
101.3061000889147
 20
134.6646334406167
 10
98.30610008891468
 20
134.6646334406167
  0
LWPOLYLINE
  5
27C
330
1F
100
AcDbEntity
  8
0
100
AcDbPolyline
 90
        2
 70
     0
 43
0.0
 10
95.3061000889147
 20
134.6646334406167
 10
92.30610008891469
 20
134.6646334406167
  0
LWPOLYLINE
  5
27D
330
1F
100
AcDbEntity
  8
0
100
AcDbPolyline
 90
        2
 70
     0
 43
0.0
 10
89.30610008891468
 20
134.6646334406167
 10
86.30610008891469
 20
134.6646334406167
  0
LWPOLYLINE
  5
27E
330
1F
100
AcDbEntity
  8
0
100
AcDbPolyline
 90
        2
 70
     0
 43
0.0
 10
83.30610008891468
 20
134.6646334406167
 10
80.3061000889147
 20
134.6646334406167
  0
LWPOLYLINE
  5
27F
102
{ACAD_REACTORS
330
3B5
330
3B8
102
}
330
1F
100
AcDbEntity
  8
0
100
AcDbPolyline
 90
        6
 70
     0
 43
0.0
 10
148.600348835036
 20
224.9146334406167
 10
192.3503488350359
 20
224.9146334406167
 10
192.3503488350359
 20
124.4146334406167
 10
73.85034883503587
 20
124.4146334406167
 10
73.85034883503587
 20
224.9146334406167
 10
148.600348835036
 20
224.9146334406167
  0
LWPOLYLINE
  5
280
330
1F
100
AcDbEntity
  8
0
100
AcDbPolyline
 90
        4
 70
     1
 43
0.0
 10
73.85034883503587
 20
145.1646334406167
 10
73.85034883503587
 20
204.1646334406167
 10
192.3503488350359
 20
204.1646334406167
 10
192.3503488350359
 20
145.1646334406167
  0
LWPOLYLINE
  5
281
330
1F
100
AcDbEntity
  8
0
 62
     4
100
AcDbPolyline
 90
        2
 70
     0
 43
0.0
 10
99.25034883503597
 20
230.6783949085067
 10
78.85034883503587
 20
230.6783949085067
  0
LWPOLYLINE
  5
282
330
1F
100
AcDbEntity
  8
0
 62
     4
100
AcDbPolyline
 90
        2
 70
     0
 43
0.0
 10
78.85034883503587
 20
238.1646334406168
 10
78.85034883503587
 20
230.6783949085067
  0
LWPOLYLINE
  5
283
330
1F
100
AcDbEntity
  8
0
 62
     4
100
AcDbPolyline
 90
        4
 70
     1
 43
0.0
 10
78.85034883503587
 20
230.6783949085067
 10
78.85034883503587
 20
238.1646334406168
 10
83.95034883503589
 20
238.1646334406168
 10
83.95034883503589
 20
230.6783949085067
  0
CIRCLE
  5
284
330
1F
100
AcDbEntity
  8
0
 62
     4
100
AcDbCircle
 10
81.40034883503583
 20
234.3922710552957
 30
0.0
 40
1.871559633027521
  0
LWPOLYLINE
  5
285
330
1F
100
AcDbEntity
  8
0
 62
     4
100
AcDbPolyline
 90
        4
 70
     1
 43
0.0
 10
82.43488150638242
 20
235.8215449175697
 10
82.92013256839444
 20
235.2885628745606
 10
80.36581616368946
 20
232.9629971930218
 10
79.88056510167743
 20
233.4959792360306
  0
LWPOLYLINE
  5
286
330
1F
100
AcDbEntity
  8
0
 62
     4
100
AcDbPolyline
 90
        4
 70
     1
 43
0.0
 10
83.95034883503589
 20
230.6783949085067
 10
83.95034883503589
 20
238.1646334406168
 10
89.05034883503592
 20
238.1646334406168
 10
89.05034883503592
 20
230.6783949085067
  0
CIRCLE
  5
287
330
1F
100
AcDbEntity
  8
0
 62
     4
100
AcDbCircle
 10
86.50034883503597
 20
234.3922710552957
 30
0.0
 40
1.871559633027521
  0
LWPOLYLINE
  5
288
330
1F
100
AcDbEntity
  8
0
 62
     4
100
AcDbPolyline
 90
        4
 70
     1
 43
0.0
 10
87.53488150638245
 20
235.8215449175697
 10
88.02013256839448
 20
235.2885628745606
 10
85.46581616368948
 20
232.9629971930218
 10
84.98056510167733
 20
233.4959792360306
  0
LWPOLYLINE
  5
289
330
1F
100
AcDbEntity
  8
0
 62
     4
100
AcDbPolyline
 90
        4
 70
     1
 43
0.0
 10
89.05034883503592
 20
230.6783949085067
 10
89.05034883503592
 20
238.1646334406168
 10
94.15034883503594
 20
238.1646334406168
 10
94.15034883503594
 20
230.6783949085067
  0
CIRCLE
  5
28A
330
1F
100
AcDbEntity
  8
0
 62
     4
100
AcDbCircle
 10
91.60034883503588
 20
234.3922710552957
 30
0.0
 40
1.871559633027521
  0
LWPOLYLINE
  5
28B
330
1F
100
AcDbEntity
  8
0
 62
     4
100
AcDbPolyline
 90
        4
 70
     1
 43
0.0
 10
92.63488150638236
 20
235.8215449175697
 10
93.12013256839449
 20
235.2885628745606
 10
90.56581616368939
 20
232.9629971930218
 10
90.08056510167737
 20
233.4959792360306
  0
LWPOLYLINE
  5
28C
330
1F
100
AcDbEntity
  8
0
 62
     4
100
AcDbPolyline
 90
        4
 70
     1
 43
0.0
 10
94.15034883503594
 20
230.6783949085067
 10
94.15034883503594
 20
238.1646334406168
 10
99.25034883503597
 20
238.1646334406168
 10
99.25034883503597
 20
230.6783949085067
  0
CIRCLE
  5
28D
330
1F
100
AcDbEntity
  8
0
 62
     4
100
AcDbCircle
 10
96.70034883503589
 20
234.3922710552957
 30
0.0
 40
1.871559633027521
  0
LWPOLYLINE
  5
28E
330
1F
100
AcDbEntity
  8
0
 62
     4
100
AcDbPolyline
 90
        4
 70
     1
 43
0.0
 10
97.73488150638238
 20
235.8215449175697
 10
98.22013256839452
 20
235.2885628745606
 10
95.6658161636894
 20
232.9629971930218
 10
95.18056510167738
 20
233.4959792360306
  0
LWPOLYLINE
  5
28F
330
1F
100
AcDbEntity
  8
0
100
AcDbPolyline
 90
        4
 70
     1
 43
0.0
 10
80.3061000889147
 20
134.6646334406167
 10
80.3061000889147
 20
137.6646334406167
 10
83.30610008891468
 20
137.6646334406167
 10
83.30610008891468
 20
134.6646334406167
  0
LWPOLYLINE
  5
290
330
1F
100
AcDbEntity
  8
0
100
AcDbPolyline
 90
        4
 70
     0
 43
0.0
 10
83.30610008891468
 20
134.6646334406167
 10
83.30610008891468
 20
137.6646334406167
 10
86.30610008891469
 20
137.6646334406167
 10
86.30610008891469
 20
134.6646334406167
  0
LWPOLYLINE
  5
291
330
1F
100
AcDbEntity
  8
0
100
AcDbPolyline
 90
        4
 70
     1
 43
0.0
 10
86.30610008891469
 20
134.6646334406167
 10
86.30610008891469
 20
137.6646334406167
 10
89.30610008891468
 20
137.6646334406167
 10
89.30610008891468
 20
134.6646334406167
  0
LWPOLYLINE
  5
292
330
1F
100
AcDbEntity
  8
0
100
AcDbPolyline
 90
        4
 70
     0
 43
0.0
 10
89.30610008891468
 20
134.6646334406167
 10
89.30610008891468
 20
137.6646334406167
 10
92.30610008891469
 20
137.6646334406167
 10
92.30610008891469
 20
134.6646334406167
  0
LWPOLYLINE
  5
293
330
1F
100
AcDbEntity
  8
0
100
AcDbPolyline
 90
        4
 70
     1
 43
0.0
 10
92.30610008891469
 20
134.6646334406167
 10
92.30610008891469
 20
137.6646334406167
 10
95.3061000889147
 20
137.6646334406167
 10
95.3061000889147
 20
134.6646334406167
  0
LWPOLYLINE
  5
294
330
1F
100
AcDbEntity
  8
0
100
AcDbPolyline
 90
        4
 70
     0
 43
0.0
 10
95.3061000889147
 20
134.6646334406167
 10
95.3061000889147
 20
137.6646334406167
 10
98.30610008891468
 20
137.6646334406167
 10
98.30610008891468
 20
134.6646334406167
  0
LWPOLYLINE
  5
295
330
1F
100
AcDbEntity
  8
0
100
AcDbPolyline
 90
        4
 70
     1
 43
0.0
 10
98.30610008891468
 20
134.6646334406167
 10
98.30610008891468
 20
137.6646334406167
 10
101.3061000889147
 20
137.6646334406167
 10
101.3061000889147
 20
134.6646334406167
  0
LWPOLYLINE
  5
296
330
1F
100
AcDbEntity
  8
0
100
AcDbPolyline
 90
        4
 70
     0
 43
0.0
 10
101.3061000889147
 20
134.6646334406167
 10
101.3061000889147
 20
137.6646334406167
 10
104.3061000889147
 20
137.6646334406167
 10
104.3061000889147
 20
134.6646334406167
  0
LWPOLYLINE
  5
297
330
1F
100
AcDbEntity
  8
0
100
AcDbPolyline
 90
        4
 70
     1
 43
0.0
 10
104.3061000889147
 20
134.6646334406167
 10
104.3061000889147
 20
137.6646334406167
 10
107.3061000889147
 20
137.6646334406167
 10
107.3061000889147
 20
134.6646334406167
  0
LWPOLYLINE
  5
298
330
1F
100
AcDbEntity
  8
0
100
AcDbPolyline
 90
        4
 70
     0
 43
0.0
 10
107.3061000889147
 20
134.6646334406167
 10
107.3061000889147
 20
137.6646334406167
 10
110.3061000889147
 20
137.6646334406167
 10
110.3061000889147
 20
134.6646334406167
  0
LWPOLYLINE
  5
299
330
1F
100
AcDbEntity
  8
0
100
AcDbPolyline
 90
        4
 70
     1
 43
0.0
 10
110.3061000889147
 20
134.6646334406167
 10
110.3061000889147
 20
137.6646334406167
 10
113.3061000889147
 20
137.6646334406167
 10
113.3061000889147
 20
134.6646334406167
  0
LWPOLYLINE
  5
29A
330
1F
100
AcDbEntity
  8
0
100
AcDbPolyline
 90
        4
 70
     0
 43
0.0
 10
113.3061000889147
 20
134.6646334406167
 10
113.3061000889147
 20
137.6646334406167
 10
116.3061000889147
 20
137.6646334406167
 10
116.3061000889147
 20
134.6646334406167
  0
LWPOLYLINE
  5
29B
330
1F
100
AcDbEntity
  8
0
100
AcDbPolyline
 90
        4
 70
     1
 43
0.0
 10
116.3061000889147
 20
134.6646334406167
 10
116.3061000889147
 20
137.6646334406167
 10
119.3061000889147
 20
137.6646334406167
 10
119.3061000889147
 20
134.6646334406167
  0
LWPOLYLINE
  5
29C
330
1F
100
AcDbEntity
  8
0
100
AcDbPolyline
 90
        4
 70
     0
 43
0.0
 10
119.3061000889147
 20
134.6646334406167
 10
119.3061000889147
 20
137.6646334406167
 10
122.3061000889147
 20
137.6646334406167
 10
122.3061000889147
 20
134.6646334406167
  0
LWPOLYLINE
  5
29D
330
1F
100
AcDbEntity
  8
0
100
AcDbPolyline
 90
        4
 70
     1
 43
0.0
 10
122.3061000889147
 20
134.6646334406167
 10
122.3061000889147
 20
137.6646334406167
 10
125.3061000889147
 20
137.6646334406167
 10
125.3061000889147
 20
134.6646334406167
  0
LWPOLYLINE
  5
29E
330
1F
100
AcDbEntity
  8
0
100
AcDbPolyline
 90
        4
 70
     0
 43
0.0
 10
125.3061000889147
 20
134.6646334406167
 10
125.3061000889147
 20
137.6646334406167
 10
128.3061000889147
 20
137.6646334406167
 10
128.3061000889147
 20
134.6646334406167
  0
LWPOLYLINE
  5
29F
330
1F
100
AcDbEntity
  8
0
100
AcDbPolyline
 90
        4
 70
     1
 43
0.0
 10
128.3061000889147
 20
134.6646334406167
 10
128.3061000889147
 20
137.6646334406167
 10
131.3061000889147
 20
137.6646334406167
 10
131.3061000889147
 20
134.6646334406167
  0
LWPOLYLINE
  5
2A0
330
1F
100
AcDbEntity
  8
0
100
AcDbPolyline
 90
        4
 70
     0
 43
0.0
 10
131.3061000889147
 20
134.6646334406167
 10
131.3061000889147
 20
137.6646334406167
 10
134.3061000889147
 20
137.6646334406167
 10
134.3061000889147
 20
134.6646334406167
  0
LWPOLYLINE
  5
2A1
330
1F
100
AcDbEntity
  8
0
100
AcDbPolyline
 90
        4
 70
     1
 43
0.0
 10
134.3061000889147
 20
134.6646334406167
 10
134.3061000889147
 20
137.6646334406167
 10
137.3061000889147
 20
137.6646334406167
 10
137.3061000889147
 20
134.6646334406167
  0
LWPOLYLINE
  5
2A2
330
1F
100
AcDbEntity
  8
0
100
AcDbPolyline
 90
        4
 70
     0
 43
0.0
 10
137.3061000889147
 20
134.6646334406167
 10
137.3061000889147
 20
137.6646334406167
 10
140.3061000889147
 20
137.6646334406167
 10
140.3061000889147
 20
134.6646334406167
  0
LWPOLYLINE
  5
2A3
330
1F
100
AcDbEntity
  8
0
100
AcDbPolyline
 90
        4
 70
     1
 43
0.0
 10
140.3061000889147
 20
134.6646334406167
 10
140.3061000889147
 20
137.6646334406167
 10
143.3061000889147
 20
137.6646334406167
 10
143.3061000889147
 20
134.6646334406167
  0
LWPOLYLINE
  5
2A4
330
1F
100
AcDbEntity
  8
0
100
AcDbPolyline
 90
        4
 70
     0
 43
0.0
 10
143.3061000889147
 20
134.6646334406167
 10
143.3061000889147
 20
137.6646334406167
 10
146.3061000889147
 20
137.6646334406167
 10
146.3061000889147
 20
134.6646334406167
  0
LWPOLYLINE
  5
2A5
330
1F
100
AcDbEntity
  8
0
100
AcDbPolyline
 90
        4
 70
     1
 43
0.0
 10
146.3061000889147
 20
134.6646334406167
 10
146.3061000889147
 20
137.6646334406167
 10
149.3061000889147
 20
137.6646334406167
 10
149.3061000889147
 20
134.6646334406167
  0
LWPOLYLINE
  5
2A6
330
1F
100
AcDbEntity
  8
0
100
AcDbPolyline
 90
        4
 70
     0
 43
0.0
 10
149.3061000889147
 20
134.6646334406167
 10
149.3061000889147
 20
137.6646334406167
 10
152.3061000889147
 20
137.6646334406167
 10
152.3061000889147
 20
134.6646334406167
  0
LWPOLYLINE
  5
2A7
330
1F
100
AcDbEntity
  8
0
100
AcDbPolyline
 90
        4
 70
     1
 43
0.0
 10
152.3061000889147
 20
134.6646334406167
 10
152.3061000889147
 20
137.6646334406167
 10
155.3061000889147
 20
137.6646334406167
 10
155.3061000889147
 20
134.6646334406167
  0
LWPOLYLINE
  5
2A8
330
1F
100
AcDbEntity
  8
0
100
AcDbPolyline
 90
        4
 70
     0
 43
0.0
 10
155.3061000889147
 20
134.6646334406167
 10
155.3061000889147
 20
137.6646334406167
 10
158.3061000889147
 20
137.6646334406167
 10
158.3061000889147
 20
134.6646334406167
  0
LWPOLYLINE
  5
2A9
330
1F
100
AcDbEntity
  8
0
100
AcDbPolyline
 90
        4
 70
     1
 43
0.0
 10
158.3061000889147
 20
134.6646334406167
 10
158.3061000889147
 20
137.6646334406167
 10
161.3061000889147
 20
137.6646334406167
 10
161.3061000889147
 20
134.6646334406167
  0
LWPOLYLINE
  5
2AA
330
1F
100
AcDbEntity
  8
0
100
AcDbPolyline
 90
        4
 70
     0
 43
0.0
 10
161.3061000889147
 20
134.6646334406167
 10
161.3061000889147
 20
137.6646334406167
 10
164.3061000889147
 20
137.6646334406167
 10
164.3061000889147
 20
134.6646334406167
  0
LWPOLYLINE
  5
2AB
330
1F
100
AcDbEntity
  8
0
100
AcDbPolyline
 90
        4
 70
     1
 43
0.0
 10
164.3061000889147
 20
134.6646334406167
 10
164.3061000889147
 20
137.6646334406167
 10
167.3061000889147
 20
137.6646334406167
 10
167.3061000889147
 20
134.6646334406167
  0
LWPOLYLINE
  5
2AC
330
1F
100
AcDbEntity
  8
0
100
AcDbPolyline
 90
        4
 70
     0
 43
0.0
 10
167.3061000889147
 20
134.6646334406167
 10
167.3061000889147
 20
137.6646334406167
 10
170.3061000889147
 20
137.6646334406167
 10
170.3061000889147
 20
134.6646334406167
  0
LWPOLYLINE
  5
2AD
330
1F
100
AcDbEntity
  8
0
100
AcDbPolyline
 90
        4
 70
     1
 43
0.0
 10
170.3061000889147
 20
134.6646334406167
 10
170.3061000889147
 20
137.6646334406167
 10
173.3061000889147
 20
137.6646334406167
 10
173.3061000889147
 20
134.6646334406167
  0
LWPOLYLINE
  5
2AE
330
1F
100
AcDbEntity
  8
0
100
AcDbPolyline
 90
        4
 70
     0
 43
0.0
 10
173.3061000889147
 20
134.6646334406167
 10
173.3061000889147
 20
137.6646334406167
 10
176.3061000889147
 20
137.6646334406167
 10
176.3061000889147
 20
134.6646334406167
  0
LWPOLYLINE
  5
2AF
330
1F
100
AcDbEntity
  8
0
100
AcDbPolyline
 90
        4
 70
     1
 43
0.0
 10
176.3061000889147
 20
134.6646334406167
 10
176.3061000889147
 20
137.6646334406167
 10
179.3061000889147
 20
137.6646334406167
 10
179.3061000889147
 20
134.6646334406167
  0
LWPOLYLINE
  5
2B0
330
1F
100
AcDbEntity
  8
0
100
AcDbPolyline
 90
        4
 70
     0
 43
0.0
 10
179.3061000889147
 20
134.6646334406167
 10
179.3061000889147
 20
137.6646334406167
 10
182.3061000889147
 20
137.6646334406167
 10
182.3061000889147
 20
134.6646334406167
  0
LWPOLYLINE
  5
2B1
330
1F
100
AcDbEntity
  8
0
100
AcDbPolyline
 90
        4
 70
     1
 43
0.0
 10
182.3061000889147
 20
134.6646334406167
 10
182.3061000889147
 20
137.6646334406167
 10
185.3061000889147
 20
137.6646334406167
 10
185.3061000889147
 20
134.6646334406167
  0
LINE
  5
2B2
330
1F
100
AcDbEntity
  8
0
100
AcDbLine
 10
82.14410229748997
 20
137.6646334406167
 30
0.0
 11
73.85034883503587
 21
137.6646334406167
 31
0.0
  0
LINE
  5
2B3
330
1F
100
AcDbEntity
  8
0
100
AcDbLine
 10
185.3061000889147
 20
137.6646334406167
 30
0.0
 11
192.3503488350359
 21
137.6646334406167
 31
0.0
  0
LWPOLYLINE
  5
2B4
330
1F
100
AcDbEntity
  8
0
100
AcDbPolyline
 90
        2
 70
     0
 43
0.0
 10
185.3061000889147
 20
214.6646334406167
 10
182.3061000889147
 20
214.6646334406167
  0
LWPOLYLINE
  5
2B5
330
1F
100
AcDbEntity
  8
0
100
AcDbPolyline
 90
        2
 70
     0
 43
0.0
 10
179.3061000889147
 20
214.6646334406167
 10
176.3061000889147
 20
214.6646334406167
  0
LWPOLYLINE
  5
2B6
330
1F
100
AcDbEntity
  8
0
100
AcDbPolyline
 90
        2
 70
     0
 43
0.0
 10
173.3061000889147
 20
214.6646334406167
 10
170.3061000889147
 20
214.6646334406167
  0
LWPOLYLINE
  5
2B7
330
1F
100
AcDbEntity
  8
0
100
AcDbPolyline
 90
        2
 70
     0
 43
0.0
 10
167.3061000889147
 20
214.6646334406167
 10
164.3061000889147
 20
214.6646334406167
  0
LWPOLYLINE
  5
2B8
330
1F
100
AcDbEntity
  8
0
100
AcDbPolyline
 90
        2
 70
     0
 43
0.0
 10
161.3061000889147
 20
214.6646334406167
 10
158.3061000889147
 20
214.6646334406167
  0
LWPOLYLINE
  5
2B9
330
1F
100
AcDbEntity
  8
0
100
AcDbPolyline
 90
        2
 70
     0
 43
0.0
 10
155.3061000889147
 20
214.6646334406167
 10
152.3061000889147
 20
214.6646334406167
  0
LWPOLYLINE
  5
2BA
330
1F
100
AcDbEntity
  8
0
100
AcDbPolyline
 90
        2
 70
     0
 43
0.0
 10
149.3061000889147
 20
214.6646334406167
 10
146.3061000889147
 20
214.6646334406167
  0
LWPOLYLINE
  5
2BB
330
1F
100
AcDbEntity
  8
0
100
AcDbPolyline
 90
        2
 70
     0
 43
0.0
 10
143.3061000889147
 20
214.6646334406167
 10
140.3061000889147
 20
214.6646334406167
  0
LWPOLYLINE
  5
2BC
330
1F
100
AcDbEntity
  8
0
100
AcDbPolyline
 90
        2
 70
     0
 43
0.0
 10
137.3061000889147
 20
214.6646334406167
 10
134.3061000889147
 20
214.6646334406167
  0
LWPOLYLINE
  5
2BD
330
1F
100
AcDbEntity
  8
0
100
AcDbPolyline
 90
        2
 70
     0
 43
0.0
 10
131.3061000889147
 20
214.6646334406167
 10
128.3061000889147
 20
214.6646334406167
  0
LWPOLYLINE
  5
2BE
330
1F
100
AcDbEntity
  8
0
100
AcDbPolyline
 90
        2
 70
     0
 43
0.0
 10
125.3061000889147
 20
214.6646334406167
 10
122.3061000889147
 20
214.6646334406167
  0
LWPOLYLINE
  5
2BF
330
1F
100
AcDbEntity
  8
0
100
AcDbPolyline
 90
        2
 70
     0
 43
0.0
 10
119.3061000889147
 20
214.6646334406167
 10
116.3061000889147
 20
214.6646334406167
  0
LWPOLYLINE
  5
2C0
330
1F
100
AcDbEntity
  8
0
100
AcDbPolyline
 90
        2
 70
     0
 43
0.0
 10
113.3061000889147
 20
214.6646334406167
 10
110.3061000889147
 20
214.6646334406167
  0
LWPOLYLINE
  5
2C1
330
1F
100
AcDbEntity
  8
0
100
AcDbPolyline
 90
        2
 70
     0
 43
0.0
 10
107.3061000889147
 20
214.6646334406167
 10
104.3061000889147
 20
214.6646334406167
  0
LWPOLYLINE
  5
2C2
330
1F
100
AcDbEntity
  8
0
100
AcDbPolyline
 90
        2
 70
     0
 43
0.0
 10
101.3061000889147
 20
214.6646334406167
 10
98.30610008891468
 20
214.6646334406167
  0
LWPOLYLINE
  5
2C3
330
1F
100
AcDbEntity
  8
0
100
AcDbPolyline
 90
        2
 70
     0
 43
0.0
 10
95.3061000889147
 20
214.6646334406167
 10
92.30610008891469
 20
214.6646334406167
  0
LWPOLYLINE
  5
2C4
330
1F
100
AcDbEntity
  8
0
100
AcDbPolyline
 90
        2
 70
     0
 43
0.0
 10
89.30610008891468
 20
214.6646334406167
 10
86.30610008891469
 20
214.6646334406167
  0
LWPOLYLINE
  5
2C5
330
1F
100
AcDbEntity
  8
0
100
AcDbPolyline
 90
        2
 70
     0
 43
0.0
 10
83.30610008891468
 20
214.6646334406167
 10
80.3061000889147
 20
214.6646334406167
  0
LWPOLYLINE
  5
2C6
330
1F
100
AcDbEntity
  8
0
100
AcDbPolyline
 90
        4
 70
     1
 43
0.0
 10
80.3061000889147
 20
214.6646334406167
 10
80.3061000889147
 20
211.6646334406167
 10
83.30610008891468
 20
211.6646334406167
 10
83.30610008891468
 20
214.6646334406167
  0
LWPOLYLINE
  5
2C7
330
1F
100
AcDbEntity
  8
0
100
AcDbPolyline
 90
        4
 70
     0
 43
0.0
 10
83.30610008891468
 20
214.6646334406167
 10
83.30610008891468
 20
211.6646334406167
 10
86.30610008891469
 20
211.6646334406167
 10
86.30610008891469
 20
214.6646334406167
  0
LWPOLYLINE
  5
2C8
330
1F
100
AcDbEntity
  8
0
100
AcDbPolyline
 90
        4
 70
     1
 43
0.0
 10
86.30610008891469
 20
214.6646334406167
 10
86.30610008891469
 20
211.6646334406167
 10
89.30610008891468
 20
211.6646334406167
 10
89.30610008891468
 20
214.6646334406167
  0
LWPOLYLINE
  5
2C9
330
1F
100
AcDbEntity
  8
0
100
AcDbPolyline
 90
        4
 70
     0
 43
0.0
 10
89.30610008891468
 20
214.6646334406167
 10
89.30610008891468
 20
211.6646334406167
 10
92.30610008891469
 20
211.6646334406167
 10
92.30610008891469
 20
214.6646334406167
  0
LWPOLYLINE
  5
2CA
330
1F
100
AcDbEntity
  8
0
100
AcDbPolyline
 90
        4
 70
     1
 43
0.0
 10
92.30610008891469
 20
214.6646334406167
 10
92.30610008891469
 20
211.6646334406167
 10
95.3061000889147
 20
211.6646334406167
 10
95.3061000889147
 20
214.6646334406167
  0
LWPOLYLINE
  5
2CB
330
1F
100
AcDbEntity
  8
0
100
AcDbPolyline
 90
        4
 70
     0
 43
0.0
 10
95.3061000889147
 20
214.6646334406167
 10
95.3061000889147
 20
211.6646334406167
 10
98.30610008891468
 20
211.6646334406167
 10
98.30610008891468
 20
214.6646334406167
  0
LWPOLYLINE
  5
2CC
330
1F
100
AcDbEntity
  8
0
100
AcDbPolyline
 90
        4
 70
     1
 43
0.0
 10
98.30610008891468
 20
214.6646334406167
 10
98.30610008891468
 20
211.6646334406167
 10
101.3061000889147
 20
211.6646334406167
 10
101.3061000889147
 20
214.6646334406167
  0
LWPOLYLINE
  5
2CD
330
1F
100
AcDbEntity
  8
0
100
AcDbPolyline
 90
        4
 70
     0
 43
0.0
 10
101.3061000889147
 20
214.6646334406167
 10
101.3061000889147
 20
211.6646334406167
 10
104.3061000889147
 20
211.6646334406167
 10
104.3061000889147
 20
214.6646334406167
  0
LWPOLYLINE
  5
2CE
330
1F
100
AcDbEntity
  8
0
100
AcDbPolyline
 90
        4
 70
     1
 43
0.0
 10
104.3061000889147
 20
214.6646334406167
 10
104.3061000889147
 20
211.6646334406167
 10
107.3061000889147
 20
211.6646334406167
 10
107.3061000889147
 20
214.6646334406167
  0
LWPOLYLINE
  5
2CF
330
1F
100
AcDbEntity
  8
0
100
AcDbPolyline
 90
        4
 70
     0
 43
0.0
 10
107.3061000889147
 20
214.6646334406167
 10
107.3061000889147
 20
211.6646334406167
 10
110.3061000889147
 20
211.6646334406167
 10
110.3061000889147
 20
214.6646334406167
  0
LWPOLYLINE
  5
2D0
330
1F
100
AcDbEntity
  8
0
100
AcDbPolyline
 90
        4
 70
     1
 43
0.0
 10
110.3061000889147
 20
214.6646334406167
 10
110.3061000889147
 20
211.6646334406167
 10
113.3061000889147
 20
211.6646334406167
 10
113.3061000889147
 20
214.6646334406167
  0
LWPOLYLINE
  5
2D1
330
1F
100
AcDbEntity
  8
0
100
AcDbPolyline
 90
        4
 70
     0
 43
0.0
 10
113.3061000889147
 20
214.6646334406167
 10
113.3061000889147
 20
211.6646334406167
 10
116.3061000889147
 20
211.6646334406167
 10
116.3061000889147
 20
214.6646334406167
  0
LWPOLYLINE
  5
2D2
330
1F
100
AcDbEntity
  8
0
100
AcDbPolyline
 90
        4
 70
     1
 43
0.0
 10
116.3061000889147
 20
214.6646334406167
 10
116.3061000889147
 20
211.6646334406167
 10
119.3061000889147
 20
211.6646334406167
 10
119.3061000889147
 20
214.6646334406167
  0
LWPOLYLINE
  5
2D3
330
1F
100
AcDbEntity
  8
0
100
AcDbPolyline
 90
        4
 70
     0
 43
0.0
 10
119.3061000889147
 20
214.6646334406167
 10
119.3061000889147
 20
211.6646334406167
 10
122.3061000889147
 20
211.6646334406167
 10
122.3061000889147
 20
214.6646334406167
  0
LWPOLYLINE
  5
2D4
330
1F
100
AcDbEntity
  8
0
100
AcDbPolyline
 90
        4
 70
     1
 43
0.0
 10
122.3061000889147
 20
214.6646334406167
 10
122.3061000889147
 20
211.6646334406167
 10
125.3061000889147
 20
211.6646334406167
 10
125.3061000889147
 20
214.6646334406167
  0
LWPOLYLINE
  5
2D5
330
1F
100
AcDbEntity
  8
0
100
AcDbPolyline
 90
        4
 70
     0
 43
0.0
 10
125.3061000889147
 20
214.6646334406167
 10
125.3061000889147
 20
211.6646334406167
 10
128.3061000889147
 20
211.6646334406167
 10
128.3061000889147
 20
214.6646334406167
  0
LWPOLYLINE
  5
2D6
330
1F
100
AcDbEntity
  8
0
100
AcDbPolyline
 90
        4
 70
     1
 43
0.0
 10
128.3061000889147
 20
214.6646334406167
 10
128.3061000889147
 20
211.6646334406167
 10
131.3061000889147
 20
211.6646334406167
 10
131.3061000889147
 20
214.6646334406167
  0
LWPOLYLINE
  5
2D7
330
1F
100
AcDbEntity
  8
0
100
AcDbPolyline
 90
        4
 70
     0
 43
0.0
 10
131.3061000889147
 20
214.6646334406167
 10
131.3061000889147
 20
211.6646334406167
 10
134.3061000889147
 20
211.6646334406167
 10
134.3061000889147
 20
214.6646334406167
  0
LWPOLYLINE
  5
2D8
330
1F
100
AcDbEntity
  8
0
100
AcDbPolyline
 90
        4
 70
     1
 43
0.0
 10
134.3061000889147
 20
214.6646334406167
 10
134.3061000889147
 20
211.6646334406167
 10
137.3061000889147
 20
211.6646334406167
 10
137.3061000889147
 20
214.6646334406167
  0
LWPOLYLINE
  5
2D9
330
1F
100
AcDbEntity
  8
0
100
AcDbPolyline
 90
        4
 70
     0
 43
0.0
 10
137.3061000889147
 20
214.6646334406167
 10
137.3061000889147
 20
211.6646334406167
 10
140.3061000889147
 20
211.6646334406167
 10
140.3061000889147
 20
214.6646334406167
  0
LWPOLYLINE
  5
2DA
330
1F
100
AcDbEntity
  8
0
100
AcDbPolyline
 90
        4
 70
     1
 43
0.0
 10
140.3061000889147
 20
214.6646334406167
 10
140.3061000889147
 20
211.6646334406167
 10
143.3061000889147
 20
211.6646334406167
 10
143.3061000889147
 20
214.6646334406167
  0
LWPOLYLINE
  5
2DB
330
1F
100
AcDbEntity
  8
0
100
AcDbPolyline
 90
        4
 70
     0
 43
0.0
 10
143.3061000889147
 20
214.6646334406167
 10
143.3061000889147
 20
211.6646334406167
 10
146.3061000889147
 20
211.6646334406167
 10
146.3061000889147
 20
214.6646334406167
  0
LWPOLYLINE
  5
2DC
330
1F
100
AcDbEntity
  8
0
100
AcDbPolyline
 90
        4
 70
     1
 43
0.0
 10
146.3061000889147
 20
214.6646334406167
 10
146.3061000889147
 20
211.6646334406167
 10
149.3061000889147
 20
211.6646334406167
 10
149.3061000889147
 20
214.6646334406167
  0
LWPOLYLINE
  5
2DD
330
1F
100
AcDbEntity
  8
0
100
AcDbPolyline
 90
        4
 70
     0
 43
0.0
 10
149.3061000889147
 20
214.6646334406167
 10
149.3061000889147
 20
211.6646334406167
 10
152.3061000889147
 20
211.6646334406167
 10
152.3061000889147
 20
214.6646334406167
  0
LWPOLYLINE
  5
2DE
330
1F
100
AcDbEntity
  8
0
100
AcDbPolyline
 90
        4
 70
     1
 43
0.0
 10
152.3061000889147
 20
214.6646334406167
 10
152.3061000889147
 20
211.6646334406167
 10
155.3061000889147
 20
211.6646334406167
 10
155.3061000889147
 20
214.6646334406167
  0
LWPOLYLINE
  5
2DF
330
1F
100
AcDbEntity
  8
0
100
AcDbPolyline
 90
        4
 70
     0
 43
0.0
 10
155.3061000889147
 20
214.6646334406167
 10
155.3061000889147
 20
211.6646334406167
 10
158.3061000889147
 20
211.6646334406167
 10
158.3061000889147
 20
214.6646334406167
  0
LWPOLYLINE
  5
2E0
330
1F
100
AcDbEntity
  8
0
100
AcDbPolyline
 90
        4
 70
     1
 43
0.0
 10
158.3061000889147
 20
214.6646334406167
 10
158.3061000889147
 20
211.6646334406167
 10
161.3061000889147
 20
211.6646334406167
 10
161.3061000889147
 20
214.6646334406167
  0
LWPOLYLINE
  5
2E1
330
1F
100
AcDbEntity
  8
0
100
AcDbPolyline
 90
        4
 70
     0
 43
0.0
 10
161.3061000889147
 20
214.6646334406167
 10
161.3061000889147
 20
211.6646334406167
 10
164.3061000889147
 20
211.6646334406167
 10
164.3061000889147
 20
214.6646334406167
  0
LWPOLYLINE
  5
2E2
330
1F
100
AcDbEntity
  8
0
100
AcDbPolyline
 90
        4
 70
     1
 43
0.0
 10
164.3061000889147
 20
214.6646334406167
 10
164.3061000889147
 20
211.6646334406167
 10
167.3061000889147
 20
211.6646334406167
 10
167.3061000889147
 20
214.6646334406167
  0
LWPOLYLINE
  5
2E3
330
1F
100
AcDbEntity
  8
0
100
AcDbPolyline
 90
        4
 70
     0
 43
0.0
 10
167.3061000889147
 20
214.6646334406167
 10
167.3061000889147
 20
211.6646334406167
 10
170.3061000889147
 20
211.6646334406167
 10
170.3061000889147
 20
214.6646334406167
  0
LWPOLYLINE
  5
2E4
330
1F
100
AcDbEntity
  8
0
100
AcDbPolyline
 90
        4
 70
     1
 43
0.0
 10
170.3061000889147
 20
214.6646334406167
 10
170.3061000889147
 20
211.6646334406167
 10
173.3061000889147
 20
211.6646334406167
 10
173.3061000889147
 20
214.6646334406167
  0
LWPOLYLINE
  5
2E5
330
1F
100
AcDbEntity
  8
0
100
AcDbPolyline
 90
        4
 70
     0
 43
0.0
 10
173.3061000889147
 20
214.6646334406167
 10
173.3061000889147
 20
211.6646334406167
 10
176.3061000889147
 20
211.6646334406167
 10
176.3061000889147
 20
214.6646334406167
  0
LWPOLYLINE
  5
2E6
330
1F
100
AcDbEntity
  8
0
100
AcDbPolyline
 90
        4
 70
     1
 43
0.0
 10
176.3061000889147
 20
214.6646334406167
 10
176.3061000889147
 20
211.6646334406167
 10
179.3061000889147
 20
211.6646334406167
 10
179.3061000889147
 20
214.6646334406167
  0
LWPOLYLINE
  5
2E7
330
1F
100
AcDbEntity
  8
0
100
AcDbPolyline
 90
        4
 70
     0
 43
0.0
 10
179.3061000889147
 20
214.6646334406167
 10
179.3061000889147
 20
211.6646334406167
 10
182.3061000889147
 20
211.6646334406167
 10
182.3061000889147
 20
214.6646334406167
  0
LWPOLYLINE
  5
2E8
330
1F
100
AcDbEntity
  8
0
100
AcDbPolyline
 90
        4
 70
     1
 43
0.0
 10
182.3061000889147
 20
214.6646334406167
 10
182.3061000889147
 20
211.6646334406167
 10
185.3061000889147
 20
211.6646334406167
 10
185.3061000889147
 20
214.6646334406167
  0
LINE
  5
2E9
330
1F
100
AcDbEntity
  8
0
100
AcDbLine
 10
80.3061000889147
 20
211.6646334406167
 30
0.0
 11
73.85034883503587
 21
211.6646334406167
 31
0.0
  0
LINE
  5
2EA
330
1F
100
AcDbEntity
  8
0
100
AcDbLine
 10
185.3061000889147
 20
211.6646334406167
 30
0.0
 11
192.3503488350359
 21
211.6646334406167
 31
0.0
  0
MTEXT
  5
2EB
330
1F
100
AcDbEntity
  8
0
100
AcDbMText
 10
113.4776593839706
 20
178.2698858194688
 30
0.0
 40
5.0
 41
105.8919804120544
 71
     1
 72
     5
  1
{\fTimes New Roman|b1|i0|c0|p18;PNTECH CONTROLS}
 73
     1
 44
1.0
1001
ACAD
1000
MTEXTBEGIN
1070
    73
1070
     1
1070
    44
1040
1.0
1070
    74
1070
     0
1000
MTEXTEND
  0
MTEXT
  5
2EC
330
1F
100
AcDbEntity
  8
0
100
AcDbMText
 10
156.2878051346542
 20
163.1697723507028
 30
0.0
 40
5.0
 41
29.3228285426693
 71
     1
 72
     5
  1
{\fTimes New Roman|b1|i0|c0|p18;BCU}
 73
     1
 44
1.0
1001
ACAD
1000
MTEXTBEGIN
1070
    73
1070
     1
1070
    44
1040
1.0
1070
    74
1070
     0
1000
MTEXTEND
  0
MTEXT
  5
2ED
330
1F
100
AcDbEntity
  8
0
100
AcDbMText
 10
80.26108290936301
 20
214.9813225922736
 30
0.0
 40
2.339449541284402
 41
16.38732340109979
 71
     1
 72
     5
  1
{\fTimes New Roman|b0|i0|c0|p18;PWR}
 11
0.0000000000000001
 21
1.0
 31
0.0
 73
     1
 44
1.0
1001
ACAD
1000
MTEXTBEGIN
1070
    73
1070
     1
1070
    44
1040
1.0
1070
    74
1070
     0
1000
MTEXTEND
  0
MTEXT
  5
2EE
330
1F
100
AcDbEntity
  8
0
100
AcDbMText
 10
85.36108290936292
 20
214.9813225922736
 30
0.0
 40
2.339449541284402
 41
16.38732340109979
 71
     1
 72
     5
  1
{\fTimes New Roman|b0|i0|c0|p18;GND IN}
 11
0.0000000000000001
 21
1.0
 31
0.0
 73
     1
 44
1.0
1001
ACAD
1000
MTEXTBEGIN
1070
    73
1070
     1
1070
    44
1040
1.0
1070
    74
1070
     0
1000
MTEXTEND
  0
MTEXT
  5
2EF
330
1F
100
AcDbEntity
  8
0
100
AcDbMText
 10
90.46108290936293
 20
214.9813225922736
 30
0.0
 40
2.339449541284402
 41
16.38732340109979
 71
     1
 72
     5
  1
{\fTimes New Roman|b0|i0|c0|p18;GND}
 11
0.0000000000000001
 21
1.0
 31
0.0
 73
     1
 44
1.0
1001
ACAD
1000
MTEXTBEGIN
1070
    73
1070
     1
1070
    44
1040
1.0
1070
    74
1070
     0
1000
MTEXTEND
  0
MTEXT
  5
2F0
330
1F
100
AcDbEntity
  8
0
100
AcDbMText
 10
95.56108290936297
 20
214.9813225922736
 30
0.0
 40
2.339449541284402
 41
16.38732340109979
 71
     1
 72
     5
  1
{\fTimes New Roman|b0|i0|c0|p18;B-}
 11
0.0000000000000001
 21
1.0
 31
0.0
 73
     1
 44
1.0
1001
ACAD
1000
MTEXTBEGIN
1070
    73
1070
     1
1070
    44
1040
1.0
1070
    74
1070
     0
1000
MTEXTEND
  0
LINE
  5
2F1
102
{ACAD_REACTORS
330
3A9
102
}
330
1F
100
AcDbEntity
  8
0
100
AcDbLine
 10
73.85034883503599
 20
78.27210118642766
 30
0.0
 11
73.85034883503599
 21
73.27210118642743
 31
0.0
  0
LINE
  5
2F2
330
1F
100
AcDbEntity
  8
0
100
AcDbLine
 10
73.85034883503599
 20
72.27210118642743
 30
0.0
 11
73.85034883503599
 21
29.27210118642744
 31
0.0
  0
LINE
  5
2F3
330
1F
100
AcDbEntity
  8
0
100
AcDbLine
 10
73.85034883503599
 20
29.27210118642744
 30
0.0
 11
122.494137612265
 21
29.27210118642744
 31
0.0
  0
LINE
  5
2F4
330
1F
100
AcDbEntity
  8
0
100
AcDbLine
 10
143.7065600560825
 20
29.27210118642744
 30
0.0
 11
192.3503488333115
 21
29.27210118642744
 31
0.0
  0
LINE
  5
2F5
330
1F
100
AcDbEntity
  8
0
100
AcDbLine
 10
192.3503488333115
 20
29.27210118642744
 30
0.0
 11
192.3503488333116
 21
78.27210118642766
 31
0.0
  0
LINE
  5
2F6
102
{ACAD_REACTORS
330
3AC
102
}
330
1F
100
AcDbEntity
  8
0
100
AcDbLine
 10
191.3503488333117
 20
79.27210118642744
 30
0.0
 11
74.8503488350361
 21
79.27210118642744
 31
0.0
  0
LINE
  5
2F7
330
1F
100
AcDbEntity
  8
0
100
AcDbLine
 10
73.85034883503599
 20
73.27210118642743
 30
0.0
 11
192.3503488333115
 21
73.27210118642743
 31
0.0
  0
LINE
  5
2F8
330
1F
100
AcDbEntity
  8
0
100
AcDbLine
 10
73.85034883503599
 20
53.27210118642743
 30
0.0
 11
192.3503488333115
 21
53.27210118642743
 31
0.0
  0
LINE
  5
2F9
330
1F
100
AcDbEntity
  8
0
100
AcDbLine
 10
73.85034883503599
 20
53.27210118642743
 30
0.0
 11
73.85034883503599
 21
33.27210118642744
 31
0.0
  0
LINE
  5
2FA
330
1F
100
AcDbEntity
  8
0
100
AcDbLine
 10
73.85034883503599
 20
33.27210118642744
 30
0.0
 11
192.3503488333115
 21
33.27210118642744
 31
0.0
  0
LINE
  5
2FB
330
1F
100
AcDbEntity
  8
0
100
AcDbLine
 10
73.85034883503599
 20
29.27210118642744
 30
0.0
 11
73.85034883503599
 21
24.27210118642744
 31
0.0
  0
LINE
  5
2FC
102
{ACAD_REACTORS
330
3AC
102
}
330
1F
100
AcDbEntity
  8
0
100
AcDbLine
 10
73.85034883503599
 20
24.27210118642744
 30
0.0
 11
192.3503488333115
 21
24.27210118642744
 31
0.0
  0
LINE
  5
2FD
330
1F
100
AcDbEntity
  8
0
100
AcDbLine
 10
192.3503488333115
 20
24.27210118642744
 30
0.0
 11
192.3503488333115
 21
29.27210118642744
 31
0.0
  0
LINE
  5
2FE
330
1F
100
AcDbEntity
  8
0
100
AcDbLine
 10
73.85034883503599
 20
73.27210118642743
 30
0.0
 11
83.85034883503598
 21
73.27210118642743
 31
0.0
  0
LINE
  5
2FF
330
1F
100
AcDbEntity
  8
0
100
AcDbLine
 10
73.85034883503599
 20
73.27210118642743
 30
0.0
 11
78.85034883503599
 21
73.27210118642743
 31
0.0
  0
LINE
  5
300
330
1F
100
AcDbEntity
  8
0
100
AcDbLine
 10
82.10034883417378
 20
73.27210118642743
 30
0.0
 11
82.10034883417378
 21
53.27210118642743
 31
0.0
  0
LWPOLYLINE
  5
301
330
1F
100
AcDbEntity
  8
0
100
AcDbPolyline
 90
        4
 70
     1
 43
0.0
 10
82.10034883417378
 20
53.27210118642743
 10
84.10034883417379
 20
53.27210118642743
 10
84.10034883417379
 20
73.27210118642743
 10
82.10034883417378
 20
73.27210118642743
  0
LWPOLYLINE
  5
302
330
1F
100
AcDbEntity
  8
0
100
AcDbPolyline
 90
        4
 70
     1
 43
0.0
 10
84.10034883417379
 20
53.27210118642743
 10
86.10034883417378
 20
53.27210118642743
 10
86.10034883417378
 20
73.27210118642743
 10
84.10034883417379
 20
73.27210118642743
  0
LWPOLYLINE
  5
303
330
1F
100
AcDbEntity
  8
0
100
AcDbPolyline
 90
        4
 70
     1
 43
0.0
 10
86.10034883417378
 20
53.27210118642743
 10
88.10034883417378
 20
53.27210118642743
 10
88.10034883417378
 20
73.27210118642743
 10
86.10034883417378
 20
73.27210118642743
  0
LWPOLYLINE
  5
304
330
1F
100
AcDbEntity
  8
0
100
AcDbPolyline
 90
        4
 70
     1
 43
0.0
 10
88.10034883417378
 20
53.27210118642743
 10
90.10034883417379
 20
53.27210118642743
 10
90.10034883417379
 20
73.27210118642743
 10
88.10034883417378
 20
73.27210118642743
  0
LWPOLYLINE
  5
305
330
1F
100
AcDbEntity
  8
0
100
AcDbPolyline
 90
        4
 70
     1
 43
0.0
 10
90.10034883417379
 20
53.27210118642743
 10
92.10034883417378
 20
53.27210118642743
 10
92.10034883417378
 20
73.27210118642743
 10
90.10034883417379
 20
73.27210118642743
  0
LWPOLYLINE
  5
306
330
1F
100
AcDbEntity
  8
0
100
AcDbPolyline
 90
        4
 70
     1
 43
0.0
 10
92.10034883417378
 20
53.27210118642743
 10
94.10034883417379
 20
53.27210118642743
 10
94.10034883417379
 20
73.27210118642743
 10
92.10034883417378
 20
73.27210118642743
  0
LWPOLYLINE
  5
307
330
1F
100
AcDbEntity
  8
0
100
AcDbPolyline
 90
        4
 70
     1
 43
0.0
 10
94.10034883417379
 20
53.27210118642743
 10
96.10034883417378
 20
53.27210118642743
 10
96.10034883417378
 20
73.27210118642743
 10
94.10034883417379
 20
73.27210118642743
  0
LWPOLYLINE
  5
308
330
1F
100
AcDbEntity
  8
0
100
AcDbPolyline
 90
        4
 70
     1
 43
0.0
 10
96.10034883417378
 20
53.27210118642743
 10
98.1003488341738
 20
53.27210118642743
 10
98.1003488341738
 20
73.27210118642743
 10
96.10034883417378
 20
73.27210118642743
  0
LWPOLYLINE
  5
309
330
1F
100
AcDbEntity
  8
0
100
AcDbPolyline
 90
        4
 70
     1
 43
0.0
 10
98.1003488341738
 20
53.27210118642743
 10
100.1003488341738
 20
53.27210118642743
 10
100.1003488341738
 20
73.27210118642743
 10
98.1003488341738
 20
73.27210118642743
  0
LWPOLYLINE
  5
30A
330
1F
100
AcDbEntity
  8
0
100
AcDbPolyline
 90
        4
 70
     1
 43
0.0
 10
100.1003488341738
 20
53.27210118642743
 10
102.1003488341738
 20
53.27210118642743
 10
102.1003488341738
 20
73.27210118642743
 10
100.1003488341738
 20
73.27210118642743
  0
LWPOLYLINE
  5
30B
330
1F
100
AcDbEntity
  8
0
100
AcDbPolyline
 90
        4
 70
     1
 43
0.0
 10
102.1003488341738
 20
53.27210118642743
 10
104.1003488341737
 20
53.27210118642743
 10
104.1003488341737
 20
73.27210118642743
 10
102.1003488341738
 20
73.27210118642743
  0
LWPOLYLINE
  5
30C
330
1F
100
AcDbEntity
  8
0
100
AcDbPolyline
 90
        4
 70
     1
 43
0.0
 10
104.1003488341737
 20
53.27210118642743
 10
106.1003488341737
 20
53.27210118642743
 10
106.1003488341737
 20
73.27210118642743
 10
104.1003488341737
 20
73.27210118642743
  0
LWPOLYLINE
  5
30D
330
1F
100
AcDbEntity
  8
0
100
AcDbPolyline
 90
        4
 70
     1
 43
0.0
 10
106.1003488341737
 20
53.27210118642743
 10
108.1003488341737
 20
53.27210118642743
 10
108.1003488341737
 20
73.27210118642743
 10
106.1003488341737
 20
73.27210118642743
  0
LWPOLYLINE
  5
30E
330
1F
100
AcDbEntity
  8
0
100
AcDbPolyline
 90
        4
 70
     1
 43
0.0
 10
108.1003488341737
 20
53.27210118642743
 10
110.1003488341737
 20
53.27210118642743
 10
110.1003488341737
 20
73.27210118642743
 10
108.1003488341737
 20
73.27210118642743
  0
LWPOLYLINE
  5
30F
330
1F
100
AcDbEntity
  8
0
100
AcDbPolyline
 90
        4
 70
     1
 43
0.0
 10
110.1003488341737
 20
53.27210118642743
 10
112.1003488341737
 20
53.27210118642743
 10
112.1003488341737
 20
73.27210118642743
 10
110.1003488341737
 20
73.27210118642743
  0
LWPOLYLINE
  5
310
330
1F
100
AcDbEntity
  8
0
100
AcDbPolyline
 90
        4
 70
     1
 43
0.0
 10
112.1003488341737
 20
53.27210118642743
 10
114.1003488341737
 20
53.27210118642743
 10
114.1003488341737
 20
73.27210118642743
 10
112.1003488341737
 20
73.27210118642743
  0
LWPOLYLINE
  5
311
330
1F
100
AcDbEntity
  8
0
100
AcDbPolyline
 90
        4
 70
     1
 43
0.0
 10
114.1003488341737
 20
53.27210118642743
 10
116.1003488341737
 20
53.27210118642743
 10
116.1003488341737
 20
73.27210118642743
 10
114.1003488341737
 20
73.27210118642743
  0
LWPOLYLINE
  5
312
330
1F
100
AcDbEntity
  8
0
100
AcDbPolyline
 90
        4
 70
     1
 43
0.0
 10
116.1003488341737
 20
53.27210118642743
 10
118.1003488341737
 20
53.27210118642743
 10
118.1003488341737
 20
73.27210118642743
 10
116.1003488341737
 20
73.27210118642743
  0
LWPOLYLINE
  5
313
330
1F
100
AcDbEntity
  8
0
100
AcDbPolyline
 90
        4
 70
     1
 43
0.0
 10
118.1003488341737
 20
53.27210118642743
 10
120.1003488341737
 20
53.27210118642743
 10
120.1003488341737
 20
73.27210118642743
 10
118.1003488341737
 20
73.27210118642743
  0
LWPOLYLINE
  5
314
330
1F
100
AcDbEntity
  8
0
100
AcDbPolyline
 90
        4
 70
     1
 43
0.0
 10
120.1003488341737
 20
53.27210118642743
 10
122.1003488341737
 20
53.27210118642743
 10
122.1003488341737
 20
73.27210118642743
 10
120.1003488341737
 20
73.27210118642743
  0
LWPOLYLINE
  5
315
330
1F
100
AcDbEntity
  8
0
100
AcDbPolyline
 90
        4
 70
     1
 43
0.0
 10
122.1003488341737
 20
53.27210118642743
 10
124.1003488341737
 20
53.27210118642743
 10
124.1003488341737
 20
73.27210118642743
 10
122.1003488341737
 20
73.27210118642743
  0
LWPOLYLINE
  5
316
330
1F
100
AcDbEntity
  8
0
100
AcDbPolyline
 90
        4
 70
     1
 43
0.0
 10
124.1003488341737
 20
53.27210118642743
 10
126.1003488341737
 20
53.27210118642743
 10
126.1003488341737
 20
73.27210118642743
 10
124.1003488341737
 20
73.27210118642743
  0
LWPOLYLINE
  5
317
330
1F
100
AcDbEntity
  8
0
100
AcDbPolyline
 90
        4
 70
     1
 43
0.0
 10
126.1003488341737
 20
53.27210118642743
 10
128.1003488341737
 20
53.27210118642743
 10
128.1003488341737
 20
73.27210118642743
 10
126.1003488341737
 20
73.27210118642743
  0
LWPOLYLINE
  5
318
330
1F
100
AcDbEntity
  8
0
100
AcDbPolyline
 90
        4
 70
     1
 43
0.0
 10
128.1003488341737
 20
53.27210118642743
 10
130.1003488341737
 20
53.27210118642743
 10
130.1003488341737
 20
73.27210118642743
 10
128.1003488341737
 20
73.27210118642743
  0
LWPOLYLINE
  5
319
330
1F
100
AcDbEntity
  8
0
100
AcDbPolyline
 90
        4
 70
     1
 43
0.0
 10
130.1003488341737
 20
53.27210118642743
 10
132.1003488341737
 20
53.27210118642743
 10
132.1003488341737
 20
73.27210118642743
 10
130.1003488341737
 20
73.27210118642743
  0
LWPOLYLINE
  5
31A
330
1F
100
AcDbEntity
  8
0
100
AcDbPolyline
 90
        4
 70
     1
 43
0.0
 10
132.1003488341737
 20
53.27210118642743
 10
134.1003488341737
 20
53.27210118642743
 10
134.1003488341737
 20
73.27210118642743
 10
132.1003488341737
 20
73.27210118642743
  0
LWPOLYLINE
  5
31B
330
1F
100
AcDbEntity
  8
0
100
AcDbPolyline
 90
        4
 70
     1
 43
0.0
 10
134.1003488341737
 20
53.27210118642743
 10
136.1003488341737
 20
53.27210118642743
 10
136.1003488341737
 20
73.27210118642743
 10
134.1003488341737
 20
73.27210118642743
  0
LWPOLYLINE
  5
31C
330
1F
100
AcDbEntity
  8
0
100
AcDbPolyline
 90
        4
 70
     1
 43
0.0
 10
136.1003488341737
 20
53.27210118642743
 10
138.1003488341737
 20
53.27210118642743
 10
138.1003488341737
 20
73.27210118642743
 10
136.1003488341737
 20
73.27210118642743
  0
LWPOLYLINE
  5
31D
330
1F
100
AcDbEntity
  8
0
100
AcDbPolyline
 90
        4
 70
     1
 43
0.0
 10
138.1003488341737
 20
53.27210118642743
 10
140.1003488341737
 20
53.27210118642743
 10
140.1003488341737
 20
73.27210118642743
 10
138.1003488341737
 20
73.27210118642743
  0
LWPOLYLINE
  5
31E
330
1F
100
AcDbEntity
  8
0
100
AcDbPolyline
 90
        4
 70
     1
 43
0.0
 10
140.1003488341737
 20
53.27210118642743
 10
142.1003488341737
 20
53.27210118642743
 10
142.1003488341737
 20
73.27210118642743
 10
140.1003488341737
 20
73.27210118642743
  0
LWPOLYLINE
  5
31F
330
1F
100
AcDbEntity
  8
0
100
AcDbPolyline
 90
        4
 70
     1
 43
0.0
 10
142.1003488341737
 20
53.27210118642743
 10
144.1003488341737
 20
53.27210118642743
 10
144.1003488341737
 20
73.27210118642743
 10
142.1003488341737
 20
73.27210118642743
  0
LWPOLYLINE
  5
320
330
1F
100
AcDbEntity
  8
0
100
AcDbPolyline
 90
        4
 70
     1
 43
0.0
 10
144.1003488341737
 20
53.27210118642743
 10
146.1003488341737
 20
53.27210118642743
 10
146.1003488341737
 20
73.27210118642743
 10
144.1003488341737
 20
73.27210118642743
  0
LWPOLYLINE
  5
321
330
1F
100
AcDbEntity
  8
0
100
AcDbPolyline
 90
        4
 70
     1
 43
0.0
 10
146.1003488341737
 20
53.27210118642743
 10
148.1003488341737
 20
53.27210118642743
 10
148.1003488341737
 20
73.27210118642743
 10
146.1003488341737
 20
73.27210118642743
  0
LWPOLYLINE
  5
322
330
1F
100
AcDbEntity
  8
0
100
AcDbPolyline
 90
        4
 70
     1
 43
0.0
 10
148.1003488341737
 20
53.27210118642743
 10
150.1003488341737
 20
53.27210118642743
 10
150.1003488341737
 20
73.27210118642743
 10
148.1003488341737
 20
73.27210118642743
  0
LWPOLYLINE
  5
323
330
1F
100
AcDbEntity
  8
0
100
AcDbPolyline
 90
        4
 70
     1
 43
0.0
 10
150.1003488341737
 20
53.27210118642743
 10
152.1003488341737
 20
53.27210118642743
 10
152.1003488341737
 20
73.27210118642743
 10
150.1003488341737
 20
73.27210118642743
  0
LWPOLYLINE
  5
324
330
1F
100
AcDbEntity
  8
0
100
AcDbPolyline
 90
        4
 70
     1
 43
0.0
 10
152.1003488341737
 20
53.27210118642743
 10
154.1003488341737
 20
53.27210118642743
 10
154.1003488341737
 20
73.27210118642743
 10
152.1003488341737
 20
73.27210118642743
  0
LWPOLYLINE
  5
325
330
1F
100
AcDbEntity
  8
0
100
AcDbPolyline
 90
        4
 70
     1
 43
0.0
 10
154.1003488341737
 20
53.27210118642743
 10
156.1003488341737
 20
53.27210118642743
 10
156.1003488341737
 20
73.27210118642743
 10
154.1003488341737
 20
73.27210118642743
  0
LWPOLYLINE
  5
326
330
1F
100
AcDbEntity
  8
0
100
AcDbPolyline
 90
        4
 70
     1
 43
0.0
 10
156.1003488341737
 20
53.27210118642743
 10
158.1003488341737
 20
53.27210118642743
 10
158.1003488341737
 20
73.27210118642743
 10
156.1003488341737
 20
73.27210118642743
  0
LWPOLYLINE
  5
327
330
1F
100
AcDbEntity
  8
0
100
AcDbPolyline
 90
        4
 70
     1
 43
0.0
 10
158.1003488341737
 20
53.27210118642743
 10
160.1003488341737
 20
53.27210118642743
 10
160.1003488341737
 20
73.27210118642743
 10
158.1003488341737
 20
73.27210118642743
  0
LWPOLYLINE
  5
328
330
1F
100
AcDbEntity
  8
0
100
AcDbPolyline
 90
        4
 70
     1
 43
0.0
 10
160.1003488341737
 20
53.27210118642743
 10
162.1003488341737
 20
53.27210118642743
 10
162.1003488341737
 20
73.27210118642743
 10
160.1003488341737
 20
73.27210118642743
  0
LWPOLYLINE
  5
329
330
1F
100
AcDbEntity
  8
0
100
AcDbPolyline
 90
        4
 70
     1
 43
0.0
 10
162.1003488341737
 20
53.27210118642743
 10
164.1003488341737
 20
53.27210118642743
 10
164.1003488341737
 20
73.27210118642743
 10
162.1003488341737
 20
73.27210118642743
  0
LWPOLYLINE
  5
32A
330
1F
100
AcDbEntity
  8
0
100
AcDbPolyline
 90
        4
 70
     1
 43
0.0
 10
164.1003488341737
 20
53.27210118642743
 10
166.1003488341737
 20
53.27210118642743
 10
166.1003488341737
 20
73.27210118642743
 10
164.1003488341737
 20
73.27210118642743
  0
LWPOLYLINE
  5
32B
330
1F
100
AcDbEntity
  8
0
100
AcDbPolyline
 90
        4
 70
     1
 43
0.0
 10
166.1003488341737
 20
53.27210118642743
 10
168.1003488341737
 20
53.27210118642743
 10
168.1003488341737
 20
73.27210118642743
 10
166.1003488341737
 20
73.27210118642743
  0
LWPOLYLINE
  5
32C
330
1F
100
AcDbEntity
  8
0
100
AcDbPolyline
 90
        4
 70
     1
 43
0.0
 10
168.1003488341737
 20
53.27210118642743
 10
170.1003488341737
 20
53.27210118642743
 10
170.1003488341737
 20
73.27210118642743
 10
168.1003488341737
 20
73.27210118642743
  0
LWPOLYLINE
  5
32D
330
1F
100
AcDbEntity
  8
0
100
AcDbPolyline
 90
        4
 70
     1
 43
0.0
 10
170.1003488341737
 20
53.27210118642743
 10
172.1003488341737
 20
53.27210118642743
 10
172.1003488341737
 20
73.27210118642743
 10
170.1003488341737
 20
73.27210118642743
  0
LWPOLYLINE
  5
32E
330
1F
100
AcDbEntity
  8
0
100
AcDbPolyline
 90
        4
 70
     1
 43
0.0
 10
172.1003488341737
 20
53.27210118642743
 10
174.1003488341737
 20
53.27210118642743
 10
174.1003488341737
 20
73.27210118642743
 10
172.1003488341737
 20
73.27210118642743
  0
LWPOLYLINE
  5
32F
330
1F
100
AcDbEntity
  8
0
100
AcDbPolyline
 90
        4
 70
     1
 43
0.0
 10
174.1003488341737
 20
53.27210118642743
 10
176.1003488341737
 20
53.27210118642743
 10
176.1003488341737
 20
73.27210118642743
 10
174.1003488341737
 20
73.27210118642743
  0
LWPOLYLINE
  5
330
330
1F
100
AcDbEntity
  8
0
100
AcDbPolyline
 90
        4
 70
     1
 43
0.0
 10
176.1003488341737
 20
53.27210118642743
 10
178.1003488341737
 20
53.27210118642743
 10
178.1003488341737
 20
73.27210118642743
 10
176.1003488341737
 20
73.27210118642743
  0
LWPOLYLINE
  5
331
330
1F
100
AcDbEntity
  8
0
100
AcDbPolyline
 90
        4
 70
     1
 43
0.0
 10
178.1003488341737
 20
53.27210118642743
 10
180.1003488341737
 20
53.27210118642743
 10
180.1003488341737
 20
73.27210118642743
 10
178.1003488341737
 20
73.27210118642743
  0
LWPOLYLINE
  5
332
330
1F
100
AcDbEntity
  8
0
100
AcDbPolyline
 90
        4
 70
     1
 43
0.0
 10
180.1003488341737
 20
53.27210118642743
 10
182.1003488341737
 20
53.27210118642743
 10
182.1003488341737
 20
73.27210118642743
 10
180.1003488341737
 20
73.27210118642743
  0
LWPOLYLINE
  5
333
330
1F
100
AcDbEntity
  8
0
100
AcDbPolyline
 90
        4
 70
     1
 43
0.0
 10
182.1003488341737
 20
53.27210118642743
 10
184.1003488341737
 20
53.27210118642743
 10
184.1003488341737
 20
73.27210118642743
 10
182.1003488341737
 20
73.27210118642743
  0
LWPOLYLINE
  5
334
330
1F
100
AcDbEntity
  8
0
100
AcDbPolyline
 90
        4
 70
     1
 43
0.0
 10
122.494137612265
 20
30.21140677376376
 10
143.7065600560825
 20
30.21140677376376
 10
143.7065600560825
 20
26.9658463736058
 10
122.494137612265
 20
26.9658463736058
  0
LWPOLYLINE
  5
335
330
1F
100
AcDbEntity
  8
0
100
AcDbPolyline
 90
        4
 70
     1
 43
0.0
 10
129.9690813363267
 20
26.9658463736058
 10
136.1769287580133
 20
26.9658463736058
 10
136.1769287580133
 20
24.27210118642744
 10
129.9690813363267
 20
24.27210118642744
  0
LINE
  5
336
330
1F
100
AcDbEntity
  8
0
100
AcDbLine
 10
129.4690813363267
 20
26.9658463736058
 30
0.0
 11
129.4690813363267
 21
24.27210118642744
 31
0.0
  0
LINE
  5
337
330
1F
100
AcDbEntity
  8
0
100
AcDbLine
 10
136.1769287580133
 20
26.9658463736058
 30
0.0
 11
136.6769287580132
 21
26.9658463736058
 31
0.0
  0
LINE
  5
338
330
1F
100
AcDbEntity
  8
0
100
AcDbLine
 10
136.6769287580132
 20
26.9658463736058
 30
0.0
 11
136.6769287580132
 21
24.27210118642744
 31
0.0
  0
ARC
  5
339
102
{ACAD_REACTORS
330
3A9
330
3AC
102
}
330
1F
100
AcDbEntity
  8
0
100
AcDbCircle
 10
75.13067892092564
 20
77.99177110053766
 30
0.0
 40
1.310660171779521
100
AcDbArc
 50
102.3501001262012
 51
167.6498998738017
  0
ARC
  5
33A
330
1F
100
AcDbEntity
  8
0
100
AcDbCircle
 10
75.13067892092564
 20
71.99177110053766
 30
0.0
 40
1.310660171779521
100
AcDbArc
 50
102.3501001262012
 51
167.6498998738017
  0
LINE
  5
33B
330
1F
100
AcDbEntity
  8
0
100
AcDbLine
 10
73.85034883503599
 20
73.27210118642743
 30
0.0
 11
73.85034883503599
 21
72.27210118642743
 31
0.0
  0
ARC
  5
33C
330
1F
100
AcDbEntity
  8
0
100
AcDbCircle
 10
75.13067892092564
 20
51.99177110053766
 30
0.0
 40
1.310660171779521
100
AcDbArc
 50
102.3501001262012
 51
167.6498998738017
  0
ARC
  5
33D
102
{ACAD_REACTORS
330
3A9
102
}
330
1F
100
AcDbEntity
  8
0
100
AcDbCircle
 10
191.0756942640175
 20
77.99744661713326
 30
0.0
 40
1.303909277310461
100
AcDbArc
 50
12.15982091124337
 51
77.84017908875934
  0
ARC
  5
33E
330
1F
100
AcDbEntity
  8
0
100
AcDbCircle
 10
191.0756942640175
 20
71.99744661713326
 30
0.0
 40
1.303909277310461
100
AcDbArc
 50
12.15982091124337
 51
77.84017908875934
  0
ARC
  5
33F
330
1F
100
AcDbEntity
  8
0
100
AcDbCircle
 10
191.0756942640175
 20
51.99744661713326
 30
0.0
 40
1.303909277310461
100
AcDbArc
 50
12.15982091124337
 51
77.84017908875934
  0
LINE
  5
340
330
1F
100
AcDbEntity
  8
0
100
AcDbLine
 10
225.116524165142
 20
24.27210118642744
 30
0.0
 11
257.8194234477827
 21
24.27210118642744
 31
0.0
  0
LINE
  5
341
330
1F
100
AcDbEntity
  8
0
100
AcDbLine
 10
287.7847197974278
 20
24.27210118642744
 30
0.0
 11
325.1165241651421
 21
24.27210118642744
 31
0.0
  0
LINE
  5
342
102
{ACAD_REACTORS
330
3AF
102
}
330
1F
100
AcDbEntity
  8
0
100
AcDbLine
 10
325.1165241651421
 20
24.27210118642744
 30
0.0
 11
325.116524165142
 21
52.27210118642743
 31
0.0
  0
LINE
  5
343
330
1F
100
AcDbEntity
  8
0
100
AcDbLine
 10
225.116524165142
 20
52.27210118642743
 30
0.0
 11
225.116524165142
 21
24.27210118642744
 31
0.0
  0
LINE
  5
344
330
1F
100
AcDbEntity
  8
0
100
AcDbLine
 10
225.116524165142
 20
29.27210118642744
 30
0.0
 11
325.1165241651421
 21
29.27210118642744
 31
0.0
  0
LINE
  5
345
330
1F
100
AcDbEntity
  8
0
100
AcDbLine
 10
225.116524165142
 20
33.27210118642744
 30
0.0
 11
325.1165241651421
 21
33.27210118642744
 31
0.0
  0
LINE
  5
346
330
1F
100
AcDbEntity
  8
0
100
AcDbLine
 10
295.116524165142
 20
29.27210118642744
 30
0.0
 11
275.116524165142
 21
29.27210118642744
 31
0.0
  0
LINE
  5
347
330
1F
100
AcDbEntity
  8
0
100
AcDbLine
 10
255.116524165142
 20
29.27210118642744
 30
0.0
 11
255.116524165142
 21
24.27210118642744
 31
0.0
  0
LINE
  5
348
330
1F
100
AcDbEntity
  8
0
100
AcDbLine
 10
295.116524165142
 20
29.27210118642744
 30
0.0
 11
295.116524165142
 21
24.27210118642744
 31
0.0
  0
LINE
  5
349
330
1F
100
AcDbEntity
  8
0
100
AcDbLine
 10
295.116524165142
 20
27.31751539033063
 30
0.0
 11
287.7847197974278
 21
25.79480828837892
 31
0.0
  0
LINE
  5
34A
330
1F
100
AcDbEntity
  8
0
100
AcDbLine
 10
287.7847197974278
 20
25.79480828837892
 30
0.0
 11
287.7847197974278
 21
24.27210118642744
 31
0.0
  0
LINE
  5
34B
330
1F
100
AcDbEntity
  8
0
100
AcDbLine
 10
255.116524165142
 20
24.27210118642744
 30
0.0
 11
257.8194234477826
 21
24.27210118642744
 31
0.0
  0
LINE
  5
34C
330
1F
100
AcDbEntity
  8
0
100
AcDbLine
 10
257.8194234477827
 20
24.27210118642744
 30
0.0
 11
262.4165241651421
 21
26.77210118642744
 31
0.0
  0
LINE
  5
34D
330
1F
100
AcDbEntity
  8
0
100
AcDbLine
 10
262.4165241651421
 20
26.77210118642744
 30
0.0
 11
262.4165241651421
 21
27.38994023440851
 31
0.0
  0
LINE
  5
34E
330
1F
100
AcDbEntity
  8
0
100
AcDbLine
 10
261.5370351280812
 20
28.00777928238982
 30
0.0
 11
255.116524165142
 21
28.00777928238982
 31
0.0
  0
LINE
  5
34F
330
1F
100
AcDbEntity
  8
0
100
AcDbLine
 10
262.4165241651421
 20
27.38994023440851
 30
0.0
 11
261.5370351280811
 21
28.00777928238982
 31
0.0
  0
LWPOLYLINE
  5
350
330
1F
100
AcDbEntity
  8
0
100
AcDbPolyline
 90
        4
 70
     1
 43
0.0
 10
270.7714732417959
 20
34.92242751408581
 10
279.1414625444635
 20
34.92242751408581
 10
279.1414625444635
 20
39.25406702009683
 10
270.7714732417959
 20
39.25406702009683
  0
LINE
  5
351
330
1F
100
AcDbEntity
  8
0
100
AcDbLine
 10
270.7714732417959
 20
38.35533457784901
 30
0.0
 11
279.1414625444635
 21
38.35533457784901
 31
0.0
  0
LINE
  5
352
330
1F
100
AcDbEntity
  8
0
100
AcDbLine
 10
225.116524165142
 20
33.27210118642744
 30
0.0
 11
225.116524165142
 21
52.27210118642743
 31
0.0
  0
LINE
  5
353
330
1F
100
AcDbEntity
  8
0
100
AcDbLine
 10
226.1165241651422
 20
53.27210118642743
 30
0.0
 11
238.116524165142
 21
53.27210118642743
 31
0.0
  0
LINE
  5
354
330
1F
100
AcDbEntity
  8
0
100
AcDbLine
 10
312.1165241651421
 20
53.27210118642743
 30
0.0
 11
324.1165241651421
 21
53.27210118642743
 31
0.0
  0
LINE
  5
355
330
1F
100
AcDbEntity
  8
0
100
AcDbLine
 10
238.0409537414144
 20
73.27210118642766
 30
0.0
 11
246.1165241651421
 21
73.27210118642766
 31
0.0
  0
LINE
  5
356
330
1F
100
AcDbEntity
  8
0
100
AcDbLine
 10
304.116524165142
 20
73.27210118642766
 30
0.0
 11
312.116524165142
 21
73.27210118642743
 31
0.0
  0
LINE
  5
357
330
1F
100
AcDbEntity
  8
0
100
AcDbLine
 10
238.116524165142
 20
53.27210118642743
 30
0.0
 11
238.116524165142
 21
72.29101741749251
 31
0.0
  0
LINE
  5
358
330
1F
100
AcDbEntity
  8
0
100
AcDbLine
 10
324.1165241651419
 20
53.27210118642743
 30
0.0
 11
312.1165241651421
 21
53.27210118642743
 31
0.0
  0
LINE
  5
359
330
1F
100
AcDbEntity
  8
0
100
AcDbLine
 10
312.1165241651421
 20
53.27210118642743
 30
0.0
 11
312.116524165142
 21
72.27210118642743
 31
0.0
  0
LINE
  5
35A
330
1F
100
AcDbEntity
  8
0
100
AcDbLine
 10
238.116524165142
 20
73.27210118642743
 30
0.0
 11
246.116524165142
 21
73.27210118642743
 31
0.0
  0
LINE
  5
35B
330
1F
100
AcDbEntity
  8
0
100
AcDbLine
 10
246.116524165142
 20
73.27210118642743
 30
0.0
 11
246.116524165142
 21
78.27210118642766
 31
0.0
  0
LINE
  5
35C
330
1F
100
AcDbEntity
  8
0
100
AcDbLine
 10
312.1165241651421
 20
73.27210118642743
 30
0.0
 11
304.1165241651421
 21
73.27210118642743
 31
0.0
  0
LINE
  5
35D
330
1F
100
AcDbEntity
  8
0
100
AcDbLine
 10
304.1165241651421
 20
73.27210118642743
 30
0.0
 11
304.1165241651421
 21
78.27210118642766
 31
0.0
  0
LINE
  5
35E
330
1F
100
AcDbEntity
  8
0
100
AcDbLine
 10
238.116524165142
 20
73.27210118642743
 30
0.0
 11
238.0409537414142
 21
73.27210118642743
 31
0.0
  0
LINE
  5
35F
330
1F
100
AcDbEntity
  8
0
100
AcDbLine
 10
237.1165241651421
 20
72.29101741749251
 30
0.0
 11
237.1165241651421
 21
53.27210118642743
 31
0.0
  0
LINE
  5
360
330
1F
100
AcDbEntity
  8
0
100
AcDbLine
 10
312.1165241651421
 20
53.27210118642743
 30
0.0
 11
313.1165241651421
 21
53.27210118642743
 31
0.0
  0
LINE
  5
361
330
1F
100
AcDbEntity
  8
0
100
AcDbLine
 10
313.1165241651421
 20
53.27210118642743
 30
0.0
 11
313.116524165142
 21
72.2721011864272
 31
0.0
  0
LINE
  5
362
330
1F
100
AcDbEntity
  8
0
100
AcDbLine
 10
247.1165241651422
 20
79.27210118642744
 30
0.0
 11
276.1637071869539
 21
79.27210118642744
 31
0.0
  0
LINE
  5
363
102
{ACAD_REACTORS
330
3AF
102
}
330
1F
100
AcDbEntity
  8
0
100
AcDbLine
 10
276.1637071869539
 20
79.27210118642744
 30
0.0
 11
303.116524165142
 21
79.27210118642744
 31
0.0
  0
ARC
  5
364
330
1F
100
AcDbEntity
  8
0
100
AcDbCircle
 10
247.3968542510317
 20
77.99177110053766
 30
0.0
 40
1.310660171779521
100
AcDbArc
 50
102.3501001262012
 51
167.6498998738017
  0
ARC
  5
365
330
1F
100
AcDbEntity
  8
0
100
AcDbCircle
 10
238.3968542510317
 20
72.01068733160297
 30
0.0
 40
1.310660171779521
100
AcDbArc
 50
105.7561011091591
 51
167.6498998738017
  0
ARC
  5
366
330
1F
100
AcDbEntity
  8
0
100
AcDbCircle
 10
226.3968542510317
 20
51.99177110053766
 30
0.0
 40
1.310660171779521
100
AcDbArc
 50
102.3501001262012
 51
167.6498998738017
  0
ARC
  5
367
330
1F
100
AcDbEntity
  8
0
100
AcDbCircle
 10
239.3968542510317
 20
72.01068733160297
 30
0.0
 40
1.310660171779521
100
AcDbArc
 50
105.7561011091591
 51
167.6498998738017
  0
ARC
  5
368
330
1F
100
AcDbEntity
  8
0
100
AcDbCircle
 10
302.841869595848
 20
77.99744661713326
 30
0.0
 40
1.303909277310461
100
AcDbArc
 50
12.15982091124337
 51
77.84017908875934
  0
ARC
  5
369
330
1F
100
AcDbEntity
  8
0
100
AcDbCircle
 10
311.8418695958479
 20
71.99744661713326
 30
0.0
 40
1.303909277310461
100
AcDbArc
 50
12.15982091124337
 51
77.84017908875934
  0
ARC
  5
36A
330
1F
100
AcDbEntity
  8
0
100
AcDbCircle
 10
323.841869595848
 20
51.99744661713326
 30
0.0
 40
1.303909277310461
100
AcDbArc
 50
12.15982091124337
 51
77.84017908875934
  0
ARC
  5
36B
330
1F
100
AcDbEntity
  8
0
100
AcDbCircle
 10
310.841869595848
 20
71.99744661713326
 30
0.0
 40
1.303909277310461
100
AcDbArc
 50
12.15982091124337
 51
77.84017908875934
  0
LINE
  5
36C
330
1F
100
AcDbEntity
  8
0
100
AcDbLine
 10
225.116524165142
 20
33.98553789340245
 30
0.0
 11
325.1165241651421
 21
33.98553789340245
 31
0.0
  0
LINE
  5
36D
330
1F
100
AcDbEntity
  8
0
 62
     4
100
AcDbLine
 10
325.1165241651421
 20
33.98553789340245
 30
0.0
 11
337.1165241651421
 21
33.98553789340245
 31
0.0
  0
LINE
  5
36E
330
1F
100
AcDbEntity
  8
0
 62
     4
100
AcDbLine
 10
337.1165241651421
 20
33.98553789340245
 30
0.0
 11
337.1165241651421
 21
49.98553789340245
 31
0.0
  0
LINE
  5
36F
330
1F
100
AcDbEntity
  8
0
 62
     4
100
AcDbLine
 10
337.1165241651421
 20
49.98553789340245
 30
0.0
 11
330.6165241651421
 21
49.98553789340245
 31
0.0
  0
LINE
  5
370
330
1F
100
AcDbEntity
  8
0
 62
     4
100
AcDbLine
 10
329.1165241651421
 20
44.49637302908501
 30
0.0
 11
329.1165241651421
 21
33.98553789340245
 31
0.0
  0
LINE
  5
371
330
1F
100
AcDbEntity
  8
0
 62
     4
100
AcDbLine
 10
329.1165241651421
 20
41.98553789340245
 30
0.0
 11
325.116524165142
 21
41.98553789340245
 31
0.0
  0
LINE
  5
372
330
1F
100
AcDbEntity
  8
0
 62
     4
100
AcDbLine
 10
330.6165241651421
 20
49.98553789340245
 30
0.0
 11
329.1165241651421
 21
44.49637302908501
 31
0.0
  0
LINE
  5
373
330
1F
100
AcDbEntity
  8
0
 62
     4
100
AcDbLine
 10
329.1165241651421
 20
42.89122952135663
 30
0.0
 11
326.7922470691851
 21
42.43838370737954
 31
0.0
  0
LINE
  5
374
330
1F
100
AcDbEntity
  8
0
 62
     4
100
AcDbLine
 10
326.7922470691851
 20
42.43838370737954
 30
0.0
 11
326.7922470691851
 21
41.98553789340245
 31
0.0
  0
LINE
  5
375
102
{ACAD_REACTORS
330
3B2
102
}
330
1F
100
AcDbEntity
  8
0
 62
     4
100
AcDbLine
 10
337.1165241651421
 20
49.98553789340245
 30
0.0
 11
336.316524165142
 21
49.98553789340245
 31
0.0
  0
LWPOLYLINE
  5
376
102
{ACAD_REACTORS
330
3B2
102
}
330
1F
100
AcDbEntity
  8
0
100
AcDbPolyline
 90
        4
 70
     1
 43
0.0
 10
225.116524165142
 20
24.27210118642744
 10
221.5362761826569
 20
24.27210118642744
 10
221.5362761826569
 20
26.9658463736058
 10
225.116524165142
 20
26.9658463736058
  0
LINE
  5
377
330
1F
100
AcDbEntity
  8
0
 62
     4
100
AcDbLine
 10
337.1165241651421
 20
33.98553789340245
 30
0.0
 11
336.6165241651421
 21
33.98553789340245
 31
0.0
  0
LINE
  5
378
330
1F
100
AcDbEntity
  8
0
 62
     4
100
AcDbLine
 10
336.6165241651421
 20
33.98553789340245
 30
0.0
 11
336.6165241651421
 21
49.98553789340245
 31
0.0
  0
LINE
  5
379
330
1F
100
AcDbEntity
  8
0
 62
     4
370
    40
100
AcDbLine
 10
78.85034883503587
 20
230.6783949085067
 30
0.0
 11
78.85034883503587
 21
224.9146334406167
 31
0.0
  0
LWPOLYLINE
  5
37A
330
1F
100
AcDbEntity
  8
0
 62
     4
100
AcDbPolyline
 90
        4
 70
     1
 43
0.0
 10
99.25034883503597
 20
230.6783949085067
 10
99.25034883503597
 20
238.1646334406168
 10
104.350348835036
 20
238.1646334406168
 10
104.350348835036
 20
230.6783949085067
  0
CIRCLE
  5
37B
330
1F
100
AcDbEntity
  8
0
 62
     4
100
AcDbCircle
 10
101.8003488350359
 20
234.3922710552957
 30
0.0
 40
1.871559633027521
  0
LWPOLYLINE
  5
37C
330
1F
100
AcDbEntity
  8
0
 62
     4
100
AcDbPolyline
 90
        4
 70
     1
 43
0.0
 10
102.8348815063824
 20
235.8215449175697
 10
103.3201325683945
 20
235.2885628745606
 10
100.7658161636894
 20
232.9629971930218
 10
100.2805651016774
 20
233.4959792360306
  0
LINE
  5
37D
330
1F
100
AcDbEntity
  8
0
 62
     4
370
    40
100
AcDbLine
 10
104.350348835036
 20
230.6783949085067
 30
0.0
 11
104.350348835036
 21
224.9146334406167
 31
0.0
  0
MTEXT
  5
37E
330
1F
100
AcDbEntity
  8
0
100
AcDbMText
 10
100.5012918481174
 20
214.9813225922736
 30
0.0
 40
2.339449541284402
 41
16.38732340109979
 71
     1
 72
     5
  1
{\fTimes New Roman|b0|i0|c0|p18;A+}
 11
0.0000000000000001
 21
1.0
 31
0.0
 73
     1
 44
1.0
1001
ACAD
1000
MTEXTBEGIN
1070
    73
1070
     1
1070
    44
1040
1.0
1070
    74
1070
     0
1000
MTEXTEND
  0
LINE
  5
37F
102
{ACAD_REACTORS
330
3B5
102
}
330
1F
100
AcDbEntity
  8
0
370
    40
100
AcDbLine
 10
73.85034883503587
 20
224.9146334406167
 30
0.0
 11
83.85034883503587
 21
224.9146334406167
 31
0.0
  0
LINE
  5
380
330
1F
100
AcDbEntity
  8
0
 62
     4
370
    40
100
AcDbLine
 10
99.25034883503597
 20
226.4088994956627
 30
0.0
 11
104.350348835036
 21
226.4088994956627
 31
0.0
  0
MTEXT
  5
381
330
1F
100
AcDbEntity
  8
0
100
AcDbMText
 10
117.7297707991929
 20
171.3276121496618
 30
0.0
 40
2.799999999999999
 41
67.56017859435612
 71
     1
 72
     5
  1
{\fTimes New Roman|b0|i1|c0|p18;Everything you need for the best system}
 73
     1
 44
1.0
1001
ACAD
1000
MTEXTBEGIN
1070
    73
1070
     1
1070
    44
1040
1.0
1070
    74
1070
     0
1000
MTEXTEND
  0
HATCH
  5
382
330
1F
100
AcDbEntity
  8
0
 62
     5
370
    40
100
AcDbHatch
 10
0.0
 20
0.0
 30
0.0
210
0.0
220
0.0
230
1.0
  2
SOLID
 70
     1
 71
     1
 91
        1
 92
        1
 93
        4
 72
     1
 10
113.4200479799128
 20
172.4545647582991
 11
186.9743038639335
 21
172.4545647582991
 72
     1
 10
186.9743038639335
 20
172.4545647582991
 11
186.9743038639335
 21
171.9842020891129
 72
     1
 10
186.9743038639335
 20
171.9842020891129
 11
113.4200479799128
 21
171.9842020891129
 72
     1
 10
113.4200479799128
 20
171.9842020891129
 11
113.4200479799128
 21
172.4545647582991
 97
        1
330
383
 75
     0
 76
     1
 98
        1
 10
359.629882622241
 20
1791.937369712433
1001
ACAD
1010
0.0
1020
0.0
1030
0.0
  0
LWPOLYLINE
  5
383
102
{ACAD_REACTORS
330
382
102
}
330
1F
100
AcDbEntity
  8
0
370
    40
100
AcDbPolyline
 90
        4
 70
     1
 43
0.0
 10
113.4200479799128
 20
172.4545647582991
 10
186.9743038639335
 20
172.4545647582991
 10
186.9743038639335
 20
171.9842020891129
 10
113.4200479799128
 20
171.9842020891129
  0
MTEXT
  5
384
330
1F
100
AcDbEntity
  8
0
100
AcDbMText
 10
156.7343861100107
 20
156.3943432718339
 30
0.0
 40
0.8
 41
39.29531831849433
 71
     1
 72
     5
  1
{\fTimes New Roman|b0|i0|c0|p18;BUILDING CONTROL UNIT}
 73
     1
 44
1.0
1001
ACAD
1000
MTEXTBEGIN
1070
    73
1070
     1
1070
    44
1040
1.0
1070
    74
1070
     0
1000
MTEXTEND
  0
MTEXT
  5
385
330
1F
100
AcDbEntity
  8
0
100
AcDbMText
 10
105.497083091181
 20
148.5724093693535
 30
0.0
 40
2.048
 41
31.09534810251878
 71
     1
 72
     5
  1
{\fTimes New Roman|b1|i0|c0|p18;AUDIO}
 73
     1
 44
1.0
1001
ACAD
1000
MTEXTBEGIN
1070
    73
1070
     1
1070
    44
1040
1.0
1070
    74
1070
     0
1000
MTEXTEND
  0
MTEXT
  5
386
330
1F
100
AcDbEntity
  8
0
100
AcDbMText
 10
176.0495652730933
 20
148.5724093693535
 30
0.0
 40
2.048
 41
31.09534810251878
 71
     1
 72
     5
  1
{\fTimes New Roman|b1|i0|c0|p18;SD CARD}
 73
     1
 44
1.0
1001
ACAD
1000
MTEXTBEGIN
1070
    73
1070
     1
1070
    44
1040
1.0
1070
    74
1070
     0
1000
MTEXTEND
  0
LWPOLYLINE
  5
387
330
1F
100
AcDbEntity
  8
0
370
    40
100
AcDbPolyline
 90
        4
 70
     1
 43
0.0
 10
102.5972177028142
 20
145.1646334406167
 10
118.8736097955625
 20
145.1646334406167
 10
118.8736097955625
 20
153.5128210054082
 10
102.5972177028142
 20
153.5128210054082
  0
LWPOLYLINE
  5
388
330
1F
100
AcDbEntity
  8
0
370
    40
100
AcDbPolyline
 90
        4
 70
     1
 43
0.0
 10
174.3070294978915
 20
145.1646334406167
 10
190.5834215906397
 20
145.1646334406167
 10
190.5834215906397
 20
153.5128210054082
 10
174.3070294978915
 20
153.5128210054082
  0
LINE
  5
389
330
1F
100
AcDbEntity
  8
0
370
    40
100
AcDbLine
 10
174.3070294978915
 20
151.2551304979298
 30
0.0
 11
190.5834215906397
 21
151.2551304979298
 31
0.0
  0
HATCH
  5
38A
330
1F
100
AcDbEntity
  8
0
 62
     6
370
    40
100
AcDbHatch
 10
0.0
 20
0.0
 30
0.0
210
0.0
220
0.0
230
1.0
  2
SOLID
 70
     1
 71
     1
 91
        1
 92
        1
 93
        4
 72
     1
 10
102.5972177028142
 20
151.2551304979298
 11
118.8736097955625
 21
151.2551304979298
 72
     1
 10
118.8736097955625
 20
151.2551304979298
 11
118.8736097955625
 21
153.5128210054082
 72
     1
 10
118.8736097955625
 20
153.5128210054082
 11
102.5972177028142
 21
153.5128210054082
 72
     1
 10
102.5972177028142
 20
153.5128210054082
 11
102.5972177028142
 21
151.2551304979298
 97
        1
330
38B
 75
     0
 76
     1
 98
        1
 10
359.629882622241
 20
1792.176437396096
1001
ACAD
1010
0.0
1020
0.0
1030
0.0
  0
LWPOLYLINE
  5
38B
102
{ACAD_REACTORS
330
38A
102
}
330
1F
100
AcDbEntity
  8
0
370
    40
100
AcDbPolyline
 90
        4
 70
     1
 43
0.0
 10
102.5972177028142
 20
151.2551304979298
 10
118.8736097955625
 20
151.2551304979298
 10
118.8736097955625
 20
153.5128210054082
 10
102.5972177028142
 20
153.5128210054082
  0
HATCH
  5
38C
330
1F
100
AcDbEntity
  8
0
 62
     6
370
    40
100
AcDbHatch
 10
0.0
 20
0.0
 30
0.0
210
0.0
220
0.0
230
1.0
  2
SOLID
 70
     1
 71
     1
 91
        1
 92
        1
 93
        4
 72
     1
 10
174.3070294978915
 20
151.2551304979298
 11
190.5834215906397
 21
151.2551304979298
 72
     1
 10
190.5834215906397
 20
151.2551304979298
 11
190.5834215906397
 21
153.5128210054082
 72
     1
 10
190.5834215906397
 20
153.5128210054082
 11
174.3070294978915
 21
153.5128210054082
 72
     1
 10
174.3070294978915
 20
153.5128210054082
 11
174.3070294978915
 21
151.2551304979298
 97
        1
330
38D
 75
     0
 76
     1
 98
        1
 10
359.629882622241
 20
1792.176437396096
1001
ACAD
1010
0.0
1020
0.0
1030
0.0
  0
LWPOLYLINE
  5
38D
102
{ACAD_REACTORS
330
38C
102
}
330
1F
100
AcDbEntity
  8
0
370
    40
100
AcDbPolyline
 90
        4
 70
     1
 43
0.0
 10
174.3070294978915
 20
151.2551304979298
 10
190.5834215906397
 20
151.2551304979298
 10
190.5834215906397
 20
153.5128210054082
 10
174.3070294978915
 20
153.5128210054082
  0
MTEXT
  5
38E
330
1F
100
AcDbEntity
  8
0
100
AcDbMText
 10
84.85094568185919
 20
201.7418247269271
 30
0.0
 40
2.1
 41
31.09534810251878
 71
     1
 72
     5
  1
{\fTimes New Roman|b1|i0|c0|p18;POWER\PINPUT}
 73
     1
 44
1.0
1001
ACAD
1000
MTEXTBEGIN
1070
    73
1070
     1
1070
    44
1040
1.0
1070
    74
1070
     0
1000
MTEXTEND
  0
MTEXT
  5
38F
330
1F
100
AcDbEntity
  8
0
100
AcDbMText
 10
101.5140406867776
 20
201.7418247269271
 30
0.0
 40
2.1
 41
31.09534810251878
 71
     1
 72
     5
  1
{\fTimes New Roman|b1|i0|c0|p18;RS485 PORT}
 73
     1
 44
1.0
1001
ACAD
1000
MTEXTBEGIN
1070
    73
1070
     1
1070
    44
1040
1.0
1070
    74
1070
     0
1000
MTEXTEND
  0
LWPOLYLINE
  5
390
330
1F
100
AcDbEntity
  8
0
370
    40
100
AcDbPolyline
 90
        4
 70
     1
 43
0.0
 10
82.65409647930026
 20
204.1646334406167
 10
121.6012169011282
 20
204.1646334406167
 10
121.6012169011282
 20
188.5787998515794
 10
82.65409647930026
 20
188.5787998515794
  0
LINE
  5
391
330
1F
100
AcDbEntity
  8
0
370
    40
100
AcDbLine
 10
98.90660298349573
 20
204.1646334406167
 30
0.0
 11
98.90660298349573
 21
188.5787998515794
 31
0.0
  0
LINE
  5
392
330
1F
100
AcDbEntity
  8
0
370
    40
100
AcDbLine
 10
82.65409647930026
 20
192.5787998515794
 30
0.0
 11
121.6012169011282
 21
192.5787998515794
 31
0.0
  0
LINE
  5
393
330
1F
100
AcDbEntity
  8
0
370
    40
100
AcDbLine
 10
121.6012169011282
 20
192.5787998515794
 30
0.0
 11
121.6012169011282
 21
196.5787998515794
 31
0.0
  0
LINE
  5
394
330
1F
100
AcDbEntity
  8
0
370
    40
100
AcDbLine
 10
121.6012169011282
 20
196.371716646098
 30
0.0
 11
98.90660298349573
 21
196.371716646098
 31
0.0
  0
MTEXT
  5
395
330
1F
100
AcDbEntity
  8
0
100
AcDbMText
 10
102.2415183905086
 20
195.0608396733997
 30
0.0
 40
1.199999999999999
 41
31.09534810251878
 71
     1
 72
     5
  1
{\fTimes New Roman|b1|i0|c0|p18;COMMUNICATION}
 73
     1
 44
1.0
1001
ACAD
1000
MTEXTBEGIN
1070
    73
1070
     1
1070
    44
1040
1.0
1070
    74
1070
     0
1000
MTEXTEND
  0
HATCH
  5
396
330
1F
100
AcDbEntity
  8
0
 62
     5
370
    40
100
AcDbHatch
 10
0.0
 20
0.0
 30
0.0
210
0.0
220
0.0
230
1.0
  2
SOLID
 70
     1
 71
     1
 91
        1
 92
        1
 93
        4
 72
     1
 10
98.90660298349573
 20
188.5787998515794
 11
121.6012169011282
 21
188.5787998515794
 72
     1
 10
121.6012169011282
 20
188.5787998515794
 11
121.6012169011282
 21
192.5787998515794
 72
     1
 10
121.6012169011282
 20
192.5787998515794
 11
98.90660298349573
 21
192.5787998515794
 72
     1
 10
98.90660298349573
 20
192.5787998515794
 11
98.90660298349573
 21
188.5787998515794
 97
        1
330
397
 75
     0
 76
     1
 98
        1
 10
359.629882622241
 20
1792.176437396096
1001
ACAD
1010
0.0
1020
0.0
1030
0.0
  0
LWPOLYLINE
  5
397
102
{ACAD_REACTORS
330
396
102
}
330
1F
100
AcDbEntity
  8
0
370
    40
100
AcDbPolyline
 90
        4
 70
     1
 43
0.0
 10
98.90660298349573
 20
188.5787998515794
 10
121.6012169011282
 20
188.5787998515794
 10
121.6012169011282
 20
192.5787998515794
 10
98.90660298349573
 20
192.5787998515794
  0
HATCH
  5
398
330
1F
100
AcDbEntity
  8
0
 62
     1
370
    40
100
AcDbHatch
 10
0.0
 20
0.0
 30
0.0
210
0.0
220
0.0
230
1.0
  2
SOLID
 70
     1
 71
     1
 91
        1
 92
        1
 93
        4
 72
     1
 10
98.90660298349573
 20
188.5787998515794
 11
82.65409647930026
 21
188.5787998515794
 72
     1
 10
82.65409647930026
 20
188.5787998515794
 11
82.65409647930026
 21
192.5787998515794
 72
     1
 10
82.65409647930026
 20
192.5787998515794
 11
98.90660298349573
 21
192.5787998515794
 72
     1
 10
98.90660298349573
 20
192.5787998515794
 11
98.90660298349573
 21
188.5787998515794
 97
        1
330
399
 75
     0
 76
     1
 98
        1
 10
359.629882622241
 20
1792.176437396096
1001
ACAD
1010
0.0
1020
0.0
1030
0.0
  0
LWPOLYLINE
  5
399
102
{ACAD_REACTORS
330
398
102
}
330
1F
100
AcDbEntity
  8
0
370
    40
100
AcDbPolyline
 90
        4
 70
     1
 43
0.0
 10
98.90660298349573
 20
188.5787998515794
 10
82.65409647930026
 20
188.5787998515794
 10
82.65409647930026
 20
192.5787998515794
 10
98.90660298349573
 20
192.5787998515794
  0
MTEXT
  5
39A
330
1F
100
AcDbEntity
  8
0
100
AcDbMText
 10
163.7814418290292
 20
201.7418247269271
 30
0.0
 40
2.1
 41
7.532370663950121
 71
     1
 72
     5
  1
{\fTimes New Roman|b1|i0|c0|p18;LAN}
 73
     1
 44
1.0
1001
ACAD
1000
MTEXTBEGIN
1070
    73
1070
     1
1070
    44
1040
1.0
1070
    74
1070
     0
1000
MTEXTEND
  0
MTEXT
  5
39B
330
1F
100
AcDbEntity
  8
0
100
AcDbMText
 10
158.6817892305773
 20
195.0608396733997
 30
0.0
 40
1.199999999999999
 41
31.09534810251878
 71
     1
 72
     5
  1
{\fTimes New Roman|b1|i0|c0|p18;COMMUNICATION}
 73
     1
 44
1.0
1001
ACAD
1000
MTEXTBEGIN
1070
    73
1070
     1
1070
    44
1040
1.0
1070
    74
1070
     0
1000
MTEXTEND
  0
LWPOLYLINE
  5
39C
330
1F
100
AcDbEntity
  8
0
370
    40
100
AcDbPolyline
 90
        4
 70
     1
 43
0.0
 10
152.1556300030624
 20
188.5787998515794
 10
180.5948603715096
 20
188.5787998515794
 10
180.5948603715096
 20
204.1646334406167
 10
152.1556300030624
 20
204.1646334406167
  0
LINE
  5
39D
330
1F
100
AcDbEntity
  8
0
370
    40
100
AcDbLine
 10
152.1556300030624
 20
196.371716646098
 30
0.0
 11
180.5948603715096
 21
196.371716646098
 31
0.0
  0
LINE
  5
39E
330
1F
100
AcDbEntity
  8
0
370
    40
100
AcDbLine
 10
152.1556300030624
 20
192.5787998515794
 30
0.0
 11
180.5948603715096
 21
192.5787998515794
 31
0.0
  0
HATCH
  5
39F
330
1F
100
AcDbEntity
  8
0
 62
     5
370
    40
100
AcDbHatch
 10
0.0
 20
0.0
 30
0.0
210
0.0
220
0.0
230
1.0
  2
SOLID
 70
     1
 71
     1
 91
        1
 92
        1
 93
        4
 72
     1
 10
152.1556300030624
 20
188.5787998515794
 11
180.5948603715096
 21
188.5787998515794
 72
     1
 10
180.5948603715096
 20
188.5787998515794
 11
180.5948603715096
 21
192.5787998515794
 72
     1
 10
180.5948603715096
 20
192.5787998515794
 11
152.1556300030624
 21
192.5787998515794
 72
     1
 10
152.1556300030624
 20
192.5787998515794
 11
152.1556300030624
 21
188.5787998515794
 97
        1
330
3A0
 75
     0
 76
     1
 98
        1
 10
355.5003980179681
 20
1792.176437396096
1001
ACAD
1010
0.0
1020
0.0
1030
0.0
  0
LWPOLYLINE
  5
3A0
102
{ACAD_REACTORS
330
39F
102
}
330
1F
100
AcDbEntity
  8
0
370
    40
100
AcDbPolyline
 90
        4
 70
     1
 43
0.0
 10
152.1556300030624
 20
188.5787998515794
 10
180.5948603715096
 20
188.5787998515794
 10
180.5948603715096
 20
192.5787998515794
 10
152.1556300030624
 20
192.5787998515794
  0
MTEXT
  5
3A1
330
1F
100
AcDbEntity
  8
0
100
AcDbMText
 10
106.4531458596357
 20
130.5043263615358
 30
0.0
 40
1.8
 41
30.1392853340641
 71
     1
 72
     5
  1
{\fTimes New Roman|b1|i0|c0|p18;AUDIO}
 73
     1
 44
1.0
1001
ACAD
1000
MTEXTBEGIN
1070
    73
1070
     1
1070
    44
1040
1.0
1070
    74
1070
     0
1000
MTEXTEND
  0
MTEXT
  5
3A2
330
1F
100
AcDbEntity
  8
0
100
AcDbMText
 10
176.9735403396953
 20
130.5043263615358
 30
0.0
 40
1.8
 41
30.17137303591678
 71
     1
 72
     5
  1
{\fTimes New Roman|b1|i0|c0|p18;SD CARD}
 73
     1
 44
1.0
1001
ACAD
1000
MTEXTBEGIN
1070
    73
1070
     1
1070
    44
1040
1.0
1070
    74
1070
     0
1000
MTEXTEND
  0
LWPOLYLINE
  5
3A3
330
1F
100
AcDbEntity
  8
0
370
    40
100
AcDbPolyline
 90
        4
 70
     1
 43
0.0
 10
171.0285621046078
 20
33.27210118642744
 10
191.0285621046078
 20
33.27210118642744
 10
191.0285621046078
 20
38.27210118642744
 10
171.0285621046078
 20
38.27210118642744
  0
LWPOLYLINE
  5
3A4
330
1F
100
AcDbEntity
  8
0
370
    40
100
AcDbPolyline
 90
        4
 70
     1
 43
0.0
 10
114.9233368354271
 20
33.27210118642744
 10
124.9233368354271
 20
33.27210118642744
 10
124.9233368354271
 20
40.27210118642743
 10
114.9233368354271
 20
40.27210118642743
  0
CIRCLE
  5
3A5
330
1F
100
AcDbEntity
  8
0
370
    40
100
AcDbCircle
 10
119.9233368354271
 20
36.77210118642721
 30
0.0
 40
1.646347971756855
  0
MTEXT
  5
3A6
330
1F
100
AcDbEntity
  8
0
100
AcDbMText
 10
164.1622811275292
 20
220.9750749782505
 30
0.0
 40
1.8
 41
11.28101596972304
 71
     1
 72
     5
  1
{\fTimes New Roman|b1|i0|c0|p18;LAN}
 73
     1
 44
1.0
1001
ACAD
1000
MTEXTBEGIN
1070
    73
1070
     1
1070
    44
1040
1.0
1070
    74
1070
     0
1000
MTEXTEND
  0
DIMENSION
  5
3A7
102
{ACAD_XDICTIONARY
360
3A8
102
}
102
{ACAD_REACTORS
330
3A9
102
}
330
1F
100
AcDbEntity
  8
0
370
    40
100
AcDbDimension
  2
*D9
 10
192.3503488333116
 20
90.14172107372086
 30
0.0
 11
133.1003488341738
 21
100.8919710737208
 31
0.0
 70
    32
  1
{\H0.7667x;\C256;119}
 71
     5
 42
118.4999999982756
  3
TRIEU
100
AcDbAlignedDimension
 13
73.85034883503599
 23
78.27210118642732
 33
0.0
 14
192.3503488333116
 24
78.27210118642732
 34
0.0
100
AcDbRotatedDimension
  0
DIMENSION
  5
3AA
102
{ACAD_XDICTIONARY
360
3AB
102
}
102
{ACAD_REACTORS
330
3AC
102
}
330
1F
100
AcDbEntity
  8
0
370
    40
100
AcDbDimension
  2
*D10
 10
61.51483903053786
 20
24.27210118642744
 30
0.0
 11
50.76458903053785
 21
51.77210118642745
 31
0.0
 70
    32
  1
{\H0.7667x;\C256;55}
 71
     5
 42
55.0
  3
TRIEU
100
AcDbAlignedDimension
 13
74.85034883503651
 23
79.27210118642744
 33
0.0
 14
73.85034883503549
 24
24.27210118642744
 34
0.0
 50
90.0
100
AcDbRotatedDimension
  0
DIMENSION
  5
3AD
102
{ACAD_XDICTIONARY
360
3AE
102
}
102
{ACAD_REACTORS
330
3AF
102
}
330
1F
100
AcDbEntity
  8
0
370
    40
100
AcDbDimension
  2
*D11
 10
360.5315212218484
 20
24.27210118642742
 30
0.0
 11
349.7812712218484
 21
51.77210118642748
 31
0.0
 70
    32
  1
{\H0.7667x;\C256;55}
 71
     5
 42
55.0
  3
TRIEU
100
AcDbAlignedDimension
 13
303.116524165142
 23
79.27210118642744
 33
0.0
 14
325.1165241651421
 24
24.27210118642744
 34
0.0
 50
90.0
100
AcDbRotatedDimension
  0
DIMENSION
  5
3B0
102
{ACAD_XDICTIONARY
360
3B1
102
}
102
{ACAD_REACTORS
330
3B2
102
}
330
1F
100
AcDbEntity
  8
0
370
    40
100
AcDbDimension
  2
*D12
 10
337.1165241651421
 20
89.76137515908828
 30
0.0
 11
279.3264001738995
 21
100.5116251590883
 31
0.0
 70
    32
  1
{\H0.7667x;\C256;116}
 71
     5
 42
115.5802479824852
  3
TRIEU
100
AcDbAlignedDimension
 13
221.5362761826569
 23
26.9658463736058
 33
0.0
 14
337.1165241651421
 24
49.98553789340245
 34
0.0
100
AcDbRotatedDimension
  0
DIMENSION
  5
3B3
102
{ACAD_XDICTIONARY
360
3B4
102
}
102
{ACAD_REACTORS
330
3B5
102
}
330
1F
100
AcDbEntity
  8
0
370
    40
100
AcDbDimension
  2
*D13
 10
192.3503488350359
 20
243.0151727820875
 30
0.0
 11
133.1003488350359
 21
253.7654227820874
 31
0.0
 70
    32
  1
{\H0.7667x;\C256;119}
 71
     5
 42
118.5
  3
TRIEU
100
AcDbAlignedDimension
 13
73.85034883503587
 23
224.9146334406167
 33
0.0
 14
192.3503488350359
 24
224.9146334406167
 34
0.0
100
AcDbRotatedDimension
  0
DIMENSION
  5
3B6
102
{ACAD_XDICTIONARY
360
3B7
102
}
102
{ACAD_REACTORS
330
3B8
102
}
330
1F
100
AcDbEntity
  8
0
370
    40
100
AcDbDimension
  2
*D14
 10
221.5362761826569
 20
124.4146334406167
 30
0.0
 11
210.7860261826569
 21
174.6646334406168
 31
0.0
 70
    32
  1
{\H0.7667x;\C256;101}
 71
     5
 42
100.5
  3
TRIEU
100
AcDbAlignedDimension
 13
192.3503488350359
 23
224.9146334406167
 33
0.0
 14
192.3503488350359
 24
124.4146334406167
 34
0.0
 50
90.0
100
AcDbRotatedDimension
  0
ENDSEC
  0
SECTION
  2
OBJECTS
  0
DICTIONARY
  5
C
330
0
100
AcDbDictionary
281
     1
  3
ACAD_COLOR
350
73
  3
ACAD_GROUP
350
D
  3
ACAD_LAYOUT
350
1A
  3
ACAD_MATERIAL
350
72
  3
ACAD_MLINESTYLE
350
17
  3
ACAD_PLOTSETTINGS
350
19
  3
ACAD_PLOTSTYLENAME
350
E
  3
ACAD_TABLESTYLE
350
86
  3
ACAD_VISUALSTYLE
350
99
  3
AcDbVariableDictionary
350
66
  3
DWGPROPS
350
415
  0
DICTIONARY
  5
10A
330
2
100
AcDbDictionary
280
     1
281
     1
  3
ACAD_LAYERSTATES
360
10B
  0
DICTIONARY
  5
3A8
330
3A7
100
AcDbDictionary
280
     1
281
     1
  3
ACAD_DIMASSOC
360
3A9
  0
DICTIONARY
  5
3AB
330
3AA
100
AcDbDictionary
280
     1
281
     1
  3
ACAD_DIMASSOC
360
3AC
  0
DICTIONARY
  5
3AE
330
3AD
100
AcDbDictionary
280
     1
281
     1
  3
ACAD_DIMASSOC
360
3AF
  0
DICTIONARY
  5
3B1
330
3B0
100
AcDbDictionary
280
     1
281
     1
  3
ACAD_DIMASSOC
360
3B2
  0
DICTIONARY
  5
3B4
330
3B3
100
AcDbDictionary
280
     1
281
     1
  3
ACAD_DIMASSOC
360
3B5
  0
DICTIONARY
  5
3B7
330
3B6
100
AcDbDictionary
280
     1
281
     1
  3
ACAD_DIMASSOC
360
3B8
  0
DICTIONARY
  5
73
102
{ACAD_REACTORS
330
C
102
}
330
C
100
AcDbDictionary
281
     1
  0
DICTIONARY
  5
D
102
{ACAD_REACTORS
330
C
102
}
330
C
100
AcDbDictionary
281
     1
  0
DICTIONARY
  5
1A
102
{ACAD_REACTORS
330
C
102
}
330
C
100
AcDbDictionary
281
     1
  3
Layout1
350
59
  3
Layout2
350
5E
  3
Model
350
22
  0
DICTIONARY
  5
72
102
{ACAD_REACTORS
330
C
102
}
330
C
100
AcDbDictionary
281
     1
  3
ByBlock
350
97
  3
ByLayer
350
96
  3
Global
350
98
  0
DICTIONARY
  5
17
102
{ACAD_REACTORS
330
C
102
}
330
C
100
AcDbDictionary
281
     1
  3
Standard
350
18
  0
DICTIONARY
  5
19
102
{ACAD_REACTORS
330
C
102
}
330
C
100
AcDbDictionary
281
     1
  0
ACDBDICTIONARYWDFLT
  5
E
102
{ACAD_REACTORS
330
C
102
}
330
C
100
AcDbDictionary
281
     1
  3
Normal
350
F
100
AcDbDictionaryWithDefault
340
F
  0
DICTIONARY
  5
86
102
{ACAD_REACTORS
330
C
102
}
330
C
100
AcDbDictionary
281
     1
  3
Standard
350
87
  0
DICTIONARY
  5
99
102
{ACAD_REACTORS
330
C
102
}
330
C
100
AcDbDictionary
281
     1
  3
2dWireframe
350
9F
  3
3D Hidden
350
A1
  3
3dWireframe
350
A0
  3
Basic
350
9E
  3
Brighten
350
A5
  3
ColorChange
350
A9
  3
Conceptual
350
A2
  3
Dim
350
A4
  3
Facepattern
350
A8
  3
Flat
350
9A
  3
FlatWithEdges
350
9B
  3
Gouraud
350
9C
  3
GouraudWithEdges
350
9D
  3
Linepattern
350
A7
  3
Realistic
350
A3
  3
Thicken
350
A6
  0
DICTIONARY
  5
66
102
{ACAD_REACTORS
330
C
102
}
330
C
100
AcDbDictionary
281
     1
  3
CTABLESTYLE
350
89
  3
DIMASSOC
350
67
  3
HIDETEXT
350
6B
  3
INDEXCTL
350
414
  3
SORTENTS
350
413
  0
XRECORD
  5
415
102
{ACAD_REACTORS
330
C
102
}
330
C
100
AcDbXrecord
280
     1
  1
DWGPROPS COOKIE
  2

  3

  4

  6

  7

  8
Administrator
  9

300
=
301
=
302
=
303
=
304
=
305
=
306
=
307
=
308
=
309
=
 40
0.0003715046296296
 41
2458472.427121343
 42
2458472.427490614
  1

 90
        0
  0
DICTIONARY
  5
10B
102
{ACAD_REACTORS
330
10A
102
}
330
10A
100
AcDbDictionary
281
     1
  0
DIMASSOC
  5
3A9
102
{ACAD_REACTORS
330
3A8
102
}
330
3A8
100
AcDbDimAssoc
330
3A7
 90
        3
 70
     0
 71
     0
  1
AcDbOsnapPointRef
 72
     6
331
2F1
 73
     2
 91
        0
 40
0.0
 10
0.0
 20
0.0
 30
0.0
332
339
 74
     2
 92
        0
 75
     0
  1
AcDbOsnapPointRef
 72
    13
331
33D
 73
     2
 91
        0
 40
0.2122289113539724
 10
0.0
 20
0.0
 30
2.000000000000000E+50
 75
     0
  0
DIMASSOC
  5
3AC
102
{ACAD_REACTORS
330
3AB
102
}
330
3AB
100
AcDbDimAssoc
330
3AA
 90
        3
 70
     0
 71
     0
  1
AcDbOsnapPointRef
 72
     6
331
2F6
 73
     2
 91
        0
 40
0.9999999999999921
 10
0.0
 20
0.0
 30
0.0
332
339
 74
     2
 92
        0
 75
     0
  1
AcDbOsnapPointRef
 72
    13
331
2FC
 73
     2
 91
        0
 40
0.0
 10
0.0
 20
0.0
 30
2.000000000000000E+50
 75
     0
  0
DIMASSOC
  5
3AF
102
{ACAD_REACTORS
330
3AE
102
}
330
3AE
100
AcDbDimAssoc
330
3AD
 90
        3
 70
     0
 71
     0
  1
AcDbOsnapPointRef
 72
     1
331
363
 73
     2
 91
        0
 40
1.0
 10
0.0
 20
0.0
 30
2.000000000000000E+50
 75
     0
  1
AcDbOsnapPointRef
 72
    13
331
342
 73
     2
 91
        0
 40
0.0
 10
0.0
 20
0.0
 30
2.000000000000000E+50
 75
     0
  0
DIMASSOC
  5
3B2
102
{ACAD_REACTORS
330
3B1
102
}
330
3B1
100
AcDbDimAssoc
330
3B0
 90
        3
 70
     0
 71
     0
  1
AcDbOsnapPointRef
 72
     1
331
376
 73
     2
 91
        2
 40
1.0
 10
0.0
 20
0.0
 30
2.000000000000000E+50
 75
     0
  1
AcDbOsnapPointRef
 72
    13
331
375
 73
     2
 91
        0
 40
0.0
 10
0.0
 20
0.0
 30
2.000000000000000E+50
 75
     0
  0
DIMASSOC
  5
3B5
102
{ACAD_REACTORS
330
3B4
102
}
330
3B4
100
AcDbDimAssoc
330
3B3
 90
        3
 70
     0
 71
     0
  1
AcDbOsnapPointRef
 72
    13
331
37F
 73
     2
 91
        0
 40
0.0
 10
0.0
 20
0.0
 30
2.000000000000000E+50
 75
     0
  1
AcDbOsnapPointRef
 72
     1
331
27F
 73
     2
 91
        1
 40
1.0
 10
0.0
 20
0.0
 30
2.000000000000000E+50
 75
     0
  0
DIMASSOC
  5
3B8
102
{ACAD_REACTORS
330
3B7
102
}
330
3B7
100
AcDbDimAssoc
330
3B6
 90
        2
 70
     0
 71
     0
  1
AcDbOsnapPointRef
 72
     1
331
27F
 73
     2
 91
        2
 40
1.0
 10
0.0
 20
0.0
 30
2.000000000000000E+50
 75
     0
  0
LAYOUT
  5
59
102
{ACAD_XDICTIONARY
360
418
102
}
102
{ACAD_REACTORS
330
1A
102
}
330
1A
100
AcDbPlotSettings
  1

  2
None
  4

  6

 40
0.0
 41
0.0
 42
0.0
 43
0.0
 44
0.0
 45
0.0
 46
0.0
 47
0.0
 48
0.0
 49
0.0
140
0.0
141
0.0
142
1.0
143
1.0
 70
   688
 72
     0
 73
     0
 74
     5
  7

 75
    16
147
1.0
148
0.0
149
0.0
100
AcDbLayout
  1
Layout1
 70
     1
 71
     1
 10
0.0
 20
0.0
 11
12.0
 21
9.0
 12
0.0
 22
0.0
 32
0.0
 14
0.0
 24
0.0
 34
0.0
 15
0.0
 25
0.0
 35
0.0
146
0.0
 13
0.0
 23
0.0
 33
0.0
 16
1.0
 26
0.0
 36
0.0
 17
0.0
 27
1.0
 37
0.0
 76
     0
330
58
  0
LAYOUT
  5
5E
102
{ACAD_XDICTIONARY
360
41A
102
}
102
{ACAD_REACTORS
330
1A
102
}
330
1A
100
AcDbPlotSettings
  1

  2
None
  4

  6

 40
0.0
 41
0.0
 42
0.0
 43
0.0
 44
0.0
 45
0.0
 46
0.0
 47
0.0
 48
0.0
 49
0.0
140
0.0
141
0.0
142
1.0
143
1.0
 70
   688
 72
     0
 73
     0
 74
     5
  7

 75
    16
147
1.0
148
0.0
149
0.0
100
AcDbLayout
  1
Layout2
 70
     1
 71
     2
 10
0.0
 20
0.0
 11
12.0
 21
9.0
 12
0.0
 22
0.0
 32
0.0
 14
0.0
 24
0.0
 34
0.0
 15
0.0
 25
0.0
 35
0.0
146
0.0
 13
0.0
 23
0.0
 33
0.0
 16
1.0
 26
0.0
 36
0.0
 17
0.0
 27
1.0
 37
0.0
 76
     0
330
5D
  0
LAYOUT
  5
22
102
{ACAD_XDICTIONARY
360
416
102
}
102
{ACAD_REACTORS
330
1A
102
}
330
1A
100
AcDbPlotSettings
  1

  2
none_device
  4
ANSI_A_(8.50_x_11.00_Inches)
  6

 40
6.349999904632568
 41
19.04999923706055
 42
6.350006103515625
 43
19.04998779296875
 44
215.8999938964844
 45
279.3999938964844
 46
0.0
 47
0.0
 48
0.0
 49
0.0
140
0.0
141
0.0
142
1.0
143
2.584895464708373
 70
 11952
 72
     0
 73
     1
 74
     0
  7

 75
     0
147
0.3868628397755418
148
0.0
149
0.0
100
AcDbLayout
  1
Model
 70
     1
 71
     0
 10
0.0
 20
0.0
 11
12.0
 21
9.0
 12
0.0
 22
0.0
 32
0.0
 14
0.0
 24
0.0
 34
0.0
 15
0.0
 25
0.0
 35
0.0
146
0.0
 13
0.0
 23
0.0
 33
0.0
 16
1.0
 26
0.0
 36
0.0
 17
0.0
 27
1.0
 37
0.0
 76
     0
330
1F
331
94
  0
MATERIAL
  5
97
102
{ACAD_XDICTIONARY
360
420
102
}
102
{ACAD_REACTORS
330
72
102
}
330
72
100
AcDbMaterial
  1
ByBlock
  0
MATERIAL
  5
96
102
{ACAD_XDICTIONARY
360
41E
102
}
102
{ACAD_REACTORS
330
72
102
}
330
72
100
AcDbMaterial
  1
ByLayer
  0
MATERIAL
  5
98
102
{ACAD_XDICTIONARY
360
422
102
}
102
{ACAD_REACTORS
330
72
102
}
330
72
100
AcDbMaterial
  1
Global
  0
MLINESTYLE
  5
18
102
{ACAD_REACTORS
330
17
102
}
330
17
100
AcDbMlineStyle
  2
STANDARD
 70
     0
  3

 62
   256
 51
90.0
 52
90.0
 71
     2
 49
0.5
 62
   256
  6
BYLAYER
 49
-0.5
 62
   256
  6
BYLAYER
  0
ACDBPLACEHOLDER
  5
F
102
{ACAD_REACTORS
330
E
102
}
330
E
  0
TABLESTYLE
  5
87
102
{ACAD_XDICTIONARY
360
41C
102
}
102
{ACAD_REACTORS
330
86
102
}
330
86
100
AcDbTableStyle
  3
Standard
 70
     0
 71
     0
 40
0.06
 41
0.06
280
     0
281
     0
  7
Standard
140
0.18
170
     2
 62
     0
 63
     7
283
     0
274
    -2
284
     1
 64
     0
275
    -2
285
     1
 65
     0
276
    -2
286
     1
 66
     0
277
    -2
287
     1
 67
     0
278
    -2
288
     1
 68
     0
279
    -2
289
     1
 69
     0
  7
Standard
140
0.25
170
     5
 62
     0
 63
     7
283
     0
274
    -2
284
     1
 64
     0
275
    -2
285
     1
 65
     0
276
    -2
286
     1
 66
     0
277
    -2
287
     1
 67
     0
278
    -2
288
     1
 68
     0
279
    -2
289
     1
 69
     0
  7
Standard
140
0.18
170
     5
 62
     0
 63
     7
283
     0
274
    -2
284
     1
 64
     0
275
    -2
285
     1
 65
     0
276
    -2
286
     1
 66
     0
277
    -2
287
     1
 67
     0
278
    -2
288
     1
 68
     0
279
    -2
289
     1
 69
     0
  0
VISUALSTYLE
  5
9F
102
{ACAD_REACTORS
330
99
102
}
330
99
100
AcDbVisualStyle
  2
2dWireframe
 70
     4
 71
     0
 72
     2
 73
     1
 90
        0
 40
-0.6
 41
-30.0
 62
     5
 63
     7
 74
     1
 91
        4
 64
     7
 65
   257
 75
     1
175
     1
 42
1.0
 92
        0
 66
   257
 43
1.0
 76
     1
 77
     6
 78
     2
 67
     7
 79
     5
170
     0
171
     0
290
     0
174
     0
 93
        1
 44
0.0
173
     0
291
     0
 45
0.0
1001
ACAD
1000
AcDbSavedByObjectVersion
1070
     0
  0
VISUALSTYLE
  5
A1
102
{ACAD_REACTORS
330
99
102
}
330
99
100
AcDbVisualStyle
  2
3D Hidden
 70
     6
 71
     1
 72
     2
 73
     2
 90
        0
 40
-0.6
 41
-30.0
 62
     5
 63
     7
 74
     2
 91
        2
 64
     7
 65
   257
 75
     2
175
     1
 42
40.0
 92
        0
 66
   257
 43
1.0
 76
     1
 77
     6
 78
     2
 67
     7
 79
     3
170
     0
171
     0
290
     0
174
     0
 93
        1
 44
0.0
173
     0
291
     0
 45
0.0
1001
ACAD
1000
AcDbSavedByObjectVersion
1070
     0
  0
VISUALSTYLE
  5
A0
102
{ACAD_REACTORS
330
99
102
}
330
99
100
AcDbVisualStyle
  2
3dWireframe
 70
     5
 71
     0
 72
     2
 73
     1
 90
        0
 40
-0.6
 41
-30.0
 62
     5
 63
     7
 74
     1
 91
        4
 64
     7
 65
   257
 75
     1
175
     1
 42
1.0
 92
        0
 66
   257
 43
1.0
 76
     1
 77
     6
 78
     2
 67
     7
 79
     5
170
     0
171
     0
290
     0
174
     0
 93
        1
 44
0.0
173
     0
291
     0
 45
0.0
1001
ACAD
1000
AcDbSavedByObjectVersion
1070
     0
  0
VISUALSTYLE
  5
9E
102
{ACAD_REACTORS
330
99
102
}
330
99
100
AcDbVisualStyle
  2
Basic
 70
     7
 71
     1
 72
     0
 73
     1
 90
        0
 40
-0.6
 41
-30.0
 62
     5
 63
     7
 74
     0
 91
        4
 64
     7
 65
   257
 75
     1
175
     1
 42
1.0
 92
        8
 66
     7
 43
1.0
 76
     1
 77
     6
 78
     2
 67
     7
 79
     5
170
     0
171
     0
290
     0
174
     0
 93
        1
 44
0.0
173
     0
291
     1
 45
0.0
1001
ACAD
1000
AcDbSavedByObjectVersion
1070
     0
  0
VISUALSTYLE
  5
A5
102
{ACAD_REACTORS
330
99
102
}
330
99
100
AcDbVisualStyle
  2
Brighten
 70
    12
 71
     2
 72
     2
 73
     1
 90
        0
 40
-0.6
 41
-30.0
 62
     5
 63
     7
 74
     1
 91
        4
 64
     7
 65
   257
 75
     1
175
     1
 42
1.0
 92
        8
 66
     7
 43
1.0
 76
     1
 77
     6
 78
     2
 67
     7
 79
     5
170
     0
171
     0
290
     0
174
     0
 93
        1
 44
50.0
173
     0
291
     1
 45
0.0
1001
ACAD
1000
AcDbSavedByObjectVersion
1070
     0
  0
VISUALSTYLE
  5
A9
102
{ACAD_REACTORS
330
99
102
}
330
99
100
AcDbVisualStyle
  2
ColorChange
 70
    16
 71
     2
 72
     2
 73
     3
 90
        0
 40
-0.6
 41
-30.0
 62
     5
 63
     8
 74
     1
 91
        4
 64
     7
 65
   257
 75
     1
175
     1
 42
1.0
 92
        8
 66
     8
 43
1.0
 76
     1
 77
     6
 78
     2
 67
     7
 79
     5
170
     0
171
     0
290
     0
174
     0
 93
        1
 44
0.0
173
     0
291
     1
 45
0.0
1001
ACAD
1000
AcDbSavedByObjectVersion
1070
     0
  0
VISUALSTYLE
  5
A2
102
{ACAD_REACTORS
330
99
102
}
330
99
100
AcDbVisualStyle
  2
Conceptual
 70
     9
 71
     3
 72
     2
 73
     1
 90
        0
 40
-0.6
 41
-30.0
 62
     5
 63
     7
 74
     2
 91
        2
 64
     7
 65
   257
 75
     1
175
     1
 42
40.0
 92
        8
 66
     7
 43
1.0
 76
     1
 77
     6
 78
     2
 67
     7
 79
     3
170
     0
171
     0
290
     0
174
     0
 93
        1
 44
0.0
173
     0
291
     0
 45
0.0
1001
ACAD
1000
AcDbSavedByObjectVersion
1070
     0
  0
VISUALSTYLE
  5
A4
102
{ACAD_REACTORS
330
99
102
}
330
99
100
AcDbVisualStyle
  2
Dim
 70
    11
 71
     2
 72
     2
 73
     1
 90
        0
 40
-0.6
 41
-30.0
 62
     5
 63
     7
 74
     1
 91
        4
 64
     7
 65
   257
 75
     1
175
     1
 42
1.0
 92
        8
 66
     7
 43
1.0
 76
     1
 77
     6
 78
     2
 67
     7
 79
     5
170
     0
171
     0
290
     0
174
     0
 93
        1
 44
-50.0
173
     0
291
     1
 45
0.0
1001
ACAD
1000
AcDbSavedByObjectVersion
1070
     0
  0
VISUALSTYLE
  5
A8
102
{ACAD_REACTORS
330
99
102
}
330
99
100
AcDbVisualStyle
  2
Facepattern
 70
    15
 71
     2
 72
     2
 73
     1
 90
        0
 40
-0.6
 41
-30.0
 62
     5
 63
     7
 74
     1
 91
        4
 64
     7
 65
   257
 75
     1
175
     1
 42
1.0
 92
        8
 66
     7
 43
1.0
 76
     1
 77
     6
 78
     2
 67
     7
 79
     5
170
     0
171
     0
290
     0
174
     0
 93
        1
 44
0.0
173
     0
291
     1
 45
0.0
1001
ACAD
1000
AcDbSavedByObjectVersion
1070
     0
  0
VISUALSTYLE
  5
9A
102
{ACAD_REACTORS
330
99
102
}
330
99
100
AcDbVisualStyle
  2
Flat
 70
     0
 71
     2
 72
     1
 73
     1
 90
        2
 40
-0.6
 41
30.0
 62
     5
 63
     7
 74
     0
 91
        4
 64
     7
 65
   257
 75
     1
175
     1
 42
1.0
 92
        8
 66
     7
 43
1.0
 76
     1
 77
     6
 78
     2
 67
     7
 79
     5
170
     0
171
     0
290
     0
174
     0
 93
        1
 44
0.0
173
     0
291
     1
 45
0.0
1001
ACAD
1000
AcDbSavedByObjectVersion
1070
     0
  0
VISUALSTYLE
  5
9B
102
{ACAD_REACTORS
330
99
102
}
330
99
100
AcDbVisualStyle
  2
FlatWithEdges
 70
     1
 71
     2
 72
     1
 73
     1
 90
        2
 40
-0.6
 41
30.0
 62
     5
 63
     7
 74
     1
 91
        4
 64
     7
 65
   257
 75
     1
175
     1
 42
1.0
 92
        0
 66
   257
 43
1.0
 76
     1
 77
     6
 78
     2
 67
     7
 79
     5
170
     0
171
     0
290
     0
174
     0
 93
        1
 44
0.0
173
     0
291
     1
 45
0.0
1001
ACAD
1000
AcDbSavedByObjectVersion
1070
     0
  0
VISUALSTYLE
  5
9C
102
{ACAD_REACTORS
330
99
102
}
330
99
100
AcDbVisualStyle
  2
Gouraud
 70
     2
 71
     2
 72
     2
 73
     1
 90
        2
 40
-0.6
 41
30.0
 62
     5
 63
     7
 74
     0
 91
        4
 64
     7
 65
   257
 75
     1
175
     1
 42
1.0
 92
        0
 66
     7
 43
1.0
 76
     1
 77
     6
 78
     2
 67
     7
 79
     5
170
     0
171
     0
290
     0
174
     0
 93
        1
 44
0.0
173
     0
291
     1
 45
0.0
1001
ACAD
1000
AcDbSavedByObjectVersion
1070
     0
  0
VISUALSTYLE
  5
9D
102
{ACAD_REACTORS
330
99
102
}
330
99
100
AcDbVisualStyle
  2
GouraudWithEdges
 70
     3
 71
     2
 72
     2
 73
     1
 90
        2
 40
-0.6
 41
30.0
 62
     5
 63
     7
 74
     1
 91
        4
 64
     7
 65
   257
 75
     1
175
     1
 42
1.0
 92
        0
 66
   257
 43
1.0
 76
     1
 77
     6
 78
     2
 67
     7
 79
     5
170
     0
171
     0
290
     0
174
     0
 93
        1
 44
0.0
173
     0
291
     1
 45
0.0
1001
ACAD
1000
AcDbSavedByObjectVersion
1070
     0
  0
VISUALSTYLE
  5
A7
102
{ACAD_REACTORS
330
99
102
}
330
99
100
AcDbVisualStyle
  2
Linepattern
 70
    14
 71
     2
 72
     2
 73
     1
 90
        0
 40
-0.6
 41
-30.0
 62
     5
 63
     7
 74
     1
 91
        4
 64
     7
 65
   257
 75
     7
175
     7
 42
1.0
 92
        8
 66
     7
 43
1.0
 76
     1
 77
     6
 78
     2
 67
     7
 79
     5
170
     0
171
     0
290
     0
174
     0
 93
        1
 44
0.0
173
     0
291
     1
 45
0.0
1001
ACAD
1000
AcDbSavedByObjectVersion
1070
     0
  0
VISUALSTYLE
  5
A3
102
{ACAD_REACTORS
330
99
102
}
330
99
100
AcDbVisualStyle
  2
Realistic
 70
     8
 71
     2
 72
     2
 73
     1
 90
        0
 40
-0.6
 41
-30.0
 62
     5
 63
     7
 74
     1
 91
        0
 64
     7
 65
   257
 75
     1
175
     1
 42
1.0
 92
        8
 66
     8
 43
1.0
 76
     1
 77
     6
 78
     2
 67
     7
 79
     5
170
     0
171
     0
290
     0
174
     0
 93
       13
 44
0.0
173
     0
291
     0
 45
0.0
1001
ACAD
1000
AcDbSavedByObjectVersion
1070
     0
  0
VISUALSTYLE
  5
A6
102
{ACAD_REACTORS
330
99
102
}
330
99
100
AcDbVisualStyle
  2
Thicken
 70
    13
 71
     2
 72
     2
 73
     1
 90
        0
 40
-0.6
 41
-30.0
 62
     5
 63
     7
 74
     1
 91
        4
 64
     7
 65
   257
 75
     1
175
     1
 42
1.0
 92
       12
 66
     7
 43
1.0
 76
     1
 77
     6
 78
     2
 67
     7
 79
     5
170
     0
171
     0
290
     0
174
     0
 93
        1
 44
0.0
173
     0
291
     1
 45
0.0
1001
ACAD
1000
AcDbSavedByObjectVersion
1070
     0
  0
DICTIONARYVAR
  5
89
102
{ACAD_REACTORS
330
66
102
}
330
66
100
DictionaryVariables
280
     0
  1
STANDARD
  0
DICTIONARYVAR
  5
67
102
{ACAD_REACTORS
330
66
102
}
330
66
100
DictionaryVariables
280
     0
  1
2
  0
DICTIONARYVAR
  5
6B
102
{ACAD_REACTORS
330
66
102
}
330
66
100
DictionaryVariables
280
     0
  1
1
  0
DICTIONARYVAR
  5
414
102
{ACAD_REACTORS
330
66
102
}
330
66
100
DictionaryVariables
280
     0
  1
0
  0
DICTIONARYVAR
  5
413
102
{ACAD_REACTORS
330
66
102
}
330
66
100
DictionaryVariables
280
     0
  1
127
  0
DICTIONARY
  5
418
330
59
100
AcDbDictionary
280
     1
281
     1
  3
ACAD_XREC_ROUNDTRIP
360
419
  0
DICTIONARY
  5
41A
330
5E
100
AcDbDictionary
280
     1
281
     1
  3
ACAD_XREC_ROUNDTRIP
360
41B
  0
DICTIONARY
  5
416
330
22
100
AcDbDictionary
280
     1
281
     1
  3
ACAD_XREC_ROUNDTRIP
360
417
  0
DICTIONARY
  5
420
330
97
100
AcDbDictionary
280
     1
281
     1
  3
ACAD_XREC_ROUNDTRIP
360
421
  0
DICTIONARY
  5
41E
330
96
100
AcDbDictionary
280
     1
281
     1
  3
ACAD_XREC_ROUNDTRIP
360
41F
  0
DICTIONARY
  5
422
330
98
100
AcDbDictionary
280
     1
281
     1
  3
ACAD_XREC_ROUNDTRIP
360
423
  0
DICTIONARY
  5
41C
330
87
100
AcDbDictionary
280
     1
281
     1
  3
ACAD_XREC_ROUNDTRIP
360
41D
  0
XRECORD
  5
419
102
{ACAD_REACTORS
330
418
102
}
330
418
100
AcDbXrecord
280
     1
102
SHADEPLOT
 70
     0
102
SHADEPLOTRESLEVEL
 70
     2
102
SHADEPLOTCUSTOMDPI
 70
   300
  0
XRECORD
  5
41B
102
{ACAD_REACTORS
330
41A
102
}
330
41A
100
AcDbXrecord
280
     1
102
SHADEPLOT
 70
     0
102
SHADEPLOTRESLEVEL
 70
     2
102
SHADEPLOTCUSTOMDPI
 70
   300
  0
XRECORD
  5
417
102
{ACAD_REACTORS
330
416
102
}
330
416
100
AcDbXrecord
280
     1
102
SHADEPLOT
 70
     0
102
SHADEPLOTRESLEVEL
 70
     2
102
SHADEPLOTCUSTOMDPI
 70
   300
  0
XRECORD
  5
421
102
{ACAD_REACTORS
330
420
102
}
330
420
100
AcDbXrecord
280
     1
102
MATERIAL
148
0.0
149
0.0
149
0.0
 93
        0
 94
       63
282
     0
 72
     1
 77
     1
171
     1
175
     1
179
     1
273
     0
  0
XRECORD
  5
41F
102
{ACAD_REACTORS
330
41E
102
}
330
41E
100
AcDbXrecord
280
     1
102
MATERIAL
148
0.0
149
0.0
149
0.0
 93
        0
 94
       63
282
     0
 72
     1
 77
     1
171
     1
175
     1
179
     1
273
     0
  0
XRECORD
  5
423
102
{ACAD_REACTORS
330
422
102
}
330
422
100
AcDbXrecord
280
     1
102
MATERIAL
148
0.0
149
0.0
149
0.0
 93
        0
 94
       63
282
     0
 72
     1
 77
     1
171
     1
175
     1
179
     1
273
     0
  0
XRECORD
  5
41D
102
{ACAD_REACTORS
330
41C
102
}
330
41C
100
AcDbXrecord
280
     1
102
ACAD_ROUNDTRIP_PRE2007_TABLESTYLE
 90
      512
 91
        0
  1

 92
      512
 93
        0
  2

 94
      512
 95
        0
  3

  0
ENDSEC
  0
EOF
